<?xml version="1.0" standalone="no"?>
<!DOCTYPE svg PUBLIC "-//W3C//DTD SVG 1.1//EN" "http://www.w3.org/Graphics/SVG/1.1/DTD/svg11.dtd" >
<svg xmlns="http://www.w3.org/2000/svg" xmlns:xlink="http://www.w3.org/1999/xlink" version="1.1">
<metadata>
Created by FontForge 20170731 at Wed Nov  7 06:08:35 2018
 By Aleksey,,,
Copyright 2017 The Barlow Project Authors (https://github.com/jpt/barlow)
</metadata>
<defs>
<font id="BarlowSemiCondensed-Regular" horiz-adv-x="0" >
  <font-face 
    font-family="Barlow Semi Condensed"
    font-weight="400"
    font-stretch="semi-condensed"
    units-per-em="1000"
    panose-1="0 0 5 6 0 0 0 0 0 0"
    ascent="800"
    descent="-200"
    x-height="506"
    cap-height="700"
    bbox="-589.455 -209 1047 1079"
    underline-thickness="50"
    underline-position="-150"
    unicode-range="U+000D-FB02"
  />
<missing-glyph horiz-adv-x="380" 
d="M4 0h372q4 0 4 4v692q0 4 -4 4h-372q-4 0 -4 -4v-692q0 -4 4 -4zM158 242v39q0 31 13.5 50.5t40.5 43.5t40.5 44t13.5 51q0 36 -19.5 57.5t-51.5 21.5q-33 0 -53.5 -22t-20.5 -58v-19q0 -10 -10 -10l-30 2q-10 0 -10 10v17q0 57 34.5 92t90.5 35q55 0 88 -34.5t33 -91.5
q0 -45 -17 -71t-48 -53q-22 -20 -32.5 -33.5t-10.5 -33.5v-37q0 -10 -10 -10h-31q-10 0 -10 10zM154.5 102.5q-11.5 11.5 -11.5 28.5t11.5 28.5t28.5 11.5t28.5 -11.5t11.5 -28.5t-11.5 -28.5t-28.5 -11.5t-28.5 11.5z" />
    <glyph glyph-name="fi" unicode="fi" horiz-adv-x="548" 
d="M187 617q-18 -25 -18 -82v-25q0 -4 4 -4h94q10 0 10 -10v-39q0 -10 -10 -10h-94q-4 0 -4 -4v-433q0 -10 -10 -10h-51q-10 0 -10 10v433q0 4 -4 4h-53q-10 0 -10 10v39q0 10 10 10h53q4 0 4 4v28q0 89 33.5 127t116.5 38h21q10 0 10 -10v-41q0 -10 -10 -10h-18
q-46 0 -64 -25zM391.5 614q-15.5 16 -15.5 40q0 25 15.5 40.5t40.5 15.5q24 0 40 -15.5t16 -40.5q0 -24 -16 -40t-40 -16q-25 0 -40.5 16zM395 10v486q0 10 10 10h51q10 0 10 -10v-486q0 -10 -10 -10h-51q-10 0 -10 10z" />
    <glyph glyph-name="fl" unicode="fl" horiz-adv-x="522" 
d="M187 617q-18 -25 -18 -82v-25q0 -4 4 -4h94q10 0 10 -10v-39q0 -10 -10 -10h-94q-4 0 -4 -4v-433q0 -10 -10 -10h-51q-10 0 -10 10v433q0 4 -4 4h-53q-10 0 -10 10v39q0 10 10 10h53q4 0 4 4v28q0 89 33.5 127t116.5 38h21q10 0 10 -10v-41q0 -10 -10 -10h-18
q-46 0 -64 -25zM383 10v680q0 10 10 10h51q10 0 10 -10v-680q0 -10 -10 -10h-51q-10 0 -10 10z" />
    <glyph glyph-name="I_J.liga" unicode="IJ" horiz-adv-x="738" 
d="M83 10v680q0 10 10 10h51q10 0 10 -10v-680q0 -10 -10 -10h-51q-10 0 -10 10zM316.5 44q-53.5 52 -53.5 137v80q0 10 10 10h51q10 0 10 -10v-81q0 -57 34 -91.5t91 -34.5q56 0 91 35t35 91v510q0 10 10 10h50q10 0 10 -10v-509q0 -85 -54 -137t-142 -52q-89 0 -142.5 52z
" />
    <glyph glyph-name="f_f_i.liga" unicode="ffi" horiz-adv-x="842" 
d="M766.5 694.5q15.5 -15.5 15.5 -40.5q0 -24 -16 -40t-40 -16t-40 16t-16 40q0 25 16 40.5t40 15.5q25 0 40.5 -15.5zM167 510q0 -4 4 -4h116q10 0 10 -10v-36q0 -10 -10 -10h-116q-4 0 -4 -4v-436q0 -10 -10 -10h-51q-10 0 -10 10v436q0 4 -4 4h-51q-10 0 -10 10v36
q0 10 10 10h51q4 0 4 4v38q0 82 34.5 119.5t116.5 36.5h19q10 0 10 -10v-32q0 -10 -10 -10h-19q-46 -1 -63 -27.5t-17 -81.5v-33zM466 510q0 -4 4 -4h97q10 0 10 -10v-36q0 -10 -10 -10h-97q-4 0 -4 -4v-436q0 -10 -10 -10h-50q-10 0 -10 10v436q0 4 -4 4h-81q-10 0 -10 10
v36q0 10 10 10h81q4 0 4 4v38q0 82 34.5 119.5t115.5 36.5h20q10 0 10 -10v-32q0 -10 -10 -10h-19q-47 -1 -64 -27.5t-17 -81.5v-33zM690 10v486q0 10 10 10h51q10 0 10 -10v-486q0 -10 -10 -10h-51q-10 0 -10 10z" />
    <glyph glyph-name="f_f_l.liga" unicode="ffl" horiz-adv-x="821" 
d="M467 510q0 -4 4 -4h97q10 0 10 -10v-36q0 -10 -10 -10h-97q-4 0 -4 -4v-436q0 -10 -10 -10h-50q-10 0 -10 10v436q0 4 -4 4h-222q-4 0 -4 -4v-436q0 -10 -10 -10h-51q-10 0 -10 10v436q0 4 -4 4h-51q-10 0 -10 10v36q0 10 10 10h51q4 0 4 4v38q0 82 34.5 119.5
t116.5 36.5h19q10 0 10 -10v-32q0 -10 -10 -10h-19q-46 -1 -63 -27.5t-17 -81.5v-33q0 -4 4 -4h222q4 0 4 4v38q0 82 34.5 119.5t115.5 36.5h20q10 0 10 -10v-32q0 -10 -10 -10h-19q-47 -1 -64 -27.5t-17 -81.5v-33zM693 700h51q10 0 10 -10v-680q0 -10 -10 -10h-51
q-10 0 -10 10v680q0 10 10 10z" />
    <glyph glyph-name="g_j.liga" unicode="gj" horiz-adv-x="696" 
d="M621 694.5q16 -15.5 16 -40.5q0 -24 -16 -40t-40 -16q-25 0 -40.5 16t-15.5 40q0 25 15.5 40.5t40.5 15.5q24 0 40 -15.5zM340.5 457.5q1.5 0.5 1.5 2.5v36q0 10 10 10h51q10 0 10 -10v-482q0 -226 -247 -215q-10 1 -10 11l1 45q0 5 3 7.5t7 1.5q94 -3 134.5 34.5
t40.5 119.5v33q0 2 -1.5 3t-3.5 -1q-39 -56 -116 -56q-64 0 -107 38.5t-53 104.5q-6 44 -6 113q0 75 7 118q8 65 50.5 104t106.5 39q78 0 118 -55q2 -2 3.5 -1.5zM546 496q0 10 10 10h50q10 0 10 -10v-540q0 -82 -38.5 -123t-120.5 -41q-10 0 -10 10v41q0 10 9 10
q42 2 66 28.5t24 74.5v540zM342 254q0 60 -3 102q-4 42 -31.5 69t-70.5 27t-71.5 -27t-34.5 -69q-4 -36 -4 -102q0 -50 4 -100q5 -42 34 -69t72 -27t70.5 27t31.5 69q3 39 3 100z" />
    <glyph glyph-name="i_j.liga" unicode="ij" horiz-adv-x="452" 
d="M75.5 614q-15.5 16 -15.5 40q0 25 15.5 40.5t40.5 15.5q24 0 40 -15.5t16 -40.5q0 -24 -16 -40t-40 -16q-25 0 -40.5 16zM295 614q-16 16 -16 40q0 25 16 40.5t40 15.5q25 0 40.5 -15.5t15.5 -40.5q0 -24 -16 -40t-40 -16t-40 16zM81 10v486q0 10 10 10h51q10 0 10 -10
v-486q0 -10 -10 -10h-51q-10 0 -10 10zM196 -198v42q0 10 10 10q47 1 70.5 27t23.5 75v540q0 10 10 10h51q10 0 10 -10v-540q0 -84 -37 -124t-128 -40q-10 0 -10 10z" />
    <glyph glyph-name="hyphen_hyphen.liga" unicode="&#x2d;&#x2d;" horiz-adv-x="639" 
d="M36 283v42q0 10 10 10h547q10 0 10 -10v-42q0 -10 -10 -10h-547q-10 0 -10 10z" />
    <glyph glyph-name=".notdef" horiz-adv-x="380" 
d="M4 0h372q4 0 4 4v692q0 4 -4 4h-372q-4 0 -4 -4v-692q0 -4 4 -4zM158 242v39q0 31 13.5 50.5t40.5 43.5t40.5 44t13.5 51q0 36 -19.5 57.5t-51.5 21.5q-33 0 -53.5 -22t-20.5 -58v-19q0 -10 -10 -10l-30 2q-10 0 -10 10v17q0 57 34.5 92t90.5 35q55 0 88 -34.5t33 -91.5
q0 -45 -17 -71t-48 -53q-22 -20 -32.5 -33.5t-10.5 -33.5v-37q0 -10 -10 -10h-31q-10 0 -10 10zM154.5 102.5q-11.5 11.5 -11.5 28.5t11.5 28.5t28.5 11.5t28.5 -11.5t11.5 -28.5t-11.5 -28.5t-28.5 -11.5t-28.5 11.5z" />
    <glyph glyph-name=".null" 
 />
    <glyph glyph-name="nonmarkingreturn" unicode="&#xd;" horiz-adv-x="200" 
 />
    <glyph glyph-name="NULL" 
 />
    <glyph glyph-name="NULL" 
 />
    <glyph glyph-name="space" unicode=" " horiz-adv-x="200" 
 />
    <glyph glyph-name="exclam" unicode="!" horiz-adv-x="285" 
d="M114 238l-6 452q0 10 10 10h51q10 0 10 -10l-6 -452q0 -10 -10 -10h-39q-10 0 -10 10zM101.5 19.5q-15.5 15.5 -15.5 39.5q0 25 15.5 40.5t40.5 15.5q24 0 40 -15.5t16 -40.5q0 -24 -16 -39.5t-40 -15.5q-25 0 -40.5 15.5z" />
    <glyph glyph-name="quotedbl" unicode="&#x22;" horiz-adv-x="249" 
d="M34 498l-8 186q0 10 10 10h50q10 0 10 -10l-8 -186q0 -10 -10 -10h-34q-10 0 -10 10zM160 498l-8 186q0 10 10 10h51q10 0 10 -10l-8 -186q0 -10 -10 -10h-35q-10 0 -10 10z" />
    <glyph glyph-name="numbersign" unicode="#" horiz-adv-x="624" 
d="M550 429h-69q-5 0 -5 -4l-24 -159q0 -4 3 -4h61q10 0 10 -10v-42q0 -10 -10 -10h-70q-5 0 -5 -4l-26 -171q-1 -9 -10 -9l-51 2q-4 0 -7 3t-2 8l24 167q0 4 -3 4h-152q-5 0 -5 -4l-26 -171q-1 -9 -10 -9l-51 2q-4 0 -7 3t-2 8l25 167q0 4 -3 4h-61q-10 0 -10 10v42
q0 10 10 10h70q5 0 5 4l23 159q0 4 -3 4h-61q-10 0 -10 10l1 43q0 10 10 10h70q5 0 5 4l26 171q1 9 10 9l51 -2q4 0 7 -3t2 -8l-25 -167q0 -4 3 -4h152q5 0 5 4l26 171q1 9 10 9l52 -2q4 0 7 -3t2 -8l-25 -167q0 -4 3 -4h60q10 0 10 -10v-43q0 -10 -10 -10zM381 266l23 159
q0 4 -3 4h-152q-5 0 -5 -4l-24 -159q0 -4 3 -4h153q5 0 5 4z" />
    <glyph glyph-name="dollar" unicode="$" horiz-adv-x="488" 
d="M399 51q-43 -48 -119 -58q-4 0 -4 -4l1 -70q0 -10 -10 -10h-39q-10 0 -10 10l1 70q0 4 -4 4q-78 10 -123 58t-45 123v27q0 10 10 10h48q10 0 10 -10v-23q0 -56 36 -90t98 -34q58 0 91 31.5t33 84.5q0 34 -15.5 59t-45 46.5t-86.5 52.5q-61 33 -95.5 58t-56 61t-21.5 88
q0 74 42 119t116 53q4 0 4 4l-1 76q0 10 10 10h39q10 0 10 -10l-1 -77q0 -4 4 -4q75 -10 117.5 -59.5t42.5 -124.5v-23q0 -10 -10 -10h-48q-10 0 -10 10v22q0 56 -35 90.5t-96 34.5q-54 0 -85 -29t-31 -82q0 -34 14.5 -57t42 -42t85.5 -51q67 -38 102 -64.5t56 -61t21 -84.5
q0 -76 -43 -124z" />
    <glyph glyph-name="percent" unicode="%" horiz-adv-x="815" 
d="M153.5 444q-32.5 19 -51.5 51.5t-19 71.5t19 71.5t51.5 51.5t71.5 19q38 0 70.5 -19t51.5 -51.5t19 -71.5t-19 -71.5t-51.5 -51.5t-70.5 -19q-39 0 -71.5 19zM194.5 3.5q-2.5 3.5 0.5 8.5l372 681q3 7 12 7h32q5 0 7.5 -3.5t-0.5 -8.5l-372 -681q-3 -7 -12 -7h-32
q-5 0 -7.5 3.5zM292.5 497.5q27.5 28.5 27.5 69.5t-27.5 69.5t-67.5 28.5t-68 -28.5t-28 -69.5t28 -69.5t68 -28.5t67.5 28.5zM520.5 10q-32.5 19 -51.5 52t-19 72q0 38 19 70.5t51.5 51.5t71.5 19q38 0 70.5 -19t51.5 -51.5t19 -70.5q0 -39 -19 -72t-51.5 -52t-70.5 -19
q-39 0 -71.5 19zM659.5 64q27.5 29 27.5 70t-27.5 69t-67.5 28t-68 -28t-28 -69q0 -42 27.5 -70.5t68.5 -28.5q40 0 67.5 29z" />
    <glyph glyph-name="ampersand" unicode="&#x26;" horiz-adv-x="600" 
d="M546 6q0 -6 -8 -6h-57q-8 0 -13 6l-50 64q-1 2 -3 1.5t-3 -1.5q-42 -41 -86 -59.5t-97 -18.5q-83 0 -132.5 42t-49.5 121q0 68 35.5 117t99.5 97q3 2 0 5q-55 75 -71.5 109.5t-16.5 71.5q0 68 43 110.5t113 42.5q71 0 116 -42t45 -111q0 -61 -34 -105.5t-96 -90.5
q-3 -1 -1 -5q8 -11 48 -62l39 -50l49 -62q3 -4 6 0q24 33 56 82q5 8 13 3l38 -22q8 -5 4 -14q-36 -58 -72 -103q-2 -3 1 -6l19 -24l63 -84q2 -2 2 -6zM189 618q-24 -25 -24 -67q0 -26 13 -52t57 -86q3 -3 6 0q49 38 74 70t25 72t-24.5 64t-63.5 24t-63 -25zM305 69.5
q33 16.5 67 50.5q3 3 1 6l-45 60q-6 7 -16 21q-19 25 -33 42.5t-23 29.5l-28 36q-1 3 -5 1q-51 -41 -78 -77t-27 -82q0 -48 31 -76t85 -28q38 0 71 16.5z" />
    <glyph glyph-name="quotesingle" unicode="'" horiz-adv-x="125" 
d="M34 503l-8 185q0 10 10 10h53q10 0 10 -10l-8 -185q0 -10 -10 -10h-37q-10 0 -10 10z" />
    <glyph glyph-name="parenleft" unicode="(" horiz-adv-x="241" 
d="M95 -97q-44 74 -71.5 186t-27.5 236q0 126 28 240.5t73 190.5q4 7 12 7h48q5 0 7 -3.5t0 -8.5q-38 -78 -62.5 -190.5t-24.5 -234.5q0 -119 24.5 -230t62.5 -188q1 -2 1 -5q0 -7 -8 -7h-50q-8 0 -12 7z" />
    <glyph glyph-name="parenright" unicode=")" horiz-adv-x="241" 
d="M146 756q44 -74 71.5 -186t27.5 -236q0 -127 -28 -241.5t-73 -189.5q-4 -7 -12 -7h-48q-5 0 -7 3.5t0 8.5q38 78 62.5 190.5t24.5 233.5q0 120 -24.5 231t-62.5 188q-1 2 -1 5q0 7 8 7h50q8 0 12 -7z" />
    <glyph glyph-name="asterisk" unicode="*" horiz-adv-x="379" 
d="M166 404l1 120q0 6 -5 3l-105 -62l-5 -2q-5 0 -9 6l-12 23q-2 4 -2 6q0 5 5 8l106 61q2 1 2 3t-2 3l-106 61q-4 2 -4.5 6t1.5 8l12 24q5 10 14 4l105 -63q5 -2 5 3l-1 121q0 10 10 10h27q10 0 10 -10l-1 -121q0 -5 5 -3l105 63q4 2 6 2q5 0 8 -6l13 -24q1 -2 1 -5
q0 -6 -5 -9l-106 -61q-1 -1 -1 -3t1 -3l106 -61q4 -2 4.5 -6t-1.5 -8l-12 -24q-5 -10 -14 -4l-105 63q-5 3 -5 -3l1 -120q0 -10 -10 -10h-27q-10 0 -10 10z" />
    <glyph glyph-name="plus" unicode="+" horiz-adv-x="471" 
d="M435 335v-38q0 -10 -10 -10h-156q-4 0 -4 -4v-155q0 -10 -10 -10h-39q-10 0 -10 10v155q0 4 -4 4h-156q-10 0 -10 10v38q0 10 10 10h156q4 0 4 4v159q0 10 10 10h39q10 0 10 -10v-159q0 -4 4 -4h156q10 0 10 -10z" />
    <glyph glyph-name="comma" unicode="," horiz-adv-x="221" 
d="M54.5 -76q-2.5 3 -1.5 8l37 214q2 9 11 9h45q5 0 7.5 -3t0.5 -8l-50 -214q-2 -9 -11 -9h-31q-5 0 -7.5 3z" />
    <glyph glyph-name="hyphen" unicode="-" horiz-adv-x="354" 
d="M36 290v42q0 10 10 10h262q10 0 10 -10v-42q0 -10 -10 -10h-262q-10 0 -10 10z" />
    <glyph glyph-name="period" unicode="." horiz-adv-x="234" 
d="M75.5 18q-15.5 16 -15.5 40q0 25 15.5 40.5t40.5 15.5q24 0 40 -15.5t16 -40.5q0 -24 -16 -40t-40 -16q-25 0 -40.5 16z" />
    <glyph glyph-name="slash" unicode="/" horiz-adv-x="367" 
d="M30.5 3q-2.5 3 -1.5 8l202 681q3 8 11 8h49q5 0 7.5 -3t1.5 -8l-201 -681q-3 -8 -11 -8h-50q-5 0 -7.5 3z" />
    <glyph glyph-name="zero" unicode="0" horiz-adv-x="504" 
d="M113 42q-52 52 -52 139v338q0 86 52 138t138 52q87 0 139.5 -52t52.5 -138v-338q0 -87 -52.5 -139t-139.5 -52q-86 0 -138 52zM339 86q33 34 33 90v347q0 56 -33 90t-88 34q-53 0 -86 -34t-33 -90v-347q0 -55 33 -89.5t86 -34.5q55 0 88 34z" />
    <glyph glyph-name="one" unicode="1" horiz-adv-x="303" 
d="M163 700h54q10 0 10 -10v-680q0 -10 -10 -10h-51q-10 0 -10 10v608q0 2 -1.5 3t-3.5 0l-100 -37q-2 -1 -5 -1q-5 0 -7 8l-5 37v2q0 5 7 10l109 57q6 3 13 3z" />
    <glyph glyph-name="two" unicode="2" horiz-adv-x="469" 
d="M141 62h275q10 0 10 -10v-42q0 -10 -10 -10h-356q-10 0 -10 10v44q0 6 4 13q90 122 201 280q79 115 79 184q0 52 -30 83.5t-79 31.5q-48 0 -77 -31.5t-28 -83.5v-34q0 -10 -10 -10h-52q-10 0 -10 10v40q2 77 51.5 124t127.5 47q80 0 129 -49t49 -128q0 -88 -82 -208
q-51 -74 -161 -224l-23 -32q-3 -5 2 -5z" />
    <glyph glyph-name="three" unicode="3" horiz-adv-x="462" 
d="M403 213q0 -60 -15 -104q-37 -117 -164 -117q-68 0 -114 36.5t-59 100.5q-7 32 -7 73q0 10 10 10h51q10 0 10 -10q2 -43 5 -58q9 -42 36 -66t68 -24q77 0 100 78q9 36 9 86q0 60 -13 99q-26 70 -96 70q-16 0 -28 -6q-6 -2 -7 -2q-4 0 -7 4l-26 27q-5 7 -1 14l156 209
q2 2 1 3.5t-3 1.5h-250q-10 0 -10 10v42q0 10 10 10h331q10 0 10 -10v-45q0 -8 -4 -13l-145 -198q-1 -1 0 -3t3 -2q47 -2 80 -27t50 -70q19 -52 19 -119z" />
    <glyph glyph-name="four" unicode="4" horiz-adv-x="483" 
d="M442 246v-44q0 -10 -10 -10h-37q-4 0 -4 -4v-178q0 -10 -10 -10h-51q-10 0 -10 10v178q0 4 -4 4h-271q-10 0 -10 10v38q0 7 2 12l178 440q3 8 11 8h55q5 0 7 -3.5t0 -8.5l-170 -427q-1 -2 0 -3.5t3 -1.5h195q4 0 4 4v158q0 10 10 10h51q10 0 10 -10v-158q0 -4 4 -4h37
q10 0 10 -10z" />
    <glyph glyph-name="five" unicode="5" horiz-adv-x="461" 
d="M418 215q0 -51 -9 -88q-15 -65 -59.5 -100t-111.5 -35q-68 0 -113 36t-59 101q-5 18 -6 37v2q0 8 9 8h52q9 0 10 -8v-4l4 -20q9 -43 35.5 -66t67.5 -23q40 0 66.5 23.5t35.5 66.5q7 28 7 69q0 38 -8 78q-9 40 -35 60.5t-66 20.5q-38 0 -65.5 -17.5t-38.5 -50.5l-2 -4
q-1 -7 -10 -7h-53q-10 0 -10 10v386q0 10 10 10h317q10 0 10 -10v-42q0 -10 -10 -10h-252q-4 0 -4 -4v-245q0 -2 1.5 -2.5t3.5 1.5q20 22 50.5 34.5t65.5 12.5q59 0 98.5 -28.5t55.5 -83.5q13 -47 13 -108z" />
    <glyph glyph-name="six" unicode="6" horiz-adv-x="462" 
d="M419 214q0 -54 -10 -87q-15 -65 -58 -100t-111 -35q-64 0 -106.5 32.5t-59.5 91.5q-15 44 -15 97v320q0 80 49.5 127.5t128.5 47.5q75 0 122 -47t47 -124v-15q0 -10 -10 -10h-51q-10 0 -10 10v11q0 50 -28 81t-71 31q-46 0 -76 -31.5t-30 -84.5v-147q0 -3 1.5 -3.5
t3.5 1.5q37 56 113 56q61 0 100.5 -31t56.5 -89q14 -39 14 -102zM348 216q0 48 -10 81q-10 38 -35.5 59t-64.5 21q-38 0 -63.5 -22t-35.5 -60q-9 -33 -9 -80q0 -36 7 -73q9 -41 35.5 -64t66.5 -23q39 0 65.5 23t36.5 67q7 33 7 71z" />
    <glyph glyph-name="seven" unicode="7" horiz-adv-x="419" 
d="M123 11l201 622q1 2 -0.5 3.5t-3.5 1.5h-226q-4 0 -4 -4v-43q0 -10 -10 -10h-40q-10 0 -10 10v99q0 10 10 10h350q10 0 10 -10v-46q0 -4 -2 -12l-200 -624q-3 -8 -12 -8h-55q-11 0 -8 11z" />
    <glyph glyph-name="eight" unicode="8" horiz-adv-x="472" 
d="M415 196q0 -63 -22 -107q-20 -46 -61 -71.5t-96 -25.5t-96.5 26t-62.5 73q-21 45 -21 105q0 58 19 104t66 70q5 2 0 5q-34 19 -54 53q-27 44 -27 100q0 58 26 101q21 38 60.5 59.5t89.5 21.5q51 0 89 -20.5t60 -59.5q26 -43 26 -102q0 -56 -26 -100q-18 -31 -54 -52
q-5 -3 0 -5q44 -23 64 -69q20 -45 20 -106zM131 525q0 -41 18 -74q13 -24 35 -37t51 -13q30 0 53 14t36 39q16 29 16 72q0 40 -15 67q-13 26 -36 40.5t-54 14.5t-54 -15t-35 -42q-15 -28 -15 -66zM344 200q0 48 -14 82q-12 30 -36.5 46.5t-58.5 16.5q-67 0 -94 -63
q-14 -34 -14 -82q0 -50 16 -83q12 -30 36 -46.5t57 -16.5q65 0 92 63q16 35 16 83z" />
    <glyph glyph-name="nine" unicode="9" horiz-adv-x="461" 
d="M402 487v-320q0 -80 -49 -127.5t-128 -47.5q-75 0 -122.5 47t-47.5 124v15q0 10 10 10h51q10 0 10 -10v-11q0 -50 28 -81t71 -31q46 0 76 31.5t30 84.5v146q0 2 -2 3t-3 -1q-19 -28 -48 -41.5t-65 -13.5q-61 0 -100 31t-57 89q-14 39 -14 102q0 54 10 87q16 65 59 100
t110 35q64 0 106.5 -32.5t59.5 -91.5q15 -40 15 -97zM287 345q26 22 35 60q9 28 9 80q0 44 -7 73q-9 41 -35 64t-66 23t-66.5 -23t-36.5 -67q-6 -28 -6 -71q0 -51 9 -81q10 -38 35.5 -59t64.5 -21q38 0 64 22z" />
    <glyph glyph-name="colon" unicode=":" horiz-adv-x="275" 
d="M97.5 361q-15.5 16 -15.5 40q0 25 15.5 40.5t40.5 15.5q24 0 40 -15.5t16 -40.5q0 -24 -16 -40t-40 -16q-25 0 -40.5 16zM97.5 25q-15.5 16 -15.5 40q0 25 15.5 40.5t40.5 15.5q24 0 40 -15.5t16 -40.5q0 -24 -16 -40t-40 -16q-25 0 -40.5 16z" />
    <glyph glyph-name="semicolon" unicode=";" horiz-adv-x="252" 
d="M85.5 364q-16.5 17 -16.5 43q0 24 17.5 41t40.5 17q24 0 41.5 -17t17.5 -41q0 -25 -17 -42.5t-42 -17.5t-41.5 17zM74 -71.5q-3 3.5 -2 7.5l25 206q1 9 10 9h46q5 0 7.5 -3t1.5 -8l-38 -206q-1 -9 -11 -9h-31q-5 0 -8 3.5z" />
    <glyph glyph-name="less" unicode="&#x3c;" horiz-adv-x="471" 
d="M431.5 55.5q-3.5 -2.5 -8.5 0.5l-380 181q-7 4 -7 12v48q0 8 7 12l380 181q2 1 5 1q7 0 7 -8v-49q0 -7 -7 -11l-317 -147q-4 -3 0 -6l317 -147q7 -4 7 -11v-49q0 -5 -3.5 -7.5z" />
    <glyph glyph-name="equal" unicode="=" horiz-adv-x="471" 
d="M36 408v38q0 10 10 10h379q10 0 10 -10v-38q0 -10 -10 -10h-379q-10 0 -10 10zM36 201v38q0 10 10 10h379q10 0 10 -10v-38q0 -10 -10 -10h-379q-10 0 -10 10z" />
    <glyph glyph-name="greater" unicode="&#x3e;" horiz-adv-x="471" 
d="M43 54q-3 0 -5 2.5t-2 6.5v49q0 7 7 11l317 147q5 3 0 6l-317 147q-7 4 -7 11v49q0 5 3.5 7.5t8.5 -0.5l380 -181q7 -4 7 -12v-48q0 -8 -7 -12l-380 -181z" />
    <glyph glyph-name="question" unicode="?" horiz-adv-x="415" 
d="M156 210v59q0 43 18.5 70t56.5 61t57 61.5t19 71.5q0 50 -27.5 80.5t-71.5 30.5q-46 0 -74.5 -31t-28.5 -81v-31q0 -10 -10 -10l-51 3q-10 0 -10 10v28q0 79 48.5 128t126.5 49q77 0 123.5 -48t46.5 -128q0 -44 -13 -76t-31 -52t-47 -46q-30 -26 -45 -46t-15 -48v-55
q0 -10 -10 -10h-52q-10 0 -10 10zM151 18q-16 16 -16 40q0 25 16 40.5t40 15.5q25 0 40.5 -15.5t15.5 -40.5q0 -24 -15.5 -40t-40.5 -16q-24 0 -40 16z" />
    <glyph glyph-name="at" unicode="@" horiz-adv-x="794" 
d="M595.5 581q67.5 -36 104.5 -101.5t37 -150.5q0 -25 -3 -52q-13 -93 -59 -145t-115 -52q-34 0 -59.5 13t-39.5 37q-3 4 -6 1q-16 -25 -42.5 -38t-57.5 -13q-48 0 -77 27.5t-30 73.5q0 28 7 82q7 55 14 80q11 47 43.5 74.5t78.5 27.5q51 0 76 -34q1 -2 3 -1.5t2 2.5l2 19
q1 9 10 9h32q5 0 8 -3.5t2 -7.5l-27 -206q-1 -6 -1 -17q0 -35 18.5 -56t50.5 -21q43 0 73 39t39 108q4 34 4 50q0 74 -31.5 128.5t-88 84t-130.5 29.5q-79 0 -150.5 -38t-118 -110t-53.5 -168q-2 -24 -2 -36q0 -76 30.5 -134.5t86 -90t126.5 -31.5q49 0 93 12.5t69 30.5
q3 3 7 3t7 -5l15 -21q3 -5 3 -7q0 -4 -5 -7q-32 -25 -85.5 -40.5t-111.5 -15.5q-85 0 -150.5 38t-101 107.5t-35.5 159.5q0 13 2 41q9 110 64 192t139 125.5t177 43.5q89 0 156.5 -36zM450 242l5 38l4 54q2 29 -15 47.5t-46 18.5t-50.5 -18.5t-29.5 -47.5q-7 -29 -12 -72
q-6 -58 -6 -73q0 -29 17.5 -46.5t46.5 -17.5t49.5 18.5t27.5 47.5q6 28 9 51z" />
    <glyph glyph-name="A" unicode="A" horiz-adv-x="508" 
d="M411 9l-33 125q-1 3 -5 3h-239q-4 0 -5 -3l-33 -125q-2 -9 -11 -9h-52q-5 0 -7.5 3t-1.5 8l187 680q2 9 11 9h64q9 0 11 -9l187 -680l1 -3q0 -8 -10 -8h-53q-9 0 -11 9zM146.5 196.5q1.5 -1.5 3.5 -1.5h207q2 0 3.5 1.5t0.5 2.5l-106 402q-1 2 -2 2t-2 -2l-105 -402
q-1 -1 0.5 -2.5z" />
    <glyph glyph-name="B" unicode="B" horiz-adv-x="538" 
d="M386 360q47 -23 72.5 -66t26.5 -104q0 -90 -53.5 -140t-141.5 -50h-197q-10 0 -10 10v680q0 10 10 10h189q92 0 144 -47.5t52 -135.5q0 -56 -23.5 -94t-68.5 -58q-5 -2 0 -5zM154 634v-241q0 -4 4 -4h125q58 0 91.5 33t33.5 89q0 59 -33.5 93t-91.5 34h-125q-4 0 -4 -4z
M380 99q34 36 34 98q0 63 -34.5 99t-93.5 36h-128q-4 0 -4 -4v-261q0 -4 4 -4h130q58 0 92 36z" />
    <glyph glyph-name="C" unicode="C" horiz-adv-x="526" 
d="M119.5 46q-55.5 54 -55.5 143v323q0 89 55.5 142.5t146.5 53.5q92 0 147.5 -53t55.5 -141v-9q0 -10 -10 -10l-51 -2q-10 0 -10 9v14q0 58 -36.5 94t-95.5 36t-95 -35.5t-36 -94.5v-332q0 -59 36 -94.5t95 -35.5t95.5 36t36.5 94v14q0 9 10 9l51 -3q10 0 10 -10v-7
q0 -88 -55.5 -141.5t-147.5 -53.5q-91 0 -146.5 54z" />
    <glyph glyph-name="D" unicode="D" horiz-adv-x="542" 
d="M83 10v680q0 10 10 10h195q89 0 140.5 -51t51.5 -139v-320q0 -88 -51.5 -139t-140.5 -51h-195q-10 0 -10 10zM158 62h131q55 1 87 36.5t33 97.5v308q0 62 -32 98t-88 36h-131q-4 0 -4 -4v-568q0 -4 4 -4z" />
    <glyph glyph-name="E" unicode="E" horiz-adv-x="517" 
d="M458 638h-300q-4 0 -4 -4v-248q0 -4 4 -4h202q10 0 10 -10v-42q0 -10 -10 -10h-202q-4 0 -4 -4v-250q0 -4 4 -4h300q10 0 10 -10v-42q0 -10 -10 -10h-365q-10 0 -10 10v680q0 10 10 10h365q10 0 10 -10v-42q0 -10 -10 -10z" />
    <glyph glyph-name="F" unicode="F" horiz-adv-x="486" 
d="M457 638h-299q-4 0 -4 -4v-248q0 -4 4 -4h201q10 0 10 -10v-42q0 -10 -10 -10h-201q-4 0 -4 -4v-306q0 -10 -10 -10h-51q-10 0 -10 10v680q0 10 10 10h364q10 0 10 -10v-42q0 -10 -10 -10z" />
    <glyph glyph-name="G" unicode="G" horiz-adv-x="532" 
d="M119.5 45q-55.5 53 -55.5 141v328q0 88 55.5 141t146.5 53q60 0 105.5 -24t71 -67t25.5 -99v-28q0 -10 -10 -10h-51q-10 0 -10 10v28q0 57 -36 92.5t-95 35.5t-95 -35.5t-36 -94.5v-332q0 -58 36.5 -94t95.5 -36t94.5 34t35.5 92v109q0 4 -4 4h-117q-10 0 -10 10v42
q0 10 10 10h182q10 0 10 -10v-156q0 -91 -55 -144t-147 -53q-91 0 -146.5 53z" />
    <glyph glyph-name="H" unicode="H" horiz-adv-x="563" 
d="M420 700h51q10 0 10 -10v-680q0 -10 -10 -10h-51q-10 0 -10 10v306q0 4 -4 4h-248q-4 0 -4 -4v-306q0 -10 -10 -10h-51q-10 0 -10 10v680q0 10 10 10h51q10 0 10 -10v-304q0 -4 4 -4h248q4 0 4 4v304q0 10 10 10z" />
    <glyph glyph-name="I" unicode="I" horiz-adv-x="237" 
d="M83 10v680q0 10 10 10h51q10 0 10 -10v-680q0 -10 -10 -10h-51q-10 0 -10 10z" />
    <glyph glyph-name="J" unicode="J" horiz-adv-x="501" 
d="M79.5 44q-53.5 52 -53.5 137v80q0 10 10 10h51q10 0 10 -10v-81q0 -57 34 -91.5t91 -34.5q56 0 91 35t35 91v510q0 10 10 10h50q10 0 10 -10v-509q0 -85 -54 -137t-142 -52q-89 0 -142.5 52z" />
    <glyph glyph-name="K" unicode="K" horiz-adv-x="531" 
d="M83 10v680q0 10 10 10h51q10 0 10 -10v-332q0 -2 2 -2.5t3 1.5l254 337q4 6 13 6h56q6 0 8 -3.5t-2 -8.5l-200 -274q-1 -3 0 -6l218 -396q2 -4 2 -6q0 -6 -9 -6h-58q-9 0 -12 7l-190 345q-2 5 -5 0l-78 -99q-2 -2 -2 -5v-238q0 -10 -10 -10h-51q-10 0 -10 10z" />
    <glyph glyph-name="L" unicode="L" horiz-adv-x="482" 
d="M83 10v680q0 10 10 10h51q10 0 10 -10v-624q0 -4 4 -4h291q10 0 10 -10v-42q0 -10 -10 -10h-356q-10 0 -10 10z" />
    <glyph glyph-name="M" unicode="M" horiz-adv-x="618" 
d="M474 700h52q10 0 10 -10v-680q0 -10 -10 -10h-51q-10 0 -10 10v544q0 3 -2 4t-3 -2l-133 -231q-5 -7 -12 -7h-11q-7 0 -12 7l-134 230q-1 3 -3 2t-2 -4v-543q0 -10 -10 -10h-51q-10 0 -10 10v680q0 10 10 10h52q7 0 12 -7l151 -257q1 -1 3 -1t3 1l149 257q5 7 12 7z" />
    <glyph glyph-name="N" unicode="N" horiz-adv-x="585" 
d="M441 700h51q10 0 10 -10v-680q0 -10 -10 -10h-54q-9 0 -12 7l-268 535q-2 2 -3.5 2t-1.5 -3l1 -531q0 -10 -10 -10h-51q-10 0 -10 10v680q0 10 10 10h54q9 0 12 -7l268 -537q2 -2 3.5 -2t1.5 3l-1 533q0 10 10 10z" />
    <glyph glyph-name="O" unicode="O" horiz-adv-x="539" 
d="M161.5 17.5q-46.5 25.5 -72 71.5t-25.5 106v309q0 60 25.5 106.5t72 72t107.5 25.5t107.5 -25.5t72.5 -72t26 -106.5v-309q0 -60 -26 -106t-72.5 -71.5t-107.5 -25.5t-107.5 25.5zM367 92q37 38 37 100v314q0 63 -37 101.5t-98 38.5q-60 0 -97 -38.5t-37 -101.5v-314
q0 -62 37 -100t97 -38q61 0 98 38z" />
    <glyph glyph-name="P" unicode="P" horiz-adv-x="517" 
d="M432.5 647.5q49.5 -53.5 49.5 -141.5q0 -87 -49.5 -139.5t-129.5 -52.5h-149q-4 0 -4 -4v-300q0 -10 -10 -10h-51q-10 0 -10 10v681q0 10 10 10h214q80 0 129.5 -53.5zM379 409q32 36 32 96q0 61 -32 97.5t-85 36.5h-140q-4 0 -4 -4v-258q0 -4 4 -4h140q53 0 85 36z" />
    <glyph glyph-name="Q" unicode="Q" horiz-adv-x="510" 
d="M398.5 652.5q54.5 -55.5 54.5 -146.5v-314q0 -79 -42.5 -132t-115.5 -64q-4 -1 -4 -5v-96q0 -10 -10 -10h-52q-10 0 -10 10v96q0 4 -4 5q-72 11 -115 64t-43 132v314q0 60 25 106t70 71t103 25q89 0 143.5 -55.5zM382 511q0 60 -35 97.5t-92 37.5t-92 -37.5t-35 -97.5
v-322q0 -60 35 -97.5t92 -37.5t92 37.5t35 97.5v322z" />
    <glyph glyph-name="R" unicode="R" horiz-adv-x="528" 
d="M415 8l-124 309q-1 3 -4 3h-129q-4 0 -4 -4v-306q0 -10 -10 -10h-51q-10 0 -10 10v680q0 10 10 10h212q52 0 92.5 -24t63 -68t22.5 -101q0 -68 -33 -116t-90 -64q-4 -2 -2 -5l129 -310l1 -4q0 -8 -9 -8h-53q-8 0 -11 8zM154 634v-253q0 -4 4 -4h138q52 0 84 36t32 94
q0 59 -32 95t-84 36h-138q-4 0 -4 -4z" />
    <glyph glyph-name="S" unicode="S" horiz-adv-x="500" 
d="M102.5 41.5q-55.5 49.5 -55.5 132.5v27q0 10 10 10h49q10 0 10 -10v-23q0 -56 38 -90t101 -34q59 0 93 32t34 84q0 34 -16 59t-47 46t-89 53q-62 33 -97.5 58t-57.5 61t-22 88q0 81 52 127t139 46q93 0 148 -51t55 -135v-23q0 -10 -10 -10h-50q-10 0 -10 10v22
q0 56 -36 90.5t-99 34.5q-56 0 -87.5 -29t-31.5 -82q0 -34 15 -57t43.5 -42t87.5 -51q68 -38 104.5 -64.5t58 -61t21.5 -84.5q0 -84 -54 -133.5t-147 -49.5q-94 0 -149.5 49.5z" />
    <glyph glyph-name="T" unicode="T" horiz-adv-x="496" 
d="M457 690v-42q0 -10 -10 -10h-163q-4 0 -4 -4v-624q0 -10 -10 -10h-51q-10 0 -10 10v624q0 4 -4 4h-157q-10 0 -10 10v42q0 10 10 10h399q10 0 10 -10z" />
    <glyph glyph-name="U" unicode="U" horiz-adv-x="562" 
d="M173.5 18q-46.5 26 -72 73t-25.5 109v490q0 10 10 10h51q10 0 10 -10v-494q0 -64 37 -103t97 -39t97 39t37 103v494q0 10 10 10h51q10 0 10 -10v-490q0 -62 -25.5 -109t-72 -73t-107.5 -26t-107.5 26z" />
    <glyph glyph-name="V" unicode="V" horiz-adv-x="514" 
d="M218 9l-182 680l-1 3q0 8 10 8h54q10 0 11 -9l146 -572q1 -2 2 -2t2 2l146 572q2 9 11 9h52q5 0 7.5 -3t1.5 -8l-182 -680q-2 -9 -11 -9h-56q-9 0 -11 9z" />
    <glyph glyph-name="W" unicode="W" horiz-adv-x="751" 
d="M190 9l-161 680l-1 4q0 7 9 7h54q9 0 11 -9l122 -537q1 -3 2.5 -3t2.5 3l111 537q2 9 11 9h50q10 0 11 -9l115 -537q1 -3 2 -3t2 3l119 537q2 9 11 9h52q10 0 8 -11l-156 -680q-2 -9 -11 -9h-51q-9 0 -11 9l-114 545q-1 3 -2 3t-2 -3l-113 -545q-1 -9 -11 -9h-49
q-9 0 -11 9z" />
    <glyph glyph-name="X" unicode="X" horiz-adv-x="511" 
d="M39 3.5q-2 3.5 0 8.5l176 335q2 3 0 6l-176 335q-1 2 -1 5q0 7 8 7h55q9 0 12 -7l140 -277q1 -2 3 -2t3 2l140 277q3 7 12 7h55q5 0 7 -3.5t0 -8.5l-177 -336q-1 -3 0 -6l177 -334q1 -2 1 -5q0 -7 -8 -7h-55q-9 0 -12 7l-140 276q-1 2 -3 2t-3 -2l-140 -276q-3 -7 -12 -7
h-55q-5 0 -7 3.5z" />
    <glyph glyph-name="Y" unicode="Y" horiz-adv-x="496" 
d="M212 11v298q0 4 -1 5l-173 374l-1 4q0 8 9 8h54q8 0 11 -8l134 -299q1 -2 3 -2t3 2l134 299q3 8 11 8h54q5 0 7.5 -3.5t0.5 -8.5l-174 -374q-1 -1 -1 -5v-298q0 -10 -10 -10h-51q-10 0 -10 10z" />
    <glyph glyph-name="Z" unicode="Z" horiz-adv-x="472" 
d="M39 10v47q0 6 3 13l304 563q2 5 -2 5h-295q-10 0 -10 10v42q0 10 10 10h367q10 0 10 -10v-47q0 -5 -3 -13l-304 -563q-2 -5 2 -5h295q10 0 10 -10v-42q0 -10 -10 -10h-367q-10 0 -10 10z" />
    <glyph glyph-name="bracketleft" unicode="[" horiz-adv-x="341" 
d="M29 -111v875q0 10 10 10h174q10 0 10 -10v-42q0 -10 -10 -10h-109q-4 0 -4 -4v-763q0 -4 4 -4h110q10 0 10 -10v-42q0 -10 -10 -10h-175q-10 0 -10 10z" />
    <glyph glyph-name="backslash" unicode="\" horiz-adv-x="367" 
d="M340 8q0 -8 -10 -8h-50q-8 0 -11 8l-202 681l-1 3q0 8 10 8h50q8 0 11 -8l202 -681z" />
    <glyph glyph-name="bracketright" unicode="]" horiz-adv-x="341" 
d="M302 -121h-175q-10 0 -10 10v42q0 10 10 10h110q4 0 4 4v763q0 4 -4 4h-109q-10 0 -10 10v42q0 10 10 10h174q10 0 10 -10v-875q0 -10 -10 -10z" />
    <glyph glyph-name="asciicircum" unicode="^" horiz-adv-x="423" 
d="M40 318l137 374q3 8 12 8h45q8 0 11 -8l139 -373l1 -4q0 -8 -9 -8h-42q-9 0 -12 8l-107 306q-1 2 -3 2t-3 -2l-108 -306q-3 -8 -12 -8h-41q-11 0 -8 11z" />
    <glyph glyph-name="underscore" unicode="_" horiz-adv-x="430" 
d="M26 10v37q0 10 10 10h359q10 0 10 -10v-37q0 -10 -10 -10h-359q-10 0 -10 10z" />
    <glyph glyph-name="grave" unicode="`" horiz-adv-x="188" 
d="M157 578q0 -6 -9 -6h-34q-7 0 -12 7l-68 109q-2 4 -2 6q0 6 8 6h43q9 0 12 -7l60 -109q2 -4 2 -6z" />
    <glyph glyph-name="a" unicode="a" horiz-adv-x="462" 
d="M357.5 468q45.5 -46 45.5 -122v-336q0 -10 -10 -10h-51q-10 0 -10 10v36q0 2 -1.5 3t-3.5 -1q-22 -28 -56 -42t-76 -14q-63 0 -107.5 34t-44.5 111q0 80 51.5 121.5t140.5 41.5h93q4 0 4 4v38q0 51 -25.5 80.5t-75.5 29.5q-39 0 -65 -19.5t-31 -51.5q-1 -9 -11 -9l-55 3
q-5 0 -7.5 3t-1.5 7q7 58 54.5 93.5t117.5 35.5q80 0 125.5 -46zM295.5 81.5q36.5 27.5 36.5 76.5v81q0 4 -4 4h-88q-57 0 -91 -26.5t-34 -75.5q0 -44 26 -65.5t68 -21.5q50 0 86.5 27.5z" />
    <glyph glyph-name="b" unicode="b" horiz-adv-x="484" 
d="M431 248q0 -61 -13 -116q-18 -73 -55.5 -106.5t-100.5 -33.5q-79 0 -115 57q-1 3 -3 2.5t-2 -3.5v-38q0 -10 -10 -10h-51q-10 0 -10 10v680q0 10 10 10h51q10 0 10 -10v-232q0 -3 2 -3.5t3 2.5q15 28 41.5 42t68.5 14q67 0 107.5 -35.5t56.5 -110.5q10 -51 10 -119z
M359 253q0 81 -19 131q-28 68 -94 68q-34 0 -54 -18t-32 -52q-17 -46 -17 -129q0 -81 15 -126q12 -36 33.5 -55t56.5 -19q37 0 60 19t36 56q15 45 15 125z" />
    <glyph glyph-name="c" unicode="c" horiz-adv-x="461" 
d="M120 31.5q-47 39.5 -57 106.5q-6 51 -6 116q0 51 6 115q9 65 57 105t119 40t119.5 -38t56.5 -95l3 -21v-2q0 -4 -2.5 -6.5t-6.5 -2.5l-51 -3q-9 0 -11 9q0 9 -1 12q-5 35 -34.5 60t-72.5 25q-44 0 -72.5 -27t-33.5 -70t-5 -102q0 -60 5 -103q5 -44 33.5 -70t72.5 -26
t73.5 25t33.5 61l1 8q2 11 11 9l50 -4q9 -2 9 -9v-4q0 -4 -2 -12q-7 -59 -55.5 -97.5t-120.5 -38.5t-119 39.5z" />
    <glyph glyph-name="d" unicode="d" horiz-adv-x="484" 
d="M353 700h51q10 0 10 -10v-680q0 -10 -10 -10h-51q-10 0 -10 10v40q0 3 -1.5 3t-3.5 -2q-37 -59 -116 -59q-63 0 -100.5 33.5t-55.5 106.5q-13 55 -13 116q0 70 11 119q15 75 55.5 110.5t107.5 35.5q42 0 68.5 -14.5t42.5 -43.5q1 -3 3 -2.5t2 3.5v234q0 10 10 10z
M341 253q0 82 -16 129q-12 34 -32.5 52t-54.5 18q-66 0 -94 -68q-19 -50 -19 -131t16 -125q13 -37 35.5 -56t60.5 -19q35 0 56 19t33 55q15 45 15 126z" />
    <glyph glyph-name="e" unicode="e" horiz-adv-x="470" 
d="M306.5 73.5q27.5 19.5 39.5 52.5q3 9 12 7l46 -9q5 -1 6.5 -4.5t0.5 -7.5q-17 -56 -62 -88t-109 -32q-73 0 -119 38.5t-57 104.5q-4 25 -5 59t-1 56.5v31.5q0 51 4 83q8 67 55.5 108t119.5 41q77 0 125 -44t54 -116q3 -33 3 -121q0 -10 -10 -10h-276q-4 0 -4 -4
q0 -31 2 -69q5 -43 34.5 -69.5t75.5 -26.5q38 0 65.5 19.5zM164.5 425.5q-28.5 -26.5 -33.5 -69.5q-2 -42 -2 -70q0 -4 4 -4h211q4 0 4 4q0 29 -4 69q-5 43 -33.5 70t-72.5 27q-45 0 -73.5 -26.5z" />
    <glyph glyph-name="f" unicode="f" horiz-adv-x="317" 
d="M187 617q-18 -25 -18 -82v-25q0 -4 4 -4h94q10 0 10 -10v-39q0 -10 -10 -10h-94q-4 0 -4 -4v-433q0 -10 -10 -10h-51q-10 0 -10 10v433q0 4 -4 4h-53q-10 0 -10 10v39q0 10 10 10h53q4 0 4 4v28q0 89 33.5 127t116.5 38h21q10 0 10 -10v-41q0 -10 -10 -10h-18
q-46 0 -64 -25z" />
    <glyph glyph-name="g" unicode="g" horiz-adv-x="474" 
d="M352 506h51q10 0 10 -10v-482q0 -226 -247 -215q-10 1 -10 11l1 45q0 5 3 7.5t7 1.5q94 -3 134.5 34.5t40.5 119.5v33q0 2 -1.5 3t-3.5 -1q-39 -56 -116 -56q-64 0 -107 38.5t-53 104.5q-6 44 -6 113q0 75 7 118q8 65 50.5 104t106.5 39q78 0 118 -55q2 -2 3.5 -1.5
t1.5 2.5v36q0 10 10 10zM342 254q0 60 -3 102q-4 42 -31.5 69t-70.5 27t-71.5 -27t-34.5 -69q-4 -36 -4 -102q0 -50 4 -100q5 -42 34 -69t72 -27t70.5 27t31.5 69q3 39 3 100z" />
    <glyph glyph-name="h" unicode="h" horiz-adv-x="482" 
d="M376.5 468.5q40.5 -44.5 40.5 -121.5v-337q0 -10 -10 -10h-51q-10 0 -10 10v327q0 52 -27 83t-74 31t-75.5 -31.5t-28.5 -84.5v-325q0 -10 -10 -10h-51q-10 0 -10 10v680q0 10 10 10h51q10 0 10 -10v-233q0 -2 1.5 -3t3.5 1q39 58 120 58q70 0 110.5 -44.5z" />
    <glyph glyph-name="i" unicode="i" horiz-adv-x="232" 
d="M75.5 614q-15.5 16 -15.5 40q0 25 15.5 40.5t40.5 15.5q24 0 40 -15.5t16 -40.5q0 -24 -16 -40t-40 -16q-25 0 -40.5 16zM79 10v486q0 10 10 10h51q10 0 10 -10v-486q0 -10 -10 -10h-51q-10 0 -10 10z" />
    <glyph glyph-name="j" unicode="j" horiz-adv-x="223" 
d="M67 614q-16 16 -16 40q0 25 16 40.5t40 15.5t40 -15.5t16 -40.5q0 -24 -16 -40t-40 -16t-40 16zM-32 -198v42q0 10 10 10q47 1 70.5 27t23.5 75l-1 540q0 10 10 10h51q10 0 10 -10v-540q0 -84 -37 -124t-127 -40q-10 0 -10 10z" />
    <glyph glyph-name="k" unicode="k" horiz-adv-x="453" 
d="M70 10v680q0 10 10 10h51q10 0 10 -10v-406q0 -2 2 -3t3 1l181 218q5 6 12 6h57q6 0 8 -3.5t-2 -8.5l-114 -142q-2 -3 -1 -5l135 -335l1 -4q0 -8 -9 -8h-53q-8 0 -11 8l-109 286q-1 2 -3 2.5t-3 -1.5l-92 -111q-2 -4 -2 -5v-169q0 -10 -10 -10h-51q-10 0 -10 10z" />
    <glyph glyph-name="l" unicode="l" horiz-adv-x="206" 
d="M67 10v680q0 10 10 10h51q10 0 10 -10v-680q0 -10 -10 -10h-51q-10 0 -10 10z" />
    <glyph glyph-name="m" unicode="m" horiz-adv-x="737" 
d="M634.5 468.5q38.5 -44.5 38.5 -122.5v-336q0 -10 -10 -10h-50q-10 0 -10 10v326q0 53 -26.5 84t-69.5 31q-45 0 -72.5 -30.5t-27.5 -82.5v-328q0 -10 -10 -10h-51q-10 0 -10 10v326q0 53 -26.5 84t-69.5 31q-45 0 -72 -30.5t-27 -82.5v-328q0 -10 -10 -10h-51
q-10 0 -10 10v486q0 10 10 10h51q10 0 10 -10v-35q0 -2 1.5 -2.5t3.5 1.5q20 27 51 40t66 13q44 0 77 -20t50 -56q2 -5 5 0q20 39 55.5 57.5t78.5 18.5q67 0 105.5 -44.5z" />
    <glyph glyph-name="n" unicode="n" horiz-adv-x="482" 
d="M376.5 468.5q40.5 -44.5 40.5 -121.5v-337q0 -10 -10 -10h-51q-10 0 -10 10v327q0 52 -27 83t-74 31t-75.5 -31.5t-28.5 -84.5v-325q0 -10 -10 -10h-51q-10 0 -10 10v486q0 10 10 10h51q10 0 10 -10v-39q0 -2 1.5 -3t3.5 1q39 58 120 58q70 0 110.5 -44.5z" />
    <glyph glyph-name="o" unicode="o" horiz-adv-x="480" 
d="M120 31.5q-47 39.5 -57 106.5q-6 50 -6 116t6 114q9 66 56.5 106t120.5 40t120.5 -40t56.5 -106q6 -40 6 -114q0 -76 -6 -116q-9 -67 -56.5 -106.5t-120.5 -39.5t-120 39.5zM312.5 80.5q29.5 26.5 35.5 70.5q4 37 4 102q0 66 -4 102q-5 44 -34.5 70.5t-73.5 26.5
t-73 -26.5t-35 -70.5q-4 -36 -4 -102t4 -102q5 -44 34.5 -70.5t73.5 -26.5q43 0 72.5 26.5z" />
    <glyph glyph-name="p" unicode="p" horiz-adv-x="490" 
d="M437 258q0 -68 -10 -119q-16 -75 -56.5 -110.5t-107.5 -35.5q-41 0 -67.5 14t-42.5 41q-1 3 -3 2.5t-2 -3.5v-231q0 -10 -10 -10h-51q-10 0 -10 10v680q0 10 10 10h51q10 0 10 -10v-38q0 -3 2 -3.5t3 2.5q36 57 115 57q63 0 100.5 -33.5t55.5 -107.5q13 -53 13 -115z
M365 253q0 80 -15 125q-13 37 -36 56t-60 19q-35 0 -56.5 -19t-33.5 -55q-15 -45 -15 -126q0 -83 17 -129q12 -34 32 -52t54 -18q66 0 94 67q19 51 19 132z" />
    <glyph glyph-name="q" unicode="q" horiz-adv-x="490" 
d="M353 506h51q10 0 10 -10v-680q0 -10 -10 -10h-51q-10 0 -10 10v234q0 3 -2 3.5t-3 -2.5q-16 -29 -42.5 -43.5t-68.5 -14.5q-67 0 -107.5 35.5t-55.5 110.5q-11 50 -11 119q0 62 13 115q18 74 55.5 107.5t100.5 33.5q79 0 116 -59q2 -2 3.5 -2t1.5 3v40q0 10 10 10z
M341 253q0 81 -15 126q-12 36 -33 55t-56 19q-38 0 -60.5 -19t-35.5 -56q-16 -44 -16 -125t19 -132q28 -67 94 -67q34 0 54.5 18t32.5 52q16 47 16 129z" />
    <glyph glyph-name="r" unicode="r" horiz-adv-x="329" 
d="M309 499q7 -3 5 -12l-12 -52q-1 -10 -12 -6q-16 7 -35 7l-12 -1q-44 -1 -73 -38t-29 -90v-297q0 -10 -10 -10h-51q-10 0 -10 10v486q0 10 10 10h51q10 0 10 -10v-65q0 -3 1.5 -3t2.5 2q17 38 45.5 59.5t67.5 21.5q30 0 51 -12z" />
    <glyph glyph-name="s" unicode="s" horiz-adv-x="428" 
d="M95 32q-47 37 -47 95v9q0 10 10 10h49q10 0 10 -10v-7q0 -32 28.5 -55.5t73.5 -23.5q44 0 71 23t27 58q0 25 -15 42t-37 27t-61 23q-47 16 -78 32t-52.5 44.5t-21.5 72.5q0 64 45 101.5t119 37.5q76 0 121.5 -39t45.5 -100v-2q0 -10 -10 -10h-46q-10 0 -10 10v4
q0 34 -27.5 56.5t-73.5 22.5q-43 0 -69.5 -21.5t-26.5 -55.5q0 -35 26.5 -53t83.5 -38q49 -16 81 -32t54.5 -44.5t22.5 -73.5q0 -64 -46 -102t-123 -38t-124 37z" />
    <glyph glyph-name="t" unicode="t" horiz-adv-x="315" 
d="M263 450h-95q-4 0 -4 -4v-300q0 -47 18.5 -65.5t59.5 -18.5h17q10 0 10 -10v-42q0 -10 -10 -10l-31 -1q-65 0 -99 26.5t-34 98.5v322q0 4 -4 4h-50q-10 0 -10 10v36q0 10 10 10h50q4 0 4 4v114q0 10 10 10h49q10 0 10 -10v-114q0 -4 4 -4h95q10 0 10 -10v-36
q0 -10 -10 -10z" />
    <glyph glyph-name="u" unicode="u" horiz-adv-x="480" 
d="M349 506h51q10 0 10 -10v-486q0 -10 -10 -10h-51q-10 0 -10 10v39q0 3 -1.5 3t-3.5 -2q-35 -57 -116 -57q-68 0 -111 40t-43 116v347q0 10 10 10h51q10 0 10 -10v-329q0 -53 26 -82.5t73 -29.5q49 0 77 31.5t28 84.5v325q0 10 10 10z" />
    <glyph glyph-name="v" unicode="v" horiz-adv-x="427" 
d="M174 8l-145 487l-1 3q0 8 10 8h56q9 0 11 -9l106 -390q1 -2 2.5 -2t2.5 2l105 390q2 9 11 9l57 -1q5 0 7.5 -3t1.5 -8l-144 -486q-3 -8 -11 -8h-58q-8 0 -11 8z" />
    <glyph glyph-name="w" unicode="w" horiz-adv-x="638" 
d="M152 9l-123 486l-1 4q0 7 9 7h50q9 0 11 -9l90 -384q1 -3 2 -3t2 3l91 384q2 9 11 9h46q10 0 11 -9l93 -383q1 -3 2 -3t2 3l91 383q2 9 11 9l51 -1q5 0 7.5 -3t0.5 -8l-125 -485q-1 -9 -11 -9h-52q-9 0 -11 9l-91 370q-1 3 -2.5 3t-2.5 -3l-88 -370q-2 -9 -11 -9h-52
q-9 0 -11 9z" />
    <glyph glyph-name="x" unicode="x" horiz-adv-x="426" 
d="M25 3.5q-2 3.5 1 8.5l144 238q2 3 0 6l-144 238q-2 4 -2 6q0 6 9 6h56q7 0 12 -7l109 -183q1 -1 3 -1t3 1l108 183q5 7 12 7h57q6 0 8 -3.5t-1 -8.5l-144 -238q-1 -3 0 -6l144 -238q2 -4 2 -6q0 -6 -9 -6h-55q-7 0 -12 7l-109 184q-1 2 -3 2t-3 -2l-109 -184
q-5 -7 -12 -7h-57q-6 0 -8 3.5z" />
    <glyph glyph-name="y" unicode="y" horiz-adv-x="414" 
d="M44 -190v40q0 10 10 10h2q35 1 54.5 12t33 39t27.5 86q1 1 0.5 3.5l-0.5 2.5l-149 492l-1 3q0 8 10 8h54q9 0 11 -9l109 -399q1 -2 2.5 -2t2.5 2l109 399q2 9 11 9h53q5 0 7.5 -3t1.5 -8l-163 -539q-20 -67 -39.5 -99t-49 -44.5t-83.5 -12.5h-6q-7 0 -7 10z" />
    <glyph glyph-name="z" unicode="z" horiz-adv-x="403" 
d="M33 10v48q0 8 4 13l245 365q1 1 0 3t-3 2h-232q-10 0 -10 10v45q0 10 10 10h311q10 0 10 -10v-48q0 -8 -4 -13l-247 -365q-1 -1 0 -3t3 -2h239q10 0 10 -10v-45q0 -10 -10 -10h-316q-10 0 -10 10z" />
    <glyph glyph-name="braceleft" unicode="{" horiz-adv-x="288" 
d="M114.5 -93q-24.5 28 -24.5 86v217q0 42 -12.5 64t-39.5 26q-9 2 -9 10v40q0 9 9 10q27 4 39.5 26t12.5 63v212q0 58 24.5 85.5t76.5 27.5h58q10 0 10 -10v-42q0 -10 -10 -10h-32q-56 0 -56 -74v-194q0 -46 -11.5 -72.5t-37.5 -39.5q-5 -2 0 -5q26 -13 37.5 -39.5
t11.5 -72.5v-199q0 -75 56 -75h32q10 0 10 -10v-42q0 -10 -10 -10h-58q-52 0 -76.5 28z" />
    <glyph glyph-name="bar" unicode="|" horiz-adv-x="155" 
d="M42 -70v820q0 10 10 10h51q10 0 10 -10v-820q0 -10 -10 -10h-51q-10 0 -10 10z" />
    <glyph glyph-name="braceright" unicode="}" horiz-adv-x="288" 
d="M39 -121q-10 0 -10 10v42q0 10 10 10h32q56 0 56 75v199q0 46 11.5 72.5t36.5 39.5q5 3 0 5q-25 13 -36.5 39.5t-11.5 72.5v194q0 74 -56 74h-32q-10 0 -10 10v42q0 10 10 10h57q53 0 77.5 -27.5t24.5 -85.5v-212q0 -41 12.5 -63t39.5 -26q9 -1 9 -10v-40q0 -8 -9 -10
q-27 -4 -39.5 -26t-12.5 -64v-217q0 -59 -25 -86.5t-77 -27.5h-57z" />
    <glyph glyph-name="asciitilde" unicode="~" horiz-adv-x="481" 
d="M283 240q-21 8 -50 25q-21 12 -38 19t-37 7q-45 0 -73 -38l-2 -4q-2 -3 -5.5 -3.5t-6.5 1.5l-27 18q-8 6 -5 13q15 34 46 55t69 21q25 0 44.5 -7t39.5 -19q29 -17 47.5 -25t43.5 -8q20 0 34 10t30 29q6 8 14 3l30 -20q8 -6 4 -13q-43 -72 -109 -72q-28 0 -49 8z" />
    <glyph glyph-name="uni00A0" unicode="&#xa0;" horiz-adv-x="200" 
 />
    <glyph glyph-name="exclamdown" unicode="&#xa1;" horiz-adv-x="285" 
d="M182 692q16 -16 16 -40q0 -25 -16 -40.5t-40 -15.5q-25 0 -40.5 15.5t-15.5 40.5q0 24 15.5 40t40.5 16q24 0 40 -16zM124 483h39q10 0 10 -10l6 -451q0 -10 -10 -10h-51q-10 0 -10 10l6 451q0 10 10 10z" />
    <glyph glyph-name="cent" unicode="&#xa2;" horiz-adv-x="461" 
d="M347 238q2 11 11 9l50 -4q9 -2 9 -9v-4q0 -4 -2 -12q-6 -53 -46 -90t-101 -45q-4 0 -4 -4l1 -70q0 -10 -10 -10h-43q-10 0 -10 10l2 72q0 4 -4 5q-57 10 -93 47.5t-44 94.5q-6 51 -6 116q0 51 6 115q8 56 44 93.5t92 47.5q4 1 4 5l-1 71q0 10 10 10h42q10 0 10 -10
l-1 -69q0 -4 4 -4q60 -8 100 -44.5t48 -87.5l3 -21v-2q0 -4 -2.5 -6.5t-6.5 -2.5l-51 -3q-9 0 -11 9q0 9 -1 12q-5 35 -34.5 60t-72.5 25q-44 0 -72.5 -27t-33.5 -70t-5 -102q0 -60 5 -103q5 -44 33.5 -70t72.5 -26t73.5 25t33.5 61z" />
    <glyph glyph-name="sterling" unicode="&#xa3;" horiz-adv-x="555" 
d="M195 63.5q1 -1.5 3 -1.5h313q10 0 10 -10v-42q0 -10 -10 -10h-389q-10 0 -10 10v44q0 8 7 12q21 16 33 47.5t12 73.5v117q0 4 -4 4h-67q-10 0 -10 10v39q0 10 10 10h67q4 0 4 4v141q0 92 49.5 144t134.5 52q63 0 104.5 -34t58.5 -100l1 -4q0 -6 -8 -8l-48 -8h-3
q-6 0 -9 7q-23 85 -97 85q-54 0 -83.5 -34t-29.5 -98v-143q0 -4 4 -4h168q10 0 10 -10v-39q0 -10 -10 -10h-168q-4 0 -4 -4v-115q0 -39 -10.5 -71t-28.5 -51q-1 -2 0 -3.5z" />
    <glyph glyph-name="currency" unicode="&#xa4;" horiz-adv-x="516" 
d="M417 188q-2 -3 1 -6l65 -64q3 -3 3 -6q0 -4 -4 -8l-31 -28q-3 -3 -6 -3q-4 0 -8 4l-63 62q-3 3 -6 1q-50 -36 -114 -36q-60 0 -109 33q-3 2 -6 -1l-59 -59q-3 -3 -7 -3.5t-7 2.5l-32 28q-7 8 -1 14l61 60q3 3 1 6q-40 53 -40 117q0 65 37 114q2 3 -1 6l-65 64q-3 3 -3 6
q0 4 4 8l32 28q3 3 6 3q4 0 8 -4l62 -62q3 -3 6 -1q50 36 113 36q67 0 118 -39q3 -2 6 1l65 65q3 3 7 3.5t7 -2.5l32 -28q8 -7 1 -14l-69 -68q-3 -3 -1 -6q33 -49 33 -110q0 -63 -36 -113zM136.5 233q18.5 -31 50 -49.5t67.5 -18.5q37 0 68.5 18.5t50 49.5t18.5 68
t-18.5 68.5t-50 50t-68.5 18.5q-36 0 -67.5 -18.5t-50 -50t-18.5 -68.5t18.5 -68z" />
    <glyph glyph-name="yen" unicode="&#xa5;" horiz-adv-x="606" 
d="M511.5 696.5q2.5 -3.5 0.5 -8.5l-160 -343q-1 -2 0 -3.5t3 -1.5h121q10 0 10 -10v-24q0 -10 -10 -10h-135q-4 0 -4 -4v-74q0 -4 4 -4h135q10 0 10 -10v-24q0 -10 -10 -10h-135q-4 0 -4 -4v-155q0 -10 -10 -10h-51q-10 0 -10 10v155q0 4 -4 4h-134q-10 0 -10 10v24
q0 10 10 10h134q4 0 4 4v74q0 4 -4 4h-134q-10 0 -10 10v24q0 10 10 10h120q2 0 3 1.5t0 3.5l-159 343l-1 4q0 8 9 8h54q8 0 11 -8l134 -299q1 -2 3 -2t3 2l134 299q3 8 11 8h54q5 0 7.5 -3.5z" />
    <glyph glyph-name="brokenbar" unicode="&#xa6;" horiz-adv-x="155" 
d="M42 401v349q0 10 10 10h51q10 0 10 -10v-349q0 -10 -10 -10h-51q-10 0 -10 10zM42 -70v345q0 10 10 10h51q10 0 10 -10v-345q0 -10 -10 -10h-51q-10 0 -10 10z" />
    <glyph glyph-name="section" unicode="&#xa7;" horiz-adv-x="420" 
d="M97.5 -163q-41.5 44 -42.5 117v18q0 10 10 10h51q10 0 10 -10v-12q1 -47 24 -76t61 -29q37 0 61 28.5t24 71.5q0 35 -17.5 58t-41 35.5t-60.5 26.5q-42 16 -68.5 34.5t-42.5 49.5q-19 39 -19 86q0 52 26 95q25 42 71 57q5 2 0 5q-40 20 -66 59t-26 89q0 44 20 80t56 57
t82 21q68 0 111 -44.5t44 -115.5v-14q0 -10 -10 -10h-52q-10 0 -10 10v10q0 45 -23.5 73.5t-60.5 28.5q-38 0 -62 -29.5t-24 -72.5q0 -45 28.5 -72t84.5 -48q38 -15 62.5 -29t43.5 -40q31 -40 31 -100q0 -55 -23 -96q-26 -49 -72 -61q-2 0 -2 -1.5t2 -2.5q42 -20 66 -56.5
t24 -87.5q0 -68 -44.5 -112.5t-114.5 -44.5t-111.5 44zM287 184q15 27 15 66q0 43 -21 72q-13 17 -31.5 26.5t-40.5 9.5q-25 0 -45.5 -14t-30.5 -35q-14 -27 -14 -63q0 -38 14 -63q24 -44 77 -44q55 0 77 45z" />
    <glyph glyph-name="dieresis" unicode="&#xa8;" horiz-adv-x="324" 
d="M201.5 615q-15.5 16 -15.5 40q0 25 15.5 40.5t40.5 15.5q24 0 40 -15.5t16 -40.5q0 -24 -16 -40t-40 -16q-25 0 -40.5 16zM41.5 615q-15.5 16 -15.5 40q0 25 15.5 40.5t40.5 15.5q24 0 40 -15.5t16 -40.5q0 -24 -16 -40t-40 -16q-25 0 -40.5 16z" />
    <glyph glyph-name="copyright" unicode="&#xa9;" horiz-adv-x="852" 
d="M240.5 39q-82.5 47 -129.5 129t-47 182t47 182t129.5 129t184.5 47q103 0 186 -47t130 -129t47 -182t-47 -182t-130 -129t-186 -47q-102 0 -184.5 47zM585.5 81q71.5 41 112 112t40.5 157q0 87 -40.5 158t-112 111.5t-160.5 40.5t-160 -40.5t-111.5 -111.5t-40.5 -158
t40.5 -157.5t112 -111.5t159.5 -41q89 0 160.5 41zM355 201q-27 25 -27 67v162q0 41 27 66t71 25q45 0 72 -24.5t27 -65.5v-3q0 -10 -10 -10h-23q-10 0 -10 10v5q0 22 -15.5 36t-40.5 14t-39.5 -13.5t-14.5 -36.5v-169q0 -23 14.5 -36.5t39.5 -13.5t40.5 14t15.5 36v6
q0 10 10 10l23 -1q10 0 10 -10v-3q0 -40 -27.5 -65t-71.5 -25t-71 25z" />
    <glyph glyph-name="ordfeminine" unicode="&#xaa;" horiz-adv-x="300" 
d="M209 563q4 0 4 4v26q0 33 -17.5 53t-50.5 20q-23 0 -41 -12t-23 -31q-2 -10 -11 -8l-28 2q-4 0 -7 3t-2 8q5 36 36.5 58t76.5 22q54 0 84.5 -30t30.5 -80v-219q0 -10 -10 -10h-28q-10 0 -10 10v17q0 2 -1.5 3t-3.5 -1q-28 -34 -83 -34q-44 0 -73.5 22t-29.5 72
q0 53 34.5 79t93.5 26h59zM189.5 421q23.5 18 23.5 51v48q0 4 -4 4h-57q-37 0 -59 -16.5t-22 -47.5q0 -29 17 -43t45 -14q33 0 56.5 18zM32 308h229q10 0 10 -10v-30q0 -10 -10 -10h-229q-10 0 -10 10v30q0 10 10 10z" />
    <glyph glyph-name="guillemotleft" unicode="&#xab;" horiz-adv-x="506" 
d="M264 113q0 -2 -2 -4t-6 -2h-46q-9 0 -13 6l-117 161q-4 7 0 14l117 161q4 6 13 6h46q6 0 8 -3.5t-2 -8.5l-117 -159q-1 -3 0 -6l117 -159q2 -2 2 -6zM418 113q0 -2 -2 -4t-6 -2h-47q-8 0 -12 6l-117 161q-4 7 0 14l117 161q4 6 12 6h47q6 0 8 -3.5t-2 -8.5l-117 -159
q-1 -3 0 -6l117 -159q2 -2 2 -6z" />
    <glyph glyph-name="logicalnot" unicode="&#xac;" horiz-adv-x="471" 
d="M46 344h379q10 0 10 -10v-155q0 -10 -10 -10h-40q-10 0 -10 10v103q0 4 -4 4h-325q-10 0 -10 10v38q0 10 10 10z" />
    <glyph glyph-name="uni00AD" unicode="&#xad;" horiz-adv-x="354" 
d="M36 290v42q0 10 10 10h262q10 0 10 -10v-42q0 -10 -10 -10h-262q-10 0 -10 10z" />
    <glyph glyph-name="registered" unicode="&#xae;" horiz-adv-x="444" 
d="M321 688q45 -26 71.5 -70.5t26.5 -97.5q0 -54 -26 -99t-71.5 -71t-99.5 -26t-99 26t-71 71t-26 99q0 53 26 97.5t71 70.5t99 26t99 -26zM302.5 382q36.5 21 58 57.5t21.5 80.5q0 43 -21.5 79t-58 57t-80.5 21t-80.5 -21t-57.5 -57t-21 -79q0 -44 21 -80.5t57.5 -57.5
t80.5 -21t80.5 21zM279 526.5q-7 -12.5 -20 -17.5q-3 -2 -2 -6l26 -62l1 -4q0 -8 -9 -8h-13q-8 0 -11 8l-26 64q-1 3 -4 3h-15q-4 0 -4 -4v-61q0 -10 -10 -10h-11q-10 0 -10 10v159q0 10 10 10h52q24 0 38.5 -15t14.5 -38q0 -16 -7 -28.5zM202 577v-45q0 -4 4 -4h23
q11 0 18.5 7.5t7.5 18.5q0 13 -7 20t-19 7h-23q-4 0 -4 -4z" />
    <glyph glyph-name="macron" unicode="&#xaf;" horiz-adv-x="380" 
d="M72 605v31q0 10 10 10h215q10 0 10 -10v-31q0 -10 -10 -10h-215q-10 0 -10 10z" />
    <glyph glyph-name="degree" unicode="&#xb0;" horiz-adv-x="370" 
d="M104.5 509q-36.5 21 -57.5 58t-21 81t21 81t57.5 58t80.5 21t80.5 -21t57.5 -58t21 -81t-21 -81t-57.5 -58t-80.5 -21t-80.5 21zM262 570q31 32 31 78q0 47 -31 79t-77 32t-77.5 -32t-31.5 -79q0 -46 31.5 -78t77.5 -32t77 32z" />
    <glyph glyph-name="plusminus" unicode="&#xb1;" horiz-adv-x="471" 
d="M435 370v-38q0 -10 -10 -10h-156q-4 0 -4 -4v-155q0 -10 -10 -10h-39q-10 0 -10 10v155q0 4 -4 4h-156q-10 0 -10 10v38q0 10 10 10h156q4 0 4 4v159q0 10 10 10h39q10 0 10 -10v-159q0 -4 4 -4h156q10 0 10 -10zM36 24v38q0 10 10 10h379q10 0 10 -10v-38q0 -10 -10 -10
h-379q-10 0 -10 10z" />
    <glyph glyph-name="uni00B2" unicode="&#xb2;" horiz-adv-x="285" 
d="M29 452v27q0 6 4 13q54 70 120 160q46 67 46 106q0 30 -17 47t-44 17q-26 0 -42.5 -17.5t-16.5 -45.5v-17q0 -10 -10 -10h-31q-10 0 -10 10v21q1 47 32 75.5t79 28.5q50 0 80.5 -29.5t30.5 -80.5q0 -50 -45 -120q-17 -25 -32.5 -46t-28.5 -40q-12 -15 -44 -60q-3 -5 2 -5
h149q10 0 10 -10v-24q0 -10 -10 -10h-212q-10 0 -10 10z" />
    <glyph glyph-name="uni00B3" unicode="&#xb3;" horiz-adv-x="293" 
d="M256 570q0 -37 -11 -65q-11 -33 -37 -51t-65 -18q-42 0 -70.5 23.5t-36.5 62.5q-3 11 -5 38q0 10 10 10h31q10 0 10 -10q0 -15 3 -26q5 -24 20 -38.5t38 -14.5q37 0 54 35q9 23 9 57q0 36 -9 58q-15 38 -54 38q-8 0 -15 -3q-2 -1 -6 -1q-5 0 -8 4l-15 16q-6 6 0 14
l89 113q2 2 1 3.5t-3 1.5h-141q-10 0 -10 10v24q0 10 10 10h198q10 0 10 -10v-27q0 -7 -4 -12l-81 -104q-2 -2 -1 -3.5t3 -1.5q27 -3 46 -20t29 -44q11 -30 11 -69z" />
    <glyph glyph-name="acute" unicode="&#xb4;" horiz-adv-x="188" 
d="M31 575.5q-2 3.5 1 8.5l61 109q5 7 12 7h43q6 0 7.5 -3.5t-1.5 -8.5l-69 -109q-5 -7 -12 -7h-34q-6 0 -8 3.5z" />
    <glyph glyph-name="uni00B5" unicode="&#xb5;" horiz-adv-x="488" 
d="M356 506h50q10 0 10 -10v-486q0 -10 -10 -10h-50q-10 0 -10 10v39q0 3 -1.5 3t-3.5 -2q-35 -57 -117 -57q-43 0 -78 18q-5 2 -5 -3v-198q0 -10 -10 -10h-51q-10 0 -10 10v686q0 10 10 10h51q10 0 10 -10v-329q0 -53 26.5 -82.5t73.5 -29.5q48 0 76.5 31.5t28.5 84.5v325
q0 10 10 10z" />
    <glyph glyph-name="paragraph" unicode="&#xb6;" horiz-adv-x="523" 
d="M432 700q10 0 10 -10v-880q0 -10 -10 -10h-37q-10 0 -10 10v830q0 4 -4 4h-104q-4 0 -4 -4v-830q0 -10 -10 -10h-38q-10 0 -10 10v436q0 4 -4 4q-51 4 -91 34.5t-62.5 80.5t-22.5 110q0 63 24.5 114.5t69 81t101.5 29.5h202z" />
    <glyph glyph-name="periodcentered" unicode="&#xb7;" horiz-adv-x="203" 
d="M61.5 238q-15.5 16 -15.5 40q0 25 15.5 40.5t40.5 15.5q24 0 40 -15.5t16 -40.5q0 -24 -16 -40t-40 -16q-25 0 -40.5 16z" />
    <glyph glyph-name="cedilla" unicode="&#xb8;" horiz-adv-x="130" 
d="M3 -170l3 22q1 5 4.5 7t7.5 1q6 -2 18 -2q20 0 32 11.5t12 35.5q0 40 -46 83q-4 3 -4 7q0 5 8 5h27q7 0 10 -3l4 -4q52 -45 52 -96q0 -45 -24.5 -63.5t-60.5 -18.5q-21 0 -36 4q-8 1 -7 11z" />
    <glyph glyph-name="uni00B9" unicode="&#xb9;" horiz-adv-x="165" 
d="M82 862h35q10 0 10 -10v-400q0 -10 -10 -10h-31q-10 0 -10 10v357q0 2 -1.5 3.5t-2.5 0.5l-39 -9h-2q-9 0 -9 9v19q0 8 8 11l40 17q4 2 12 2z" />
    <glyph glyph-name="ordmasculine" unicode="&#xba;" horiz-adv-x="314" 
d="M79.5 391q-30.5 26 -37.5 71q-5 26 -5 75q0 47 4 75q7 44 38 70t78 26t77.5 -26t37.5 -70q5 -37 5 -75t-5 -75q-6 -44 -37 -70.5t-78 -26.5t-77.5 26zM201.5 425q18.5 17 22.5 45q3 29 3 67t-3 66q-4 28 -22 45t-45 17t-45 -17t-22 -45q-3 -28 -3 -66t3 -67q4 -28 22 -45
t45 -17q26 0 44.5 17zM29 269v31q0 10 10 10h236q10 0 10 -10v-31q0 -10 -10 -10h-236q-10 0 -10 10z" />
    <glyph glyph-name="guillemotright" unicode="&#xbb;" horiz-adv-x="506" 
d="M90 110.5q-2 3.5 2 8.5l116 159q2 3 0 6l-116 159q-2 2 -2 6q0 2 2 4t6 2h46q9 0 13 -6l117 -161q4 -7 0 -14l-117 -161q-4 -6 -13 -6h-46q-6 0 -8 3.5zM244 110.5q-2 3.5 2 8.5l116 159q2 3 0 6l-116 159q-2 2 -2 6q0 2 2 4t6 2h46q9 0 13 -6l117 -161q4 -7 0 -14
l-117 -161q-4 -6 -13 -6h-46q-6 0 -8 3.5z" />
    <glyph glyph-name="onequarter" unicode="&#xbc;" horiz-adv-x="734" 
d="M82 700h35q10 0 10 -10v-400q0 -10 -10 -10h-31q-10 0 -10 10v357q0 2 -1.5 3.5t-2.5 0.5l-39 -9h-2q-9 0 -9 9v19q0 8 8 11l40 17q4 2 12 2zM86.5 3.5q-1.5 3.5 1.5 8.5l428 681q5 7 12 7h33q6 0 7.5 -3.5t-1.5 -8.5l-428 -681q-5 -7 -12 -7h-33q-6 0 -7.5 3.5zM705 149
v-26q0 -10 -10 -10h-17q-4 0 -4 -4v-99q0 -10 -10 -10h-31q-10 0 -10 10v99q0 4 -4 4h-154q-10 0 -10 10v23q0 7 2 12l102 254q3 8 11 8h34q5 0 7 -3.5t0 -8.5l-96 -244q-1 -2 0 -3.5t3 -1.5h101q4 0 4 4v84q0 10 10 10h31q10 0 10 -10v-84q0 -4 4 -4h17q10 0 10 -10z" />
    <glyph glyph-name="onehalf" unicode="&#xbd;" horiz-adv-x="730" 
d="M82 700h35q10 0 10 -10v-400q0 -10 -10 -10h-31q-10 0 -10 10v357q0 2 -1.5 3.5t-2.5 0.5l-39 -9h-2q-9 0 -9 9v19q0 8 8 11l40 17q4 2 12 2zM86.5 3.5q-1.5 3.5 1.5 8.5l428 681q5 7 12 7h33q6 0 7.5 -3.5t-1.5 -8.5l-428 -681q-5 -7 -12 -7h-33q-6 0 -7.5 3.5zM468 10
v27q0 6 4 13q54 70 120 160q46 67 46 106q0 30 -17 47t-44 17q-26 0 -42.5 -17.5t-16.5 -45.5v-17q0 -10 -10 -10h-31q-10 0 -10 10v21q1 47 32 75.5t79 28.5q50 0 80.5 -29.5t30.5 -80.5q0 -50 -45 -120q-17 -25 -32.5 -46t-28.5 -40q-12 -15 -44 -60q-3 -5 2 -5h149
q10 0 10 -10v-24q0 -10 -10 -10h-212q-10 0 -10 10z" />
    <glyph glyph-name="threequarters" unicode="&#xbe;" horiz-adv-x="817" 
d="M256 411q0 -37 -11 -65q-11 -33 -37 -51t-65 -18q-42 0 -70.5 23.5t-36.5 62.5q-3 11 -5 38q0 10 10 10h31q10 0 10 -10q0 -15 3 -26q5 -24 20 -38.5t38 -14.5q37 0 54 35q9 23 9 57q0 36 -9 58q-15 38 -54 38q-8 0 -15 -3q-2 -1 -6 -1q-5 0 -8 4l-15 16q-6 6 0 14
l89 113q2 2 1 3.5t-3 1.5h-141q-10 0 -10 10v24q0 10 10 10h198q10 0 10 -10v-27q0 -7 -4 -12l-81 -104q-2 -2 -1 -3.5t3 -1.5q27 -3 46 -20t29 -44q11 -30 11 -69zM171.5 3.5q-1.5 3.5 1.5 8.5l428 681q5 7 12 7h33q6 0 7.5 -3.5t-1.5 -8.5l-428 -681q-5 -7 -12 -7h-33
q-6 0 -7.5 3.5zM790 149v-26q0 -10 -10 -10h-17q-4 0 -4 -4v-99q0 -10 -10 -10h-31q-10 0 -10 10v99q0 4 -4 4h-154q-10 0 -10 10v23q0 7 2 12l102 254q3 8 11 8h34q5 0 7 -3.5t0 -8.5l-96 -244q-1 -2 0 -3.5t3 -1.5h101q4 0 4 4v84q0 10 10 10h31q10 0 10 -10v-84
q0 -4 4 -4h17q10 0 10 -10z" />
    <glyph glyph-name="questiondown" unicode="&#xbf;" horiz-adv-x="415" 
d="M264 482q16 -16 16 -40q0 -25 -16 -40.5t-40 -15.5q-25 0 -40.5 15.5t-15.5 40.5q0 24 15.5 40t40.5 16q24 0 40 -16zM259 290v-59q0 -43 -18.5 -70t-56.5 -61t-57 -61.5t-19 -71.5q0 -50 27.5 -80.5t71.5 -30.5q46 0 74.5 31t28.5 81v31q0 10 10 10l51 -3q10 0 10 -10
v-28q0 -79 -48.5 -128t-126.5 -49q-77 0 -123.5 48t-46.5 128q0 44 13 76t31 52t47 46q30 26 45 46t15 48v55q0 10 10 10h52q10 0 10 -10z" />
    <glyph glyph-name="Agrave" unicode="&#xc0;" horiz-adv-x="508" 
d="M411 9l-33 125q-1 3 -5 3h-239q-4 0 -5 -3l-33 -125q-2 -9 -11 -9h-52q-5 0 -7.5 3t-1.5 8l187 680q2 9 11 9h64q9 0 11 -9l187 -680l1 -3q0 -8 -10 -8h-53q-9 0 -11 9zM146.5 196.5q1.5 -1.5 3.5 -1.5h207q2 0 3.5 1.5t0.5 2.5l-106 402q-1 2 -2 2t-2 -2l-105 -402
q-1 -1 0.5 -2.5zM279 772q0 -6 -9 -6h-34q-7 0 -12 7l-68 109q-2 4 -2 6q0 6 8 6h43q9 0 12 -7l60 -109q2 -4 2 -6z" />
    <glyph glyph-name="Aacute" unicode="&#xc1;" horiz-adv-x="508" 
d="M411 9l-33 125q-1 3 -5 3h-239q-4 0 -5 -3l-33 -125q-2 -9 -11 -9h-52q-5 0 -7.5 3t-1.5 8l187 680q2 9 11 9h64q9 0 11 -9l187 -680l1 -3q0 -8 -10 -8h-53q-9 0 -11 9zM146.5 196.5q1.5 -1.5 3.5 -1.5h207q2 0 3.5 1.5t0.5 2.5l-106 402q-1 2 -2 2t-2 -2l-105 -402
q-1 -1 0.5 -2.5zM212 769.5q-2 3.5 1 8.5l61 109q5 7 12 7h43q6 0 7.5 -3.5t-1.5 -8.5l-69 -109q-5 -7 -12 -7h-34q-6 0 -8 3.5z" />
    <glyph glyph-name="Acircumflex" unicode="&#xc2;" horiz-adv-x="508" 
d="M411 9l-33 125q-1 3 -5 3h-239q-4 0 -5 -3l-33 -125q-2 -9 -11 -9h-52q-5 0 -7.5 3t-1.5 8l187 680q2 9 11 9h64q9 0 11 -9l187 -680l1 -3q0 -8 -10 -8h-53q-9 0 -11 9zM146.5 196.5q1.5 -1.5 3.5 -1.5h207q2 0 3.5 1.5t0.5 2.5l-106 402q-1 2 -2 2t-2 -2l-105 -402
q-1 -1 0.5 -2.5zM136 773.5q-2 3.5 1 8.5l73 106q4 6 12 6h59q8 0 12 -6l74 -106q2 -2 2 -6q0 -2 -2 -4t-6 -2h-42q-7 0 -12 7l-51 78q-1 2 -3 2t-3 -2l-53 -79q-4 -6 -12 -6h-41q-6 0 -8 3.5z" />
    <glyph glyph-name="Atilde" unicode="&#xc3;" horiz-adv-x="508" 
d="M411 9l-33 125q-1 3 -5 3h-239q-4 0 -5 -3l-33 -125q-2 -9 -11 -9h-52q-5 0 -7.5 3t-1.5 8l187 680q2 9 11 9h64q9 0 11 -9l187 -680l1 -3q0 -8 -10 -8h-53q-9 0 -11 9zM146.5 196.5q1.5 -1.5 3.5 -1.5h207q2 0 3.5 1.5t0.5 2.5l-106 402q-1 2 -2 2t-2 -2l-105 -402
q-1 -1 0.5 -2.5zM286.5 806q-13.5 6 -28.5 16q-4 2 -13.5 8.5t-17.5 9t-16 2.5q-16 0 -27 -5.5t-22 -20.5q-6 -9 -14 -3l-19 15q-7 7 -3 14q29 51 81 51q17 0 30.5 -6t30.5 -17q3 -2 13 -8.5t18.5 -9.5t16.5 -3q29 0 47 29q6 9 14 3l19 -14q4 -4 4 -8t-3 -10
q-15 -25 -37.5 -37t-44.5 -12q-15 0 -28.5 6z" />
    <glyph glyph-name="Adieresis" unicode="&#xc4;" horiz-adv-x="508" 
d="M411 9l-33 125q-1 3 -5 3h-239q-4 0 -5 -3l-33 -125q-2 -9 -11 -9h-52q-5 0 -7.5 3t-1.5 8l187 680q2 9 11 9h64q9 0 11 -9l187 -680l1 -3q0 -8 -10 -8h-53q-9 0 -11 9zM146.5 196.5q1.5 -1.5 3.5 -1.5h207q2 0 3.5 1.5t0.5 2.5l-106 402q-1 2 -2 2t-2 -2l-105 -402
q-1 -1 0.5 -2.5zM293.5 809q-15.5 16 -15.5 40q0 25 15.5 40.5t40.5 15.5q24 0 40 -15.5t16 -40.5q0 -24 -16 -40t-40 -16q-25 0 -40.5 16zM133.5 809q-15.5 16 -15.5 40q0 25 15.5 40.5t40.5 15.5q24 0 40 -15.5t16 -40.5q0 -24 -16 -40t-40 -16q-25 0 -40.5 16z" />
    <glyph glyph-name="Aring" unicode="&#xc5;" horiz-adv-x="508" 
d="M411 9l-33 125q-1 3 -5 3h-239q-4 0 -5 -3l-33 -125q-2 -9 -11 -9h-52q-5 0 -7.5 3t-1.5 8l187 680q2 9 11 9h64q9 0 11 -9l187 -680l1 -3q0 -8 -10 -8h-53q-9 0 -11 9zM146.5 196.5q1.5 -1.5 3.5 -1.5h207q2 0 3.5 1.5t0.5 2.5l-106 402q-1 2 -2 2t-2 -2l-105 -402
q-1 -1 0.5 -2.5zM176 804q-31 31 -31 77q0 45 31 76.5t77 31.5t77 -31.5t31 -76.5q0 -46 -31 -77t-77 -31t-77 31zM298 835q19 19 19 46q0 28 -19 47t-45 19q-27 0 -46 -19t-19 -47t19 -46.5t46 -18.5q26 0 45 19z" />
    <glyph glyph-name="AE" unicode="&#xc6;" horiz-adv-x="810" 
d="M751 638h-286q-4 0 -4 -4v-248q0 -4 4 -4h188q10 0 10 -10v-42q0 -10 -10 -10h-188q-4 0 -4 -4v-250q0 -4 4 -4h286q10 0 10 -10v-42q0 -10 -10 -10h-352q-10 0 -10 10v123q0 4 -4 4h-219q-2 0 -4 -3l-60 -127q-3 -7 -12 -7h-56q-5 0 -7 3.5t0 8.5l328 681q3 7 12 7h384
q10 0 10 -10v-42q0 -10 -10 -10zM193 196.5q1 -1.5 3 -1.5h189q4 0 4 4l1 404q0 3 -1.5 3t-3.5 -2l-192 -404q-1 -2 0 -3.5z" />
    <glyph glyph-name="Ccedilla" unicode="&#xc7;" horiz-adv-x="526" 
d="M459 495l-51 -2q-10 0 -10 9v14q0 58 -36.5 94t-95.5 36t-95 -35.5t-36 -94.5v-332q0 -59 36 -94.5t95 -35.5t95.5 36t36.5 94v14q0 9 10 9l51 -3q10 0 10 -10v-7q0 -84 -50.5 -136.5t-134.5 -58.5q-7 0 -2 -5q45 -42 45 -92q0 -7 -2 -21q-7 -32 -29.5 -46t-52.5 -14
q-19 0 -37 5q-8 1 -7 11l4 23q1 5 4.5 6.5t7.5 0.5q6 -2 18 -2q19 0 31 11.5t12 35.5q0 43 -53 89q-1 2 -5 2q-71 14 -112.5 65t-41.5 128v323q0 89 55.5 142.5t146.5 53.5q92 0 147.5 -53t55.5 -141v-9q0 -10 -10 -10z" />
    <glyph glyph-name="Egrave" unicode="&#xc8;" horiz-adv-x="517" 
d="M458 638h-300q-4 0 -4 -4v-248q0 -4 4 -4h202q10 0 10 -10v-42q0 -10 -10 -10h-202q-4 0 -4 -4v-250q0 -4 4 -4h300q10 0 10 -10v-42q0 -10 -10 -10h-365q-10 0 -10 10v680q0 10 10 10h365q10 0 10 -10v-42q0 -10 -10 -10zM299 772q0 -6 -9 -6h-34q-7 0 -12 7l-68 109
q-2 4 -2 6q0 6 8 6h43q9 0 12 -7l60 -109q2 -4 2 -6z" />
    <glyph glyph-name="Eacute" unicode="&#xc9;" horiz-adv-x="517" 
d="M458 638h-300q-4 0 -4 -4v-248q0 -4 4 -4h202q10 0 10 -10v-42q0 -10 -10 -10h-202q-4 0 -4 -4v-250q0 -4 4 -4h300q10 0 10 -10v-42q0 -10 -10 -10h-365q-10 0 -10 10v680q0 10 10 10h365q10 0 10 -10v-42q0 -10 -10 -10zM232 769.5q-2 3.5 1 8.5l61 109q5 7 12 7h43
q6 0 7.5 -3.5t-1.5 -8.5l-69 -109q-5 -7 -12 -7h-34q-6 0 -8 3.5z" />
    <glyph glyph-name="Ecircumflex" unicode="&#xca;" horiz-adv-x="517" 
d="M458 638h-300q-4 0 -4 -4v-248q0 -4 4 -4h202q10 0 10 -10v-42q0 -10 -10 -10h-202q-4 0 -4 -4v-250q0 -4 4 -4h300q10 0 10 -10v-42q0 -10 -10 -10h-365q-10 0 -10 10v680q0 10 10 10h365q10 0 10 -10v-42q0 -10 -10 -10zM156 773.5q-2 3.5 1 8.5l73 106q4 6 12 6h59
q8 0 12 -6l74 -106q2 -2 2 -6q0 -2 -2 -4t-6 -2h-42q-7 0 -12 7l-51 78q-1 2 -3 2t-3 -2l-53 -79q-4 -6 -12 -6h-41q-6 0 -8 3.5z" />
    <glyph glyph-name="Edieresis" unicode="&#xcb;" horiz-adv-x="517" 
d="M458 638h-300q-4 0 -4 -4v-248q0 -4 4 -4h202q10 0 10 -10v-42q0 -10 -10 -10h-202q-4 0 -4 -4v-250q0 -4 4 -4h300q10 0 10 -10v-42q0 -10 -10 -10h-365q-10 0 -10 10v680q0 10 10 10h365q10 0 10 -10v-42q0 -10 -10 -10zM313.5 809q-15.5 16 -15.5 40q0 25 15.5 40.5
t40.5 15.5q24 0 40 -15.5t16 -40.5q0 -24 -16 -40t-40 -16q-25 0 -40.5 16zM153.5 809q-15.5 16 -15.5 40q0 25 15.5 40.5t40.5 15.5q24 0 40 -15.5t16 -40.5q0 -24 -16 -40t-40 -16q-25 0 -40.5 16z" />
    <glyph glyph-name="Igrave" unicode="&#xcc;" horiz-adv-x="237" 
d="M83 10v680q0 10 10 10h51q10 0 10 -10v-680q0 -10 -10 -10h-51q-10 0 -10 10zM144 772q0 -6 -9 -6h-34q-7 0 -12 7l-68 109q-2 4 -2 6q0 6 8 6h43q9 0 12 -7l60 -109q2 -4 2 -6z" />
    <glyph glyph-name="Iacute" unicode="&#xcd;" horiz-adv-x="237" 
d="M83 10v680q0 10 10 10h51q10 0 10 -10v-680q0 -10 -10 -10h-51q-10 0 -10 10zM77 769.5q-2 3.5 1 8.5l61 109q5 7 12 7h43q6 0 7.5 -3.5t-1.5 -8.5l-69 -109q-5 -7 -12 -7h-34q-6 0 -8 3.5z" />
    <glyph glyph-name="Icircumflex" unicode="&#xce;" horiz-adv-x="237" 
d="M83 10v680q0 10 10 10h51q10 0 10 -10v-680q0 -10 -10 -10h-51q-10 0 -10 10zM1 773.5q-2 3.5 1 8.5l73 106q4 6 12 6h59q8 0 12 -6l74 -106q2 -2 2 -6q0 -2 -2 -4t-6 -2h-42q-7 0 -12 7l-51 78q-1 2 -3 2t-3 -2l-53 -79q-4 -6 -12 -6h-41q-6 0 -8 3.5z" />
    <glyph glyph-name="Idieresis" unicode="&#xcf;" horiz-adv-x="237" 
d="M83 10v680q0 10 10 10h51q10 0 10 -10v-680q0 -10 -10 -10h-51q-10 0 -10 10zM158.5 809q-15.5 16 -15.5 40q0 25 15.5 40.5t40.5 15.5q24 0 40 -15.5t16 -40.5q0 -24 -16 -40t-40 -16q-25 0 -40.5 16zM-1.5 809q-15.5 16 -15.5 40q0 25 15.5 40.5t40.5 15.5
q24 0 40 -15.5t16 -40.5q0 -24 -16 -40t-40 -16q-25 0 -40.5 16z" />
    <glyph glyph-name="Eth" unicode="&#xd0;" horiz-adv-x="596" 
d="M483 649q52 -51 52 -139v-320q0 -88 -52 -139t-141 -51h-195q-10 0 -10 10v327q0 4 -4 4h-40q-10 0 -10 10v28q0 10 10 10h40q4 0 4 4v297q0 10 10 10h195q89 0 141 -51zM463 504q0 62 -32 98t-88 36h-131q-4 0 -4 -4v-241q0 -4 4 -4h97q10 0 10 -10v-28q0 -10 -10 -10
h-97q-4 0 -4 -4v-271q0 -4 4 -4h132q54 1 86.5 36.5t32.5 97.5v308z" />
    <glyph glyph-name="Ntilde" unicode="&#xd1;" horiz-adv-x="585" 
d="M441 700h51q10 0 10 -10v-680q0 -10 -10 -10h-54q-9 0 -12 7l-268 535q-2 2 -3.5 2t-1.5 -3l1 -531q0 -10 -10 -10h-51q-10 0 -10 10v680q0 10 10 10h54q9 0 12 -7l268 -537q2 -2 3.5 -2t1.5 3l-1 533q0 10 10 10zM324.5 810q-13.5 6 -28.5 16q-4 2 -13.5 8.5t-17.5 9
t-16 2.5q-16 0 -27 -5.5t-22 -20.5q-6 -9 -14 -3l-19 15q-7 7 -3 14q29 51 81 51q17 0 30.5 -6t30.5 -17q3 -2 13 -8.5t18.5 -9.5t16.5 -3q29 0 47 29q6 9 14 3l19 -14q4 -4 4 -8t-3 -10q-15 -25 -37.5 -37t-44.5 -12q-15 0 -28.5 6z" />
    <glyph glyph-name="Ograve" unicode="&#xd2;" horiz-adv-x="539" 
d="M161.5 17.5q-46.5 25.5 -72 71.5t-25.5 106v309q0 60 25.5 106.5t72 72t107.5 25.5t107.5 -25.5t72.5 -72t26 -106.5v-309q0 -60 -26 -106t-72.5 -71.5t-107.5 -25.5t-107.5 25.5zM367 92q37 38 37 100v314q0 63 -37 101.5t-98 38.5q-60 0 -97 -38.5t-37 -101.5v-314
q0 -62 37 -100t97 -38q61 0 98 38zM294 772q0 -6 -9 -6h-34q-7 0 -12 7l-68 109q-2 4 -2 6q0 6 8 6h43q9 0 12 -7l60 -109q2 -4 2 -6z" />
    <glyph glyph-name="Oacute" unicode="&#xd3;" horiz-adv-x="539" 
d="M161.5 17.5q-46.5 25.5 -72 71.5t-25.5 106v309q0 60 25.5 106.5t72 72t107.5 25.5t107.5 -25.5t72.5 -72t26 -106.5v-309q0 -60 -26 -106t-72.5 -71.5t-107.5 -25.5t-107.5 25.5zM367 92q37 38 37 100v314q0 63 -37 101.5t-98 38.5q-60 0 -97 -38.5t-37 -101.5v-314
q0 -62 37 -100t97 -38q61 0 98 38zM227 769.5q-2 3.5 1 8.5l61 109q5 7 12 7h43q6 0 7.5 -3.5t-1.5 -8.5l-69 -109q-5 -7 -12 -7h-34q-6 0 -8 3.5z" />
    <glyph glyph-name="Ocircumflex" unicode="&#xd4;" horiz-adv-x="539" 
d="M161.5 17.5q-46.5 25.5 -72 71.5t-25.5 106v309q0 60 25.5 106.5t72 72t107.5 25.5t107.5 -25.5t72.5 -72t26 -106.5v-309q0 -60 -26 -106t-72.5 -71.5t-107.5 -25.5t-107.5 25.5zM367 92q37 38 37 100v314q0 63 -37 101.5t-98 38.5q-60 0 -97 -38.5t-37 -101.5v-314
q0 -62 37 -100t97 -38q61 0 98 38zM151 773.5q-2 3.5 1 8.5l73 106q4 6 12 6h59q8 0 12 -6l74 -106q2 -2 2 -6q0 -2 -2 -4t-6 -2h-42q-7 0 -12 7l-51 78q-1 2 -3 2t-3 -2l-53 -79q-4 -6 -12 -6h-41q-6 0 -8 3.5z" />
    <glyph glyph-name="Otilde" unicode="&#xd5;" horiz-adv-x="539" 
d="M161.5 17.5q-46.5 25.5 -72 71.5t-25.5 106v309q0 60 25.5 106.5t72 72t107.5 25.5t107.5 -25.5t72.5 -72t26 -106.5v-309q0 -60 -26 -106t-72.5 -71.5t-107.5 -25.5t-107.5 25.5zM367 92q37 38 37 100v314q0 63 -37 101.5t-98 38.5q-60 0 -97 -38.5t-37 -101.5v-314
q0 -62 37 -100t97 -38q61 0 98 38zM301.5 806q-13.5 6 -28.5 16q-4 2 -13.5 8.5t-17.5 9t-16 2.5q-16 0 -27 -5.5t-22 -20.5q-6 -9 -14 -3l-19 15q-7 7 -3 14q29 51 81 51q17 0 30.5 -6t30.5 -17q3 -2 13 -8.5t18.5 -9.5t16.5 -3q29 0 47 29q6 9 14 3l19 -14q4 -4 4 -8
t-3 -10q-15 -25 -37.5 -37t-44.5 -12q-15 0 -28.5 6z" />
    <glyph glyph-name="Odieresis" unicode="&#xd6;" horiz-adv-x="539" 
d="M161.5 17.5q-46.5 25.5 -72 71.5t-25.5 106v309q0 60 25.5 106.5t72 72t107.5 25.5t107.5 -25.5t72.5 -72t26 -106.5v-309q0 -60 -26 -106t-72.5 -71.5t-107.5 -25.5t-107.5 25.5zM367 92q37 38 37 100v314q0 63 -37 101.5t-98 38.5q-60 0 -97 -38.5t-37 -101.5v-314
q0 -62 37 -100t97 -38q61 0 98 38zM308.5 809q-15.5 16 -15.5 40q0 25 15.5 40.5t40.5 15.5q24 0 40 -15.5t16 -40.5q0 -24 -16 -40t-40 -16q-25 0 -40.5 16zM148.5 809q-15.5 16 -15.5 40q0 25 15.5 40.5t40.5 15.5q24 0 40 -15.5t16 -40.5q0 -24 -16 -40t-40 -16
q-25 0 -40.5 16z" />
    <glyph glyph-name="multiply" unicode="&#xd7;" horiz-adv-x="396" 
d="M357 436q0 -4 -3 -7l-111 -111q-3 -3 0 -6l109 -109q3 -3 3 -7t-3 -7l-27 -28q-3 -3 -7 -3t-7 3l-109 110q-3 3 -6 0l-111 -111q-3 -3 -7 -3t-7 3l-27 27q-3 3 -3 7t3 7l110 111q3 3 0 6l-112 112q-3 3 -3 7t3 7l28 27q3 3 7 3t7 -3l112 -112q3 -3 6 0l110 111q3 3 7 3
t7 -3l28 -27q3 -3 3 -7z" />
    <glyph glyph-name="Oslash" unicode="&#xd8;" horiz-adv-x="573" 
d="M487 691l-39 -72q-1 -2 1 -6q27 -45 27 -109v-309q0 -60 -26 -106t-73 -71.5t-108 -25.5q-75 0 -131 40q-3 4 -5 -1l-29 -54q-2 -4 -6 -5t-8 1l-34 19q-4 2 -5 6t1 8l40 75q2 3 -1 6q-26 46 -26 108v309q0 60 25.5 106.5t72 72t106.5 25.5q78 0 133 -41q4 -3 5 1l29 55
q2 4 6 5t8 -2l33 -22q8 -6 4 -13zM137 175q0 -3 2 -3.5t3 2.5l228 426q2 3 0 6q-38 40 -101 40q-60 0 -96.5 -38.5t-36.5 -101.5v-314q0 -12 1 -17zM404 525q0 3 -2 3.5t-3 -2.5l-229 -426q-1 -3 0 -6q38 -40 99 -40t98.5 38t37.5 100v314q0 13 -1 19z" />
    <glyph glyph-name="Ugrave" unicode="&#xd9;" horiz-adv-x="562" 
d="M173.5 18q-46.5 26 -72 73t-25.5 109v490q0 10 10 10h51q10 0 10 -10v-494q0 -64 37 -103t97 -39t97 39t37 103v494q0 10 10 10h51q10 0 10 -10v-490q0 -62 -25.5 -109t-72 -73t-107.5 -26t-107.5 26zM306 772q0 -6 -9 -6h-34q-7 0 -12 7l-68 109q-2 4 -2 6q0 6 8 6h43
q9 0 12 -7l60 -109q2 -4 2 -6z" />
    <glyph glyph-name="Uacute" unicode="&#xda;" horiz-adv-x="562" 
d="M173.5 18q-46.5 26 -72 73t-25.5 109v490q0 10 10 10h51q10 0 10 -10v-494q0 -64 37 -103t97 -39t97 39t37 103v494q0 10 10 10h51q10 0 10 -10v-490q0 -62 -25.5 -109t-72 -73t-107.5 -26t-107.5 26zM239 769.5q-2 3.5 1 8.5l61 109q5 7 12 7h43q6 0 7.5 -3.5t-1.5 -8.5
l-69 -109q-5 -7 -12 -7h-34q-6 0 -8 3.5z" />
    <glyph glyph-name="Ucircumflex" unicode="&#xdb;" horiz-adv-x="562" 
d="M173.5 18q-46.5 26 -72 73t-25.5 109v490q0 10 10 10h51q10 0 10 -10v-494q0 -64 37 -103t97 -39t97 39t37 103v494q0 10 10 10h51q10 0 10 -10v-490q0 -62 -25.5 -109t-72 -73t-107.5 -26t-107.5 26zM163 773.5q-2 3.5 1 8.5l73 106q4 6 12 6h59q8 0 12 -6l74 -106
q2 -2 2 -6q0 -2 -2 -4t-6 -2h-42q-7 0 -12 7l-51 78q-1 2 -3 2t-3 -2l-53 -79q-4 -6 -12 -6h-41q-6 0 -8 3.5z" />
    <glyph glyph-name="Udieresis" unicode="&#xdc;" horiz-adv-x="562" 
d="M173.5 18q-46.5 26 -72 73t-25.5 109v490q0 10 10 10h51q10 0 10 -10v-494q0 -64 37 -103t97 -39t97 39t37 103v494q0 10 10 10h51q10 0 10 -10v-490q0 -62 -25.5 -109t-72 -73t-107.5 -26t-107.5 26zM320.5 809q-15.5 16 -15.5 40q0 25 15.5 40.5t40.5 15.5
q24 0 40 -15.5t16 -40.5q0 -24 -16 -40t-40 -16q-25 0 -40.5 16zM160.5 809q-15.5 16 -15.5 40q0 25 15.5 40.5t40.5 15.5q24 0 40 -15.5t16 -40.5q0 -24 -16 -40t-40 -16q-25 0 -40.5 16z" />
    <glyph glyph-name="Yacute" unicode="&#xdd;" horiz-adv-x="496" 
d="M212 11v298q0 4 -1 5l-173 374l-1 4q0 8 9 8h54q8 0 11 -8l134 -299q1 -2 3 -2t3 2l134 299q3 8 11 8h54q5 0 7.5 -3.5t0.5 -8.5l-174 -374q-1 -1 -1 -5v-298q0 -10 -10 -10h-51q-10 0 -10 10zM206 769.5q-2 3.5 1 8.5l61 109q5 7 12 7h43q6 0 7.5 -3.5t-1.5 -8.5
l-69 -109q-5 -7 -12 -7h-34q-6 0 -8 3.5z" />
    <glyph glyph-name="Thorn" unicode="&#xde;" horiz-adv-x="505" 
d="M420.5 490q49.5 -54 49.5 -141q0 -57 -23 -100t-63.5 -67t-92.5 -24h-137q-4 0 -4 -4v-144q0 -10 -10 -10h-51q-10 0 -10 10v680q0 10 10 10h51q10 0 10 -10v-142q0 -4 4 -4h137q80 0 129.5 -54zM367 252q32 36 32 96q0 61 -32 97t-85 36h-128q-4 0 -4 -4v-257q0 -4 4 -4
h128q53 0 85 36z" />
    <glyph glyph-name="germandbls" unicode="&#xdf;" horiz-adv-x="494" 
d="M71 10v500q0 94 47 146.5t130 52.5t132.5 -51.5t49.5 -137.5q0 -53 -20.5 -90.5t-57.5 -55.5q-5 -2 0 -5q39 -19 62 -65t23 -108q0 -93 -51.5 -144.5t-144.5 -51.5h-45q-10 0 -10 10v41q0 10 10 10l49 1q58 0 90 36.5t32 103.5q0 66 -29 102.5t-80 38.5h-44q-10 0 -10 10
v37q0 10 10 10h44q48 0 74.5 30.5t26.5 85.5q0 62 -28.5 96.5t-80.5 34.5q-50 0 -79 -34t-29 -96v-507q0 -10 -10 -10h-51q-10 0 -10 10z" />
    <glyph glyph-name="agrave" unicode="&#xe0;" horiz-adv-x="461" 
d="M357.5 468q45.5 -46 45.5 -122v-336q0 -10 -10 -10h-51q-10 0 -10 10v36q0 2 -1.5 3t-3.5 -1q-22 -28 -56 -42t-76 -14q-63 0 -107.5 34t-44.5 111q0 80 51.5 121.5t140.5 41.5h93q4 0 4 4v38q0 51 -25.5 80.5t-75.5 29.5q-39 0 -65 -19.5t-31 -51.5q-1 -9 -11 -9l-55 3
q-5 0 -7.5 3t-1.5 7q7 58 54.5 93.5t117.5 35.5q80 0 125.5 -46zM295.5 81.5q36.5 27.5 36.5 76.5v81q0 4 -4 4h-88q-57 0 -91 -26.5t-34 -75.5q0 -44 26 -65.5t68 -21.5q50 0 86.5 27.5zM256 578q0 -6 -9 -6h-34q-7 0 -12 7l-68 109q-2 4 -2 6q0 6 8 6h43q9 0 12 -7
l60 -109q2 -4 2 -6z" />
    <glyph glyph-name="aacute" unicode="&#xe1;" horiz-adv-x="461" 
d="M357.5 468q45.5 -46 45.5 -122v-336q0 -10 -10 -10h-51q-10 0 -10 10v36q0 2 -1.5 3t-3.5 -1q-22 -28 -56 -42t-76 -14q-63 0 -107.5 34t-44.5 111q0 80 51.5 121.5t140.5 41.5h93q4 0 4 4v38q0 51 -25.5 80.5t-75.5 29.5q-39 0 -65 -19.5t-31 -51.5q-1 -9 -11 -9l-55 3
q-5 0 -7.5 3t-1.5 7q7 58 54.5 93.5t117.5 35.5q80 0 125.5 -46zM295.5 81.5q36.5 27.5 36.5 76.5v81q0 4 -4 4h-88q-57 0 -91 -26.5t-34 -75.5q0 -44 26 -65.5t68 -21.5q50 0 86.5 27.5zM189 575.5q-2 3.5 1 8.5l61 109q5 7 12 7h43q6 0 7.5 -3.5t-1.5 -8.5l-69 -109
q-5 -7 -12 -7h-34q-6 0 -8 3.5z" />
    <glyph glyph-name="acircumflex" unicode="&#xe2;" horiz-adv-x="461" 
d="M357.5 468q45.5 -46 45.5 -122v-336q0 -10 -10 -10h-51q-10 0 -10 10v36q0 2 -1.5 3t-3.5 -1q-22 -28 -56 -42t-76 -14q-63 0 -107.5 34t-44.5 111q0 80 51.5 121.5t140.5 41.5h93q4 0 4 4v38q0 51 -25.5 80.5t-75.5 29.5q-39 0 -65 -19.5t-31 -51.5q-1 -9 -11 -9l-55 3
q-5 0 -7.5 3t-1.5 7q7 58 54.5 93.5t117.5 35.5q80 0 125.5 -46zM295.5 81.5q36.5 27.5 36.5 76.5v81q0 4 -4 4h-88q-57 0 -91 -26.5t-34 -75.5q0 -44 26 -65.5t68 -21.5q50 0 86.5 27.5zM113 579.5q-2 3.5 1 8.5l73 106q4 6 12 6h59q8 0 12 -6l74 -106q2 -2 2 -6
q0 -2 -2 -4t-6 -2h-42q-7 0 -12 7l-51 78q-1 2 -3 2t-3 -2l-53 -79q-4 -6 -12 -6h-41q-6 0 -8 3.5z" />
    <glyph glyph-name="atilde" unicode="&#xe3;" horiz-adv-x="461" 
d="M357.5 468q45.5 -46 45.5 -122v-336q0 -10 -10 -10h-51q-10 0 -10 10v36q0 2 -1.5 3t-3.5 -1q-22 -28 -56 -42t-76 -14q-63 0 -107.5 34t-44.5 111q0 80 51.5 121.5t140.5 41.5h93q4 0 4 4v38q0 51 -25.5 80.5t-75.5 29.5q-39 0 -65 -19.5t-31 -51.5q-1 -9 -11 -9l-55 3
q-5 0 -7.5 3t-1.5 7q7 58 54.5 93.5t117.5 35.5q80 0 125.5 -46zM295.5 81.5q36.5 27.5 36.5 76.5v81q0 4 -4 4h-88q-57 0 -91 -26.5t-34 -75.5q0 -44 26 -65.5t68 -21.5q50 0 86.5 27.5zM263.5 612q-13.5 6 -28.5 16q-4 2 -13.5 8.5t-17.5 9t-16 2.5q-16 0 -27 -5.5
t-22 -20.5q-6 -9 -14 -3l-19 15q-7 7 -3 14q29 51 81 51q17 0 30.5 -6t30.5 -17q3 -2 13 -8.5t18.5 -9.5t16.5 -3q29 0 47 29q6 9 14 3l19 -14q4 -4 4 -8t-3 -10q-15 -25 -37.5 -37t-44.5 -12q-15 0 -28.5 6z" />
    <glyph glyph-name="adieresis" unicode="&#xe4;" horiz-adv-x="461" 
d="M357.5 468q45.5 -46 45.5 -122v-336q0 -10 -10 -10h-51q-10 0 -10 10v36q0 2 -1.5 3t-3.5 -1q-22 -28 -56 -42t-76 -14q-63 0 -107.5 34t-44.5 111q0 80 51.5 121.5t140.5 41.5h93q4 0 4 4v38q0 51 -25.5 80.5t-75.5 29.5q-39 0 -65 -19.5t-31 -51.5q-1 -9 -11 -9l-55 3
q-5 0 -7.5 3t-1.5 7q7 58 54.5 93.5t117.5 35.5q80 0 125.5 -46zM295.5 81.5q36.5 27.5 36.5 76.5v81q0 4 -4 4h-88q-57 0 -91 -26.5t-34 -75.5q0 -44 26 -65.5t68 -21.5q50 0 86.5 27.5zM270.5 615q-15.5 16 -15.5 40q0 25 15.5 40.5t40.5 15.5q24 0 40 -15.5t16 -40.5
q0 -24 -16 -40t-40 -16q-25 0 -40.5 16zM110.5 615q-15.5 16 -15.5 40q0 25 15.5 40.5t40.5 15.5q24 0 40 -15.5t16 -40.5q0 -24 -16 -40t-40 -16q-25 0 -40.5 16z" />
    <glyph glyph-name="aring" unicode="&#xe5;" horiz-adv-x="461" 
d="M357.5 468q45.5 -46 45.5 -122v-336q0 -10 -10 -10h-51q-10 0 -10 10v36q0 2 -1.5 3t-3.5 -1q-22 -28 -56 -42t-76 -14q-63 0 -107.5 34t-44.5 111q0 80 51.5 121.5t140.5 41.5h93q4 0 4 4v38q0 51 -25.5 80.5t-75.5 29.5q-39 0 -65 -19.5t-31 -51.5q-1 -9 -11 -9l-55 3
q-5 0 -7.5 3t-1.5 7q7 58 54.5 93.5t117.5 35.5q80 0 125.5 -46zM295.5 81.5q36.5 27.5 36.5 76.5v81q0 4 -4 4h-88q-57 0 -91 -26.5t-34 -75.5q0 -44 26 -65.5t68 -21.5q50 0 86.5 27.5zM153 610q-31 31 -31 77q0 45 31 76.5t77 31.5t77 -31.5t31 -76.5q0 -46 -31 -77
t-77 -31t-77 31zM275 641q19 19 19 46q0 28 -19 47t-45 19q-27 0 -46 -19t-19 -47t19 -46.5t46 -18.5q26 0 45 19z" />
    <glyph glyph-name="ae" unicode="&#xe6;" horiz-adv-x="742" 
d="M87 24q-44 32 -44 109q0 79 49.5 118t138.5 39h96q4 0 4 4v46q0 51 -25.5 81.5t-76.5 30.5q-39 0 -67 -19.5t-34 -51.5q-2 -11 -11 -9l-51 5q-10 2 -9 11q7 56 55 91t116 35q49 0 85 -21t54 -57q3 -4 6 0q18 34 55.5 56t84.5 22q68 0 116 -40.5t56 -105.5q5 -39 5 -129
q0 -10 -10 -10h-271q-4 0 -4 -4v-69q1 -45 33 -71t79 -26q39 0 66 18.5t39 51.5q3 9 12 6l42 -12q9 -3 7 -12q-14 -54 -58.5 -86.5t-109.5 -32.5q-52 0 -91.5 22t-55.5 57q-1 2 -2 3t-2 -1q-17 -38 -62.5 -59.5t-103.5 -21.5q-67 0 -111 32zM408 290h207q4 0 4 4q0 25 -2 61
q-5 43 -33.5 70t-71.5 27q-44 0 -72.5 -27t-32.5 -70q-1 -7 -3 -61q0 -4 4 -4zM295 76.5q36 26.5 36 75.5v73q0 4 -4 4h-88q-58 0 -91.5 -23t-33.5 -69q0 -42 26.5 -64.5t69.5 -22.5q49 0 85 26.5z" />
    <glyph glyph-name="ccedilla" unicode="&#xe7;" horiz-adv-x="461" 
d="M347 148q2 11 11 9l50 -4q9 -2 9 -9v-4q0 -4 -2 -12q-6 -53 -46.5 -90t-102.5 -44q-6 -2 -1 -5q46 -42 46 -91q0 -45 -25 -64t-60 -19q-21 0 -36 4q-8 3 -7 12l3 21q1 5 4.5 7t7.5 1q6 -2 18 -2q20 0 32 11.5t12 35.5q0 22 -14 44.5t-37 42.5q-1 2 -5 2q-58 10 -95 48
t-46 96q-6 51 -6 116q0 51 6 115q9 65 57 105t119 40t119.5 -38t56.5 -95l3 -21v-2q0 -4 -2.5 -6.5t-6.5 -2.5l-51 -3q-9 0 -11 9q0 9 -1 12q-5 35 -34.5 60t-72.5 25q-44 0 -72.5 -27t-33.5 -70t-5 -102q0 -60 5 -103q5 -44 33.5 -70t72.5 -26t73.5 25t33.5 61z" />
    <glyph glyph-name="egrave" unicode="&#xe8;" horiz-adv-x="470" 
d="M306.5 73.5q27.5 19.5 39.5 52.5q3 9 12 7l46 -9q5 -1 6.5 -4.5t0.5 -7.5q-17 -56 -62 -88t-109 -32q-73 0 -119 38.5t-57 104.5q-4 25 -5 59t-1 56.5v31.5q0 51 4 83q8 67 55.5 108t119.5 41q77 0 125 -44t54 -116q3 -33 3 -121q0 -10 -10 -10h-276q-4 0 -4 -4
q0 -31 2 -69q5 -43 34.5 -69.5t75.5 -26.5q38 0 65.5 19.5zM164.5 425.5q-28.5 -26.5 -33.5 -69.5q-2 -42 -2 -70q0 -4 4 -4h211q4 0 4 4q0 29 -4 69q-5 43 -33.5 70t-72.5 27q-45 0 -73.5 -26.5zM260 578q0 -6 -9 -6h-34q-7 0 -12 7l-68 109q-2 4 -2 6q0 6 8 6h43
q9 0 12 -7l60 -109q2 -4 2 -6z" />
    <glyph glyph-name="eacute" unicode="&#xe9;" horiz-adv-x="470" 
d="M306.5 73.5q27.5 19.5 39.5 52.5q3 9 12 7l46 -9q5 -1 6.5 -4.5t0.5 -7.5q-17 -56 -62 -88t-109 -32q-73 0 -119 38.5t-57 104.5q-4 25 -5 59t-1 56.5v31.5q0 51 4 83q8 67 55.5 108t119.5 41q77 0 125 -44t54 -116q3 -33 3 -121q0 -10 -10 -10h-276q-4 0 -4 -4
q0 -31 2 -69q5 -43 34.5 -69.5t75.5 -26.5q38 0 65.5 19.5zM164.5 425.5q-28.5 -26.5 -33.5 -69.5q-2 -42 -2 -70q0 -4 4 -4h211q4 0 4 4q0 29 -4 69q-5 43 -33.5 70t-72.5 27q-45 0 -73.5 -26.5zM193 575.5q-2 3.5 1 8.5l61 109q5 7 12 7h43q6 0 7.5 -3.5t-1.5 -8.5
l-69 -109q-5 -7 -12 -7h-34q-6 0 -8 3.5z" />
    <glyph glyph-name="ecircumflex" unicode="&#xea;" horiz-adv-x="470" 
d="M306.5 73.5q27.5 19.5 39.5 52.5q3 9 12 7l46 -9q5 -1 6.5 -4.5t0.5 -7.5q-17 -56 -62 -88t-109 -32q-73 0 -119 38.5t-57 104.5q-4 25 -5 59t-1 56.5v31.5q0 51 4 83q8 67 55.5 108t119.5 41q77 0 125 -44t54 -116q3 -33 3 -121q0 -10 -10 -10h-276q-4 0 -4 -4
q0 -31 2 -69q5 -43 34.5 -69.5t75.5 -26.5q38 0 65.5 19.5zM164.5 425.5q-28.5 -26.5 -33.5 -69.5q-2 -42 -2 -70q0 -4 4 -4h211q4 0 4 4q0 29 -4 69q-5 43 -33.5 70t-72.5 27q-45 0 -73.5 -26.5zM118 579.5q-2 3.5 1 8.5l73 106q4 6 12 6h59q8 0 12 -6l74 -106q2 -2 2 -6
q0 -2 -2 -4t-6 -2h-42q-7 0 -12 7l-51 78q-1 2 -3 2t-3 -2l-53 -79q-4 -6 -12 -6h-41q-6 0 -8 3.5z" />
    <glyph glyph-name="edieresis" unicode="&#xeb;" horiz-adv-x="470" 
d="M306.5 73.5q27.5 19.5 39.5 52.5q3 9 12 7l46 -9q5 -1 6.5 -4.5t0.5 -7.5q-17 -56 -62 -88t-109 -32q-73 0 -119 38.5t-57 104.5q-4 25 -5 59t-1 56.5v31.5q0 51 4 83q8 67 55.5 108t119.5 41q77 0 125 -44t54 -116q3 -33 3 -121q0 -10 -10 -10h-276q-4 0 -4 -4
q0 -31 2 -69q5 -43 34.5 -69.5t75.5 -26.5q38 0 65.5 19.5zM164.5 425.5q-28.5 -26.5 -33.5 -69.5q-2 -42 -2 -70q0 -4 4 -4h211q4 0 4 4q0 29 -4 69q-5 43 -33.5 70t-72.5 27q-45 0 -73.5 -26.5zM274.5 615q-15.5 16 -15.5 40q0 25 15.5 40.5t40.5 15.5q24 0 40 -15.5
t16 -40.5q0 -24 -16 -40t-40 -16q-25 0 -40.5 16zM114.5 615q-15.5 16 -15.5 40q0 25 15.5 40.5t40.5 15.5q24 0 40 -15.5t16 -40.5q0 -24 -16 -40t-40 -16q-25 0 -40.5 16z" />
    <glyph glyph-name="igrave" unicode="&#xec;" horiz-adv-x="190" 
d="M60 10v486q0 10 10 10h51q10 0 10 -10v-486q0 -10 -10 -10h-51q-10 0 -10 10zM121 578q0 -6 -9 -6h-34q-7 0 -12 7l-68 109q-2 4 -2 6q0 6 8 6h43q9 0 12 -7l60 -109q2 -4 2 -6z" />
    <glyph glyph-name="iacute" unicode="&#xed;" horiz-adv-x="190" 
d="M60 10v486q0 10 10 10h51q10 0 10 -10v-486q0 -10 -10 -10h-51q-10 0 -10 10zM53 575.5q-2 3.5 1 8.5l61 109q5 7 12 7h43q6 0 7.5 -3.5t-1.5 -8.5l-69 -109q-5 -7 -12 -7h-34q-6 0 -8 3.5z" />
    <glyph glyph-name="icircumflex" unicode="&#xee;" horiz-adv-x="190" 
d="M60 10v486q0 10 10 10h51q10 0 10 -10v-486q0 -10 -10 -10h-51q-10 0 -10 10zM-22 579.5q-2 3.5 1 8.5l73 106q4 6 12 6h59q8 0 12 -6l74 -106q2 -2 2 -6q0 -2 -2 -4t-6 -2h-42q-7 0 -12 7l-51 78q-1 2 -3 2t-3 -2l-53 -79q-4 -6 -12 -6h-41q-6 0 -8 3.5z" />
    <glyph glyph-name="idieresis" unicode="&#xef;" horiz-adv-x="190" 
d="M60 10v486q0 10 10 10h51q10 0 10 -10v-486q0 -10 -10 -10h-51q-10 0 -10 10zM134.5 615q-15.5 16 -15.5 40q0 25 15.5 40.5t40.5 15.5q24 0 40 -15.5t16 -40.5q0 -24 -16 -40t-40 -16q-25 0 -40.5 16zM-25.5 615q-15.5 16 -15.5 40q0 25 15.5 40.5t40.5 15.5
q24 0 40 -15.5t16 -40.5q0 -24 -16 -40t-40 -16q-25 0 -40.5 16z" />
    <glyph glyph-name="eth" unicode="&#xf0;" horiz-adv-x="481" 
d="M414 245q0 -78 -4 -110q-9 -64 -56.5 -103.5t-118.5 -39.5t-117.5 39.5t-55.5 103.5q-5 33 -5 110q0 33 1 60.5t4 49.5q7 59 46.5 96.5t98.5 39.5q6 1 17 1q30 0 56.5 -9t43.5 -25q4 -3 3 2q-14 57 -53 114q-2 4 -5 2l-83 -24l-4 -1q-6 0 -9 8l-5 18l-1 4q0 6 8 9l66 20
q5 2 2 5q-28 35 -68 73q-4 3 -4 6q0 6 9 6h52q5 0 12 -5l26 -28q7 -8 16.5 -18.5t15.5 -17.5q2 -4 5 -2l79 24l4 1q6 0 9 -8l5 -20v-3q0 -6 -7 -9l-62 -19q-4 -2 -3 -4q71 -101 79 -239q3 -33 3 -107zM343 244q0 71 -3 97q-5 43 -33.5 69.5t-71.5 26.5t-71 -26.5t-33 -69.5
q-3 -40 -3 -97q0 -56 3 -97q5 -43 33 -69.5t71 -26.5t71.5 26.5t33.5 69.5q3 27 3 97z" />
    <glyph glyph-name="ntilde" unicode="&#xf1;" horiz-adv-x="482" 
d="M177.5 642.5q-10.5 -5.5 -21.5 -20.5q-6 -10 -14 -2l-16 14q-7 7 -3 14q28 51 76 51q16 0 28.5 -6t28.5 -17q3 -2 12 -8.5t17 -9.5t16 -3q26 0 44 28q6 9 14 3l16 -13q7 -7 3 -14q-13 -27 -34.5 -40t-43.5 -13q-15 0 -26.5 5.5t-27.5 16.5q-2 2 -11.5 8t-17 9t-15.5 3
q-14 0 -24.5 -5.5zM376.5 468.5q40.5 -44.5 40.5 -121.5v-337q0 -10 -10 -10h-51q-10 0 -10 10v327q0 52 -27 83t-74 31t-75.5 -31.5t-28.5 -84.5v-325q0 -10 -10 -10h-51q-10 0 -10 10v486q0 10 10 10h51q10 0 10 -10v-39q0 -2 1.5 -3t3.5 1q39 58 120 58q70 0 110.5 -44.5
z" />
    <glyph glyph-name="ograve" unicode="&#xf2;" horiz-adv-x="475" 
d="M120 31.5q-47 39.5 -57 106.5q-6 50 -6 116t6 114q9 66 56.5 106t120.5 40t120.5 -40t56.5 -106q6 -40 6 -114q0 -76 -6 -116q-9 -67 -56.5 -106.5t-120.5 -39.5t-120 39.5zM312.5 80.5q29.5 26.5 35.5 70.5q4 37 4 102q0 66 -4 102q-5 44 -34.5 70.5t-73.5 26.5
t-73 -26.5t-35 -70.5q-4 -36 -4 -102t4 -102q5 -44 34.5 -70.5t73.5 -26.5q43 0 72.5 26.5zM263 578q0 -6 -9 -6h-34q-7 0 -12 7l-68 109q-2 4 -2 6q0 6 8 6h43q9 0 12 -7l60 -109q2 -4 2 -6z" />
    <glyph glyph-name="oacute" unicode="&#xf3;" horiz-adv-x="475" 
d="M120 31.5q-47 39.5 -57 106.5q-6 50 -6 116t6 114q9 66 56.5 106t120.5 40t120.5 -40t56.5 -106q6 -40 6 -114q0 -76 -6 -116q-9 -67 -56.5 -106.5t-120.5 -39.5t-120 39.5zM312.5 80.5q29.5 26.5 35.5 70.5q4 37 4 102q0 66 -4 102q-5 44 -34.5 70.5t-73.5 26.5
t-73 -26.5t-35 -70.5q-4 -36 -4 -102t4 -102q5 -44 34.5 -70.5t73.5 -26.5q43 0 72.5 26.5zM196 575.5q-2 3.5 1 8.5l61 109q5 7 12 7h43q6 0 7.5 -3.5t-1.5 -8.5l-69 -109q-5 -7 -12 -7h-34q-6 0 -8 3.5z" />
    <glyph glyph-name="ocircumflex" unicode="&#xf4;" horiz-adv-x="475" 
d="M120 31.5q-47 39.5 -57 106.5q-6 50 -6 116t6 114q9 66 56.5 106t120.5 40t120.5 -40t56.5 -106q6 -40 6 -114q0 -76 -6 -116q-9 -67 -56.5 -106.5t-120.5 -39.5t-120 39.5zM312.5 80.5q29.5 26.5 35.5 70.5q4 37 4 102q0 66 -4 102q-5 44 -34.5 70.5t-73.5 26.5
t-73 -26.5t-35 -70.5q-4 -36 -4 -102t4 -102q5 -44 34.5 -70.5t73.5 -26.5q43 0 72.5 26.5zM120 579.5q-2 3.5 1 8.5l73 106q4 6 12 6h59q8 0 12 -6l74 -106q2 -2 2 -6q0 -2 -2 -4t-6 -2h-42q-7 0 -12 7l-51 78q-1 2 -3 2t-3 -2l-53 -79q-4 -6 -12 -6h-41q-6 0 -8 3.5z" />
    <glyph glyph-name="otilde" unicode="&#xf5;" horiz-adv-x="475" 
d="M120 31.5q-47 39.5 -57 106.5q-6 50 -6 116t6 114q9 66 56.5 106t120.5 40t120.5 -40t56.5 -106q6 -40 6 -114q0 -76 -6 -116q-9 -67 -56.5 -106.5t-120.5 -39.5t-120 39.5zM312.5 80.5q29.5 26.5 35.5 70.5q4 37 4 102q0 66 -4 102q-5 44 -34.5 70.5t-73.5 26.5
t-73 -26.5t-35 -70.5q-4 -36 -4 -102t4 -102q5 -44 34.5 -70.5t73.5 -26.5q43 0 72.5 26.5zM270.5 612q-13.5 6 -28.5 16q-4 2 -13.5 8.5t-17.5 9t-16 2.5q-16 0 -27 -5.5t-22 -20.5q-6 -9 -14 -3l-19 15q-7 7 -3 14q29 51 81 51q17 0 30.5 -6t30.5 -17q3 -2 13 -8.5
t18.5 -9.5t16.5 -3q29 0 47 29q6 9 14 3l19 -14q4 -4 4 -8t-3 -10q-15 -25 -37.5 -37t-44.5 -12q-15 0 -28.5 6z" />
    <glyph glyph-name="odieresis" unicode="&#xf6;" horiz-adv-x="475" 
d="M120 31.5q-47 39.5 -57 106.5q-6 50 -6 116t6 114q9 66 56.5 106t120.5 40t120.5 -40t56.5 -106q6 -40 6 -114q0 -76 -6 -116q-9 -67 -56.5 -106.5t-120.5 -39.5t-120 39.5zM312.5 80.5q29.5 26.5 35.5 70.5q4 37 4 102q0 66 -4 102q-5 44 -34.5 70.5t-73.5 26.5
t-73 -26.5t-35 -70.5q-4 -36 -4 -102t4 -102q5 -44 34.5 -70.5t73.5 -26.5q43 0 72.5 26.5zM277.5 615q-15.5 16 -15.5 40q0 25 15.5 40.5t40.5 15.5q24 0 40 -15.5t16 -40.5q0 -24 -16 -40t-40 -16q-25 0 -40.5 16zM117.5 615q-15.5 16 -15.5 40q0 25 15.5 40.5t40.5 15.5
q24 0 40 -15.5t16 -40.5q0 -24 -16 -40t-40 -16q-25 0 -40.5 16z" />
    <glyph glyph-name="divide" unicode="&#xf7;" horiz-adv-x="471" 
d="M197.5 448.5q-15.5 15.5 -15.5 37.5q0 21 15.5 36t37.5 15q21 0 37 -15t16 -36q0 -22 -16 -37.5t-37 -15.5q-22 0 -37.5 15.5zM36 306v38q0 10 10 10h379q10 0 10 -10v-38q0 -10 -10 -10h-379q-10 0 -10 10zM197.5 138q-15.5 15 -15.5 37q0 21 15.5 36.5t37.5 15.5
q21 0 37 -15.5t16 -36.5t-16 -36.5t-37 -15.5q-22 0 -37.5 15z" />
    <glyph glyph-name="oslash" unicode="&#xf8;" horiz-adv-x="479" 
d="M421 254q0 -66 -6 -116q-9 -66 -57 -106t-120 -40q-53 0 -95 22q-4 2 -5 -1l-26 -46q-2 -4 -6 -4.5t-8 1.5l-35 23q-8 5 -3 13l30 56q2 3 0 6q-23 32 -29 76q-6 40 -6 116t6 114q9 66 56.5 106t120.5 40q52 0 93 -21q4 -2 5 1l27 49q2 4 6 5t8 -2l35 -24q7 -6 3 -13
l-31 -57q-2 -3 0 -5q25 -34 31 -79q6 -49 6 -114zM132 140q2 -6 5 -1l162 291q1 4 -1 5q-26 17 -61 17q-43 0 -72.5 -26.5t-34.5 -70.5q-4 -36 -4 -102t4 -102zM349 253q0 75 -3 102l-3 14q-2 6 -5 1l-164 -293q-1 -4 1 -5q27 -18 63 -18q43 0 72.5 26.5t35.5 70.5
q3 28 3 102z" />
    <glyph glyph-name="ugrave" unicode="&#xf9;" horiz-adv-x="481" 
d="M349 506h51q10 0 10 -10v-486q0 -10 -10 -10h-51q-10 0 -10 10v39q0 3 -1.5 3t-3.5 -2q-35 -57 -116 -57q-68 0 -111 40t-43 116v347q0 10 10 10h51q10 0 10 -10v-329q0 -53 26 -82.5t73 -29.5q49 0 77 31.5t28 84.5v325q0 10 10 10zM264 578q0 -6 -9 -6h-34q-7 0 -12 7
l-68 109q-2 4 -2 6q0 6 8 6h43q9 0 12 -7l60 -109q2 -4 2 -6z" />
    <glyph glyph-name="uacute" unicode="&#xfa;" horiz-adv-x="481" 
d="M349 506h51q10 0 10 -10v-486q0 -10 -10 -10h-51q-10 0 -10 10v39q0 3 -1.5 3t-3.5 -2q-35 -57 -116 -57q-68 0 -111 40t-43 116v347q0 10 10 10h51q10 0 10 -10v-329q0 -53 26 -82.5t73 -29.5q49 0 77 31.5t28 84.5v325q0 10 10 10zM197 575.5q-2 3.5 1 8.5l61 109
q5 7 12 7h43q6 0 7.5 -3.5t-1.5 -8.5l-69 -109q-5 -7 -12 -7h-34q-6 0 -8 3.5z" />
    <glyph glyph-name="ucircumflex" unicode="&#xfb;" horiz-adv-x="481" 
d="M349 506h51q10 0 10 -10v-486q0 -10 -10 -10h-51q-10 0 -10 10v39q0 3 -1.5 3t-3.5 -2q-35 -57 -116 -57q-68 0 -111 40t-43 116v347q0 10 10 10h51q10 0 10 -10v-329q0 -53 26 -82.5t73 -29.5q49 0 77 31.5t28 84.5v325q0 10 10 10zM122 579.5q-2 3.5 1 8.5l73 106
q4 6 12 6h59q8 0 12 -6l74 -106q2 -2 2 -6q0 -2 -2 -4t-6 -2h-42q-7 0 -12 7l-51 78q-1 2 -3 2t-3 -2l-53 -79q-4 -6 -12 -6h-41q-6 0 -8 3.5z" />
    <glyph glyph-name="udieresis" unicode="&#xfc;" horiz-adv-x="481" 
d="M349 506h51q10 0 10 -10v-486q0 -10 -10 -10h-51q-10 0 -10 10v39q0 3 -1.5 3t-3.5 -2q-35 -57 -116 -57q-68 0 -111 40t-43 116v347q0 10 10 10h51q10 0 10 -10v-329q0 -53 26 -82.5t73 -29.5q49 0 77 31.5t28 84.5v325q0 10 10 10zM278.5 615q-15.5 16 -15.5 40
q0 25 15.5 40.5t40.5 15.5q24 0 40 -15.5t16 -40.5q0 -24 -16 -40t-40 -16q-25 0 -40.5 16zM118.5 615q-15.5 16 -15.5 40q0 25 15.5 40.5t40.5 15.5q24 0 40 -15.5t16 -40.5q0 -24 -16 -40t-40 -16q-25 0 -40.5 16z" />
    <glyph glyph-name="yacute" unicode="&#xfd;" horiz-adv-x="414" 
d="M44 -190v40q0 10 10 10h2q35 1 54.5 12t33 39t27.5 86q1 1 0.5 3.5l-0.5 2.5l-149 492l-1 3q0 8 10 8h54q9 0 11 -9l109 -399q1 -2 2.5 -2t2.5 2l109 399q2 9 11 9h53q5 0 7.5 -3t1.5 -8l-163 -539q-20 -67 -39.5 -99t-49 -44.5t-83.5 -12.5h-6q-7 0 -7 10zM165 577.5
q-2 3.5 1 8.5l61 109q5 7 12 7h43q6 0 7.5 -3.5t-1.5 -8.5l-69 -109q-5 -7 -12 -7h-34q-6 0 -8 3.5z" />
    <glyph glyph-name="thorn" unicode="&#xfe;" horiz-adv-x="479" 
d="M422 253q0 -85 -4 -115q-8 -66 -50.5 -106t-106.5 -40q-39 0 -69.5 16.5t-48.5 47.5q-2 2 -3.5 2t-1.5 -3v-245q0 -10 -10 -10h-51q-10 0 -10 10v880q0 10 10 10h51q10 0 10 -10v-238q0 -3 1.5 -3.5t3.5 1.5q37 64 116 64q65 0 107.5 -39.5t50.5 -103.5q5 -39 5 -118z
M350 253q0 49 -4 103q-5 42 -33.5 69t-71.5 27t-70 -27t-31 -69l-2 -22v-169l1 -15q5 -42 32 -69t70 -27t72 27t33 69q4 54 4 103z" />
    <glyph glyph-name="ydieresis" unicode="&#xff;" horiz-adv-x="414" 
d="M44 -190v40q0 10 10 10h2q35 1 54.5 12t33 39t27.5 86q1 1 0.5 3.5l-0.5 2.5l-149 492l-1 3q0 8 10 8h54q9 0 11 -9l109 -399q1 -2 2.5 -2t2.5 2l109 399q2 9 11 9h53q5 0 7.5 -3t1.5 -8l-163 -539q-20 -67 -39.5 -99t-49 -44.5t-83.5 -12.5h-6q-7 0 -7 10zM246.5 617
q-15.5 16 -15.5 40q0 25 15.5 40.5t40.5 15.5q24 0 40 -15.5t16 -40.5q0 -24 -16 -40t-40 -16q-25 0 -40.5 16zM86.5 617q-15.5 16 -15.5 40q0 25 15.5 40.5t40.5 15.5q24 0 40 -15.5t16 -40.5q0 -24 -16 -40t-40 -16q-25 0 -40.5 16z" />
    <glyph glyph-name="Amacron" unicode="&#x100;" horiz-adv-x="508" 
d="M411 9l-33 125q-1 3 -5 3h-239q-4 0 -5 -3l-33 -125q-2 -9 -11 -9h-52q-5 0 -7.5 3t-1.5 8l187 680q2 9 11 9h64q9 0 11 -9l187 -680l1 -3q0 -8 -10 -8h-53q-9 0 -11 9zM146.5 196.5q1.5 -1.5 3.5 -1.5h207q2 0 3.5 1.5t0.5 2.5l-106 402q-1 2 -2 2t-2 -2l-105 -402
q-1 -1 0.5 -2.5zM136 799v31q0 10 10 10h215q10 0 10 -10v-31q0 -10 -10 -10h-215q-10 0 -10 10z" />
    <glyph glyph-name="amacron" unicode="&#x101;" horiz-adv-x="461" 
d="M357.5 468q45.5 -46 45.5 -122v-336q0 -10 -10 -10h-51q-10 0 -10 10v36q0 2 -1.5 3t-3.5 -1q-22 -28 -56 -42t-76 -14q-63 0 -107.5 34t-44.5 111q0 80 51.5 121.5t140.5 41.5h93q4 0 4 4v38q0 51 -25.5 80.5t-75.5 29.5q-39 0 -65 -19.5t-31 -51.5q-1 -9 -11 -9l-55 3
q-5 0 -7.5 3t-1.5 7q7 58 54.5 93.5t117.5 35.5q80 0 125.5 -46zM295.5 81.5q36.5 27.5 36.5 76.5v81q0 4 -4 4h-88q-57 0 -91 -26.5t-34 -75.5q0 -44 26 -65.5t68 -21.5q50 0 86.5 27.5zM113 605v31q0 10 10 10h215q10 0 10 -10v-31q0 -10 -10 -10h-215q-10 0 -10 10z" />
    <glyph glyph-name="Abreve" unicode="&#x102;" horiz-adv-x="508" 
d="M411 9l-33 125q-1 3 -5 3h-239q-4 0 -5 -3l-33 -125q-2 -9 -11 -9h-52q-5 0 -7.5 3t-1.5 8l187 680q2 9 11 9h64q9 0 11 -9l187 -680l1 -3q0 -8 -10 -8h-53q-9 0 -11 9zM146.5 196.5q1.5 -1.5 3.5 -1.5h207q2 0 3.5 1.5t0.5 2.5l-106 402q-1 2 -2 2t-2 -2l-105 -402
q-1 -1 0.5 -2.5zM176.5 781.5q-31.5 27.5 -36.5 70.5q0 10 10 10h26q10 0 11 -10q3 -25 22 -41.5t45 -16.5t44.5 16.5t21.5 41.5q1 10 11 10h27q10 0 10 -10q-4 -43 -36 -70.5t-78 -27.5t-77.5 27.5z" />
    <glyph glyph-name="abreve" unicode="&#x103;" horiz-adv-x="461" 
d="M357.5 468q45.5 -46 45.5 -122v-336q0 -10 -10 -10h-51q-10 0 -10 10v36q0 2 -1.5 3t-3.5 -1q-22 -28 -56 -42t-76 -14q-63 0 -107.5 34t-44.5 111q0 80 51.5 121.5t140.5 41.5h93q4 0 4 4v38q0 51 -25.5 80.5t-75.5 29.5q-39 0 -65 -19.5t-31 -51.5q-1 -9 -11 -9l-55 3
q-5 0 -7.5 3t-1.5 7q7 58 54.5 93.5t117.5 35.5q80 0 125.5 -46zM295.5 81.5q36.5 27.5 36.5 76.5v81q0 4 -4 4h-88q-57 0 -91 -26.5t-34 -75.5q0 -44 26 -65.5t68 -21.5q50 0 86.5 27.5zM153.5 587.5q-31.5 27.5 -36.5 70.5q0 10 10 10h26q10 0 11 -10q3 -25 22 -41.5
t45 -16.5t44.5 16.5t21.5 41.5q1 10 11 10h27q10 0 10 -10q-4 -43 -36 -70.5t-78 -27.5t-77.5 27.5z" />
    <glyph glyph-name="Aogonek" unicode="&#x104;" horiz-adv-x="508" 
d="M411 9l-33 125q-1 3 -5 3h-239q-4 0 -5 -3l-33 -125q-2 -9 -11 -9h-52q-5 0 -7.5 3t-1.5 8l187 680q2 9 11 9h64q9 0 11 -9l187 -680l1 -3q0 -8 -10 -8h-53q-9 0 -11 9zM146.5 196.5q1.5 -1.5 3.5 -1.5h207q2 0 3.5 1.5t0.5 2.5l-106 402q-1 2 -2 2t-2 -2l-105 -402
q-1 -1 0.5 -2.5zM503 -173q0 -6 -7 -9q-20 -4 -34 -4q-36 0 -61 19t-25 63q0 54 53 100q5 4 13 4h26q7 0 8.5 -4t-3.5 -8q-46 -43 -46 -82q0 -8 1 -12q6 -36 42 -36q12 0 18 2l3 1q7 0 9 -9l3 -22v-3z" />
    <glyph glyph-name="aogonek" unicode="&#x105;" horiz-adv-x="461" 
d="M408 -139q6 0 8 -8l4 -23v-2q0 -7 -8 -9q-18 -5 -36 -5q-35 0 -60 19t-25 64q0 52 53 98q2 2 1 3.5t-3 1.5v0q-10 0 -10 10v36q0 2 -1.5 3t-3.5 -1q-22 -28 -56 -42t-76 -14q-63 0 -107.5 34t-44.5 111q0 80 51.5 121.5t140.5 41.5h93q4 0 4 4v38q0 51 -25.5 80.5
t-75.5 29.5q-39 0 -65 -19.5t-31 -51.5q-1 -9 -11 -9l-55 3q-4 0 -7 3t-2 8q7 58 54.5 93t117.5 35q80 0 125.5 -46t45.5 -122v-338q0 -7 -6 -13q-25 -21 -40 -44.5t-15 -45.5q0 -24 12 -35.5t32 -11.5q12 0 18 2zM295.5 81.5q36.5 27.5 36.5 76.5v81q0 4 -4 4h-88
q-57 0 -91 -26.5t-34 -75.5q0 -44 26 -65.5t68 -21.5q50 0 86.5 27.5z" />
    <glyph glyph-name="Cacute" unicode="&#x106;" horiz-adv-x="526" 
d="M119.5 46q-55.5 54 -55.5 143v323q0 89 55.5 142.5t146.5 53.5q92 0 147.5 -53t55.5 -141v-9q0 -10 -10 -10l-51 -2q-10 0 -10 9v14q0 58 -36.5 94t-95.5 36t-95 -35.5t-36 -94.5v-332q0 -59 36 -94.5t95 -35.5t95.5 36t36.5 94v14q0 9 10 9l51 -3q10 0 10 -10v-7
q0 -88 -55.5 -141.5t-147.5 -53.5q-91 0 -146.5 54zM224 769.5q-2 3.5 1 8.5l61 109q5 7 12 7h43q6 0 7.5 -3.5t-1.5 -8.5l-69 -109q-5 -7 -12 -7h-34q-6 0 -8 3.5z" />
    <glyph glyph-name="cacute" unicode="&#x107;" horiz-adv-x="461" 
d="M120 31.5q-47 39.5 -57 106.5q-6 51 -6 116q0 51 6 115q9 65 57 105t119 40t119.5 -38t56.5 -95l3 -21v-2q0 -4 -2.5 -6.5t-6.5 -2.5l-51 -3q-9 0 -11 9q0 9 -1 12q-5 35 -34.5 60t-72.5 25q-44 0 -72.5 -27t-33.5 -70t-5 -102q0 -60 5 -103q5 -44 33.5 -70t72.5 -26
t73.5 25t33.5 61l1 8q2 11 11 9l50 -4q9 -2 9 -9v-4q0 -4 -2 -12q-7 -59 -55.5 -97.5t-120.5 -38.5t-119 39.5zM197 575.5q-2 3.5 1 8.5l61 109q5 7 12 7h43q6 0 7.5 -3.5t-1.5 -8.5l-69 -109q-5 -7 -12 -7h-34q-6 0 -8 3.5z" />
    <glyph glyph-name="Ccircumflex" unicode="&#x108;" horiz-adv-x="526" 
d="M119.5 46q-55.5 54 -55.5 143v323q0 89 55.5 142.5t146.5 53.5q92 0 147.5 -53t55.5 -141v-9q0 -10 -10 -10l-51 -2q-10 0 -10 9v14q0 58 -36.5 94t-95.5 36t-95 -35.5t-36 -94.5v-332q0 -59 36 -94.5t95 -35.5t95.5 36t36.5 94v14q0 9 10 9l51 -3q10 0 10 -10v-7
q0 -88 -55.5 -141.5t-147.5 -53.5q-91 0 -146.5 54zM149 773.5q-2 3.5 1 8.5l73 106q4 6 12 6h59q8 0 12 -6l74 -106q2 -2 2 -6q0 -2 -2 -4t-6 -2h-42q-7 0 -12 7l-51 78q-1 2 -3 2t-3 -2l-53 -79q-4 -6 -12 -6h-41q-6 0 -8 3.5z" />
    <glyph glyph-name="ccircumflex" unicode="&#x109;" horiz-adv-x="461" 
d="M120 31.5q-47 39.5 -57 106.5q-6 51 -6 116q0 51 6 115q9 65 57 105t119 40t119.5 -38t56.5 -95l3 -21v-2q0 -4 -2.5 -6.5t-6.5 -2.5l-51 -3q-9 0 -11 9q0 9 -1 12q-5 35 -34.5 60t-72.5 25q-44 0 -72.5 -27t-33.5 -70t-5 -102q0 -60 5 -103q5 -44 33.5 -70t72.5 -26
t73.5 25t33.5 61l1 8q2 11 11 9l50 -4q9 -2 9 -9v-4q0 -4 -2 -12q-7 -59 -55.5 -97.5t-120.5 -38.5t-119 39.5zM121 579.5q-2 3.5 1 8.5l73 106q4 6 12 6h59q8 0 12 -6l74 -106q2 -2 2 -6q0 -2 -2 -4t-6 -2h-42q-7 0 -12 7l-51 78q-1 2 -3 2t-3 -2l-53 -79q-4 -6 -12 -6h-41
q-6 0 -8 3.5z" />
    <glyph glyph-name="Cdotaccent" unicode="&#x10a;" horiz-adv-x="526" 
d="M119.5 46q-55.5 54 -55.5 143v323q0 89 55.5 142.5t146.5 53.5q92 0 147.5 -53t55.5 -141v-9q0 -10 -10 -10l-51 -2q-10 0 -10 9v14q0 58 -36.5 94t-95.5 36t-95 -35.5t-36 -94.5v-332q0 -59 36 -94.5t95 -35.5t95.5 36t36.5 94v14q0 9 10 9l51 -3q10 0 10 -10v-7
q0 -88 -55.5 -141.5t-147.5 -53.5q-91 0 -146.5 54zM225.5 808q-15.5 16 -15.5 40q0 25 15.5 40.5t40.5 15.5q24 0 40 -15.5t16 -40.5q0 -24 -16 -40t-40 -16q-25 0 -40.5 16z" />
    <glyph glyph-name="cdotaccent" unicode="&#x10b;" horiz-adv-x="461" 
d="M120 31.5q-47 39.5 -57 106.5q-6 51 -6 116q0 51 6 115q9 65 57 105t119 40t119.5 -38t56.5 -95l3 -21v-2q0 -4 -2.5 -6.5t-6.5 -2.5l-51 -3q-9 0 -11 9q0 9 -1 12q-5 35 -34.5 60t-72.5 25q-44 0 -72.5 -27t-33.5 -70t-5 -102q0 -60 5 -103q5 -44 33.5 -70t72.5 -26
t73.5 25t33.5 61l1 8q2 11 11 9l50 -4q9 -2 9 -9v-4q0 -4 -2 -12q-7 -59 -55.5 -97.5t-120.5 -38.5t-119 39.5zM198.5 614q-15.5 16 -15.5 40q0 25 15.5 40.5t40.5 15.5q24 0 40 -15.5t16 -40.5q0 -24 -16 -40t-40 -16q-25 0 -40.5 16z" />
    <glyph glyph-name="Ccaron" unicode="&#x10c;" horiz-adv-x="526" 
d="M119.5 46q-55.5 54 -55.5 143v323q0 89 55.5 142.5t146.5 53.5q92 0 147.5 -53t55.5 -141v-9q0 -10 -10 -10l-51 -2q-10 0 -10 9v14q0 58 -36.5 94t-95.5 36t-95 -35.5t-36 -94.5v-332q0 -59 36 -94.5t95 -35.5t95.5 36t36.5 94v14q0 9 10 9l51 -3q10 0 10 -10v-7
q0 -88 -55.5 -141.5t-147.5 -53.5q-91 0 -146.5 54zM151 887q0 7 9 7h41q8 0 12 -6l53 -79q1 -1 3 -1t3 1l51 78q5 7 12 7h42q6 0 8 -3.5t-2 -8.5l-74 -106q-4 -6 -12 -6h-59q-8 0 -12 6l-73 106z" />
    <glyph glyph-name="ccaron" unicode="&#x10d;" horiz-adv-x="461" 
d="M120 31.5q-47 39.5 -57 106.5q-6 51 -6 116q0 51 6 115q9 65 57 105t119 40t119.5 -38t56.5 -95l3 -21v-2q0 -4 -2.5 -6.5t-6.5 -2.5l-51 -3q-9 0 -11 9q0 9 -1 12q-5 35 -34.5 60t-72.5 25q-44 0 -72.5 -27t-33.5 -70t-5 -102q0 -60 5 -103q5 -44 33.5 -70t72.5 -26
t73.5 25t33.5 61l1 8q2 11 11 9l50 -4q9 -2 9 -9v-4q0 -4 -2 -12q-7 -59 -55.5 -97.5t-120.5 -38.5t-119 39.5zM123 693q0 7 9 7h41q8 0 12 -6l53 -79q1 -1 3 -1t3 1l51 78q5 7 12 7h42q6 0 8 -3.5t-2 -8.5l-74 -106q-4 -6 -12 -6h-59q-8 0 -12 6l-73 106z" />
    <glyph glyph-name="Dcaron" unicode="&#x10e;" horiz-adv-x="542" 
d="M83 10v680q0 10 10 10h195q89 0 140.5 -51t51.5 -139v-320q0 -88 -51.5 -139t-140.5 -51h-195q-10 0 -10 10zM158 62h131q55 1 87 36.5t33 97.5v308q0 62 -32 98t-88 36h-131q-4 0 -4 -4v-568q0 -4 4 -4zM154 885q0 7 9 7h41q8 0 12 -6l53 -79q1 -1 3 -1t3 1l51 78
q5 7 12 7h42q6 0 8 -3.5t-2 -8.5l-74 -106q-4 -6 -12 -6h-59q-8 0 -12 6l-73 106z" />
    <glyph glyph-name="dcaron" unicode="&#x10f;" horiz-adv-x="484" 
d="M353 700h51q10 0 10 -10v-680q0 -10 -10 -10h-51q-10 0 -10 10v40q0 3 -1.5 3t-3.5 -2q-37 -59 -116 -59q-63 0 -100.5 33.5t-55.5 106.5q-13 55 -13 116q0 70 11 119q15 75 55.5 110.5t107.5 35.5q42 0 68.5 -14.5t42.5 -43.5q1 -3 3 -2.5t2 3.5v234q0 10 10 10z
M341 253q0 82 -16 129q-12 34 -32.5 52t-54.5 18q-66 0 -94 -68q-19 -50 -19 -131t16 -125q13 -37 35.5 -56t60.5 -19q35 0 56 19t33 55q15 45 15 126zM467 575.5q-2 3.5 1 8.5l61 109q5 7 12 7h43q6 0 7.5 -3.5t-1.5 -8.5l-69 -109q-5 -7 -12 -7h-34q-6 0 -8 3.5z" />
    <glyph glyph-name="Dcroat" unicode="&#x110;" horiz-adv-x="596" 
d="M483 649q52 -51 52 -139v-320q0 -88 -52 -139t-141 -51h-195q-10 0 -10 10v327q0 4 -4 4h-40q-10 0 -10 10v28q0 10 10 10h40q4 0 4 4v297q0 10 10 10h195q89 0 141 -51zM463 504q0 62 -32 98t-88 36h-131q-4 0 -4 -4v-241q0 -4 4 -4h97q10 0 10 -10v-28q0 -10 -10 -10
h-97q-4 0 -4 -4v-271q0 -4 4 -4h132q54 1 86.5 36.5t32.5 97.5v308z" />
    <glyph glyph-name="dcroat" unicode="&#x111;" horiz-adv-x="484" 
d="M474 607v-27q0 -10 -10 -10h-46q-4 0 -4 -4v-556q0 -10 -10 -10h-51q-10 0 -10 10v40q0 3 -1.5 3t-3.5 -2q-37 -59 -116 -59q-63 0 -100.5 33.5t-55.5 106.5q-13 55 -13 116q0 70 11 119q15 75 55.5 110.5t107.5 35.5q42 0 68.5 -14.5t42.5 -43.5q1 -3 3 -2.5t2 3.5v110
q0 4 -4 4h-147q-10 0 -10 10v27q0 10 10 10h147q4 0 4 4v69q0 10 10 10h51q10 0 10 -10v-69q0 -4 4 -4h46q10 0 10 -10zM341 253q0 82 -16 129q-12 34 -32.5 52t-54.5 18q-66 0 -94 -68q-19 -50 -19 -131t16 -125q13 -37 35.5 -56t60.5 -19q35 0 56 19t33 55q15 45 15 126z
" />
    <glyph glyph-name="Emacron" unicode="&#x112;" horiz-adv-x="517" 
d="M458 638h-300q-4 0 -4 -4v-248q0 -4 4 -4h202q10 0 10 -10v-42q0 -10 -10 -10h-202q-4 0 -4 -4v-250q0 -4 4 -4h300q10 0 10 -10v-42q0 -10 -10 -10h-365q-10 0 -10 10v680q0 10 10 10h365q10 0 10 -10v-42q0 -10 -10 -10zM156 799v31q0 10 10 10h215q10 0 10 -10v-31
q0 -10 -10 -10h-215q-10 0 -10 10z" />
    <glyph glyph-name="emacron" unicode="&#x113;" horiz-adv-x="470" 
d="M306.5 73.5q27.5 19.5 39.5 52.5q3 9 12 7l46 -9q5 -1 6.5 -4.5t0.5 -7.5q-17 -56 -62 -88t-109 -32q-73 0 -119 38.5t-57 104.5q-4 25 -5 59t-1 56.5v31.5q0 51 4 83q8 67 55.5 108t119.5 41q77 0 125 -44t54 -116q3 -33 3 -121q0 -10 -10 -10h-276q-4 0 -4 -4
q0 -31 2 -69q5 -43 34.5 -69.5t75.5 -26.5q38 0 65.5 19.5zM164.5 425.5q-28.5 -26.5 -33.5 -69.5q-2 -42 -2 -70q0 -4 4 -4h211q4 0 4 4q0 29 -4 69q-5 43 -33.5 70t-72.5 27q-45 0 -73.5 -26.5zM116 631v32q0 10 10 10h216q10 0 10 -10v-32q0 -10 -10 -10h-216
q-10 0 -10 10z" />
    <glyph glyph-name="Edotaccent" unicode="&#x116;" horiz-adv-x="517" 
d="M458 638h-300q-4 0 -4 -4v-248q0 -4 4 -4h202q10 0 10 -10v-42q0 -10 -10 -10h-202q-4 0 -4 -4v-250q0 -4 4 -4h300q10 0 10 -10v-42q0 -10 -10 -10h-365q-10 0 -10 10v680q0 10 10 10h365q10 0 10 -10v-42q0 -10 -10 -10zM233.5 808q-15.5 16 -15.5 40q0 25 15.5 40.5
t40.5 15.5q24 0 40 -15.5t16 -40.5q0 -24 -16 -40t-40 -16q-25 0 -40.5 16z" />
    <glyph glyph-name="edotaccent" unicode="&#x117;" horiz-adv-x="470" 
d="M306.5 73.5q27.5 19.5 39.5 52.5q3 9 12 7l46 -9q5 -1 6.5 -4.5t0.5 -7.5q-17 -56 -62 -88t-109 -32q-73 0 -119 38.5t-57 104.5q-4 25 -5 59t-1 56.5v31.5q0 51 4 83q8 67 55.5 108t119.5 41q77 0 125 -44t54 -116q3 -33 3 -121q0 -10 -10 -10h-276q-4 0 -4 -4
q0 -31 2 -69q5 -43 34.5 -69.5t75.5 -26.5q38 0 65.5 19.5zM164.5 425.5q-28.5 -26.5 -33.5 -69.5q-2 -42 -2 -70q0 -4 4 -4h211q4 0 4 4q0 29 -4 69q-5 43 -33.5 70t-72.5 27q-45 0 -73.5 -26.5zM194.5 614q-15.5 16 -15.5 40q0 25 15.5 40.5t40.5 15.5q24 0 40 -15.5
t16 -40.5q0 -24 -16 -40t-40 -16q-25 0 -40.5 16z" />
    <glyph glyph-name="Eogonek" unicode="&#x118;" horiz-adv-x="517" 
d="M458 638h-300q-4 0 -4 -4v-248q0 -4 4 -4h202q10 0 10 -10v-42q0 -10 -10 -10h-202q-4 0 -4 -4v-250q0 -4 4 -4h300q10 0 10 -10v-42q0 -10 -10 -10h-154q-3 0 -5 -2q-51 -46 -51 -86q0 -24 12 -35.5t32 -11.5q12 0 18 2l4 1q6 0 8 -8l4 -22v-2q0 -7 -8 -10
q-17 -5 -36 -5q-35 0 -60 19.5t-25 63.5q0 50 45 91q2 2 1.5 3.5t-2.5 1.5h-148q-10 0 -10 10v680q0 10 10 10h365q10 0 10 -10v-42q0 -10 -10 -10z" />
    <glyph glyph-name="eogonek" unicode="&#x119;" horiz-adv-x="470" 
d="M306.5 73.5q27.5 19.5 39.5 52.5q3 9 12 7l46 -9q5 -1 6.5 -4.5t0.5 -7.5q-16 -51 -55 -82.5t-94 -36.5q-3 0 -5 -2q-45 -45 -45 -82q0 -25 12 -36.5t31 -11.5q12 0 18 2l4 1q6 0 8 -8l4 -23v-2q0 -7 -8 -9q-18 -5 -36 -5q-35 0 -59.5 19t-24.5 63q0 49 43 91q5 3 -1 5
q-58 10 -94 46.5t-45 93.5q-4 25 -5 59t-1 56.5v31.5q0 51 4 83q8 67 55.5 108t119.5 41q77 0 125 -44t54 -116q3 -33 3 -121q0 -10 -10 -10h-276q-4 0 -4 -4q0 -31 2 -69q5 -43 34.5 -69.5t75.5 -26.5q38 0 65.5 19.5zM164.5 425.5q-28.5 -26.5 -33.5 -69.5q-2 -42 -2 -70
q0 -4 4 -4h211q4 0 4 4q0 29 -4 69q-5 43 -33.5 70t-72.5 27q-45 0 -73.5 -26.5z" />
    <glyph glyph-name="Ecaron" unicode="&#x11a;" horiz-adv-x="517" 
d="M458 638h-300q-4 0 -4 -4v-248q0 -4 4 -4h202q10 0 10 -10v-42q0 -10 -10 -10h-202q-4 0 -4 -4v-250q0 -4 4 -4h300q10 0 10 -10v-42q0 -10 -10 -10h-365q-10 0 -10 10v680q0 10 10 10h365q10 0 10 -10v-42q0 -10 -10 -10zM158 887q0 7 9 7h41q8 0 12 -6l53 -79
q1 -1 3 -1t3 1l51 78q5 7 12 7h42q6 0 8 -3.5t-2 -8.5l-74 -106q-4 -6 -12 -6h-59q-8 0 -12 6l-73 106z" />
    <glyph glyph-name="ecaron" unicode="&#x11b;" horiz-adv-x="470" 
d="M306.5 73.5q27.5 19.5 39.5 52.5q3 9 12 7l46 -9q5 -1 6.5 -4.5t0.5 -7.5q-17 -56 -62 -88t-109 -32q-73 0 -119 38.5t-57 104.5q-4 25 -5 59t-1 56.5v31.5q0 51 4 83q8 67 55.5 108t119.5 41q77 0 125 -44t54 -116q3 -33 3 -121q0 -10 -10 -10h-276q-4 0 -4 -4
q0 -31 2 -69q5 -43 34.5 -69.5t75.5 -26.5q38 0 65.5 19.5zM164.5 425.5q-28.5 -26.5 -33.5 -69.5q-2 -42 -2 -70q0 -4 4 -4h211q4 0 4 4q0 29 -4 69q-5 43 -33.5 70t-72.5 27q-45 0 -73.5 -26.5zM119 691q0 7 9 7h41q8 0 12 -6l53 -79q1 -1 3 -1t3 1l51 78q5 7 12 7h42
q6 0 8 -3.5t-2 -8.5l-74 -106q-4 -6 -12 -6h-59q-8 0 -12 6l-73 106z" />
    <glyph glyph-name="Gcircumflex" unicode="&#x11c;" horiz-adv-x="532" 
d="M119.5 45q-55.5 53 -55.5 141v328q0 88 55.5 141t146.5 53q60 0 105.5 -24t71 -67t25.5 -99v-28q0 -10 -10 -10h-51q-10 0 -10 10v28q0 57 -36 92.5t-95 35.5t-95 -35.5t-36 -94.5v-332q0 -58 36.5 -94t95.5 -36t94.5 34t35.5 92v109q0 4 -4 4h-117q-10 0 -10 10v42
q0 10 10 10h182q10 0 10 -10v-156q0 -91 -55 -144t-147 -53q-91 0 -146.5 53zM148 774.5q-2 3.5 1 8.5l73 106q4 6 12 6h59q8 0 12 -6l74 -106q2 -2 2 -6q0 -2 -2 -4t-6 -2h-42q-7 0 -12 7l-51 78q-1 2 -3 2t-3 -2l-53 -79q-4 -6 -12 -6h-41q-6 0 -8 3.5z" />
    <glyph glyph-name="gcircumflex" unicode="&#x11d;" horiz-adv-x="474" 
d="M352 506h51q10 0 10 -10v-482q0 -226 -247 -215q-10 1 -10 11l1 45q0 5 3 7.5t7 1.5q94 -3 134.5 34.5t40.5 119.5v33q0 2 -1.5 3t-3.5 -1q-39 -56 -116 -56q-64 0 -107 38.5t-53 104.5q-6 44 -6 113q0 75 7 118q8 65 50.5 104t106.5 39q78 0 118 -55q2 -2 3.5 -1.5
t1.5 2.5v36q0 10 10 10zM342 254q0 60 -3 102q-4 42 -31.5 69t-70.5 27t-71.5 -27t-34.5 -69q-4 -36 -4 -102q0 -50 4 -100q5 -42 34 -69t72 -27t70.5 27t31.5 69q3 39 3 100zM124 579.5q-2 3.5 1 8.5l73 106q4 6 12 6h59q8 0 12 -6l74 -106q2 -2 2 -6q0 -2 -2 -4t-6 -2h-42
q-7 0 -12 7l-51 78q-1 2 -3 2t-3 -2l-53 -79q-4 -6 -12 -6h-41q-6 0 -8 3.5z" />
    <glyph glyph-name="Gbreve" unicode="&#x11e;" horiz-adv-x="532" 
d="M119.5 45q-55.5 53 -55.5 141v328q0 88 55.5 141t146.5 53q60 0 105.5 -24t71 -67t25.5 -99v-28q0 -10 -10 -10h-51q-10 0 -10 10v28q0 57 -36 92.5t-95 35.5t-95 -35.5t-36 -94.5v-332q0 -58 36.5 -94t95.5 -36t94.5 34t35.5 92v109q0 4 -4 4h-117q-10 0 -10 10v42
q0 10 10 10h182q10 0 10 -10v-156q0 -91 -55 -144t-147 -53q-91 0 -146.5 53zM188.5 782.5q-31.5 27.5 -36.5 70.5q0 10 10 10h26q10 0 11 -10q3 -25 22 -41.5t45 -16.5t44.5 16.5t21.5 41.5q1 10 11 10h27q10 0 10 -10q-4 -43 -36 -70.5t-78 -27.5t-77.5 27.5z" />
    <glyph glyph-name="gbreve" unicode="&#x11f;" horiz-adv-x="474" 
d="M352 506h51q10 0 10 -10v-482q0 -226 -247 -215q-10 1 -10 11l1 45q0 5 3 7.5t7 1.5q94 -3 134.5 34.5t40.5 119.5v33q0 2 -1.5 3t-3.5 -1q-39 -56 -116 -56q-64 0 -107 38.5t-53 104.5q-6 44 -6 113q0 75 7 118q8 65 50.5 104t106.5 39q78 0 118 -55q2 -2 3.5 -1.5
t1.5 2.5v36q0 10 10 10zM342 254q0 60 -3 102q-4 42 -31.5 69t-70.5 27t-71.5 -27t-34.5 -69q-4 -36 -4 -102q0 -50 4 -100q5 -42 34 -69t72 -27t70.5 27t31.5 69q3 39 3 100zM164.5 587.5q-31.5 27.5 -36.5 70.5q0 10 10 10h26q10 0 11 -10q3 -25 22 -41.5t45 -16.5
t44.5 16.5t21.5 41.5q1 10 11 10h27q10 0 10 -10q-4 -43 -36 -70.5t-78 -27.5t-77.5 27.5z" />
    <glyph glyph-name="Gdotaccent" unicode="&#x120;" horiz-adv-x="532" 
d="M119.5 45q-55.5 53 -55.5 141v328q0 88 55.5 141t146.5 53q60 0 105.5 -24t71 -67t25.5 -99v-28q0 -10 -10 -10h-51q-10 0 -10 10v28q0 57 -36 92.5t-95 35.5t-95 -35.5t-36 -94.5v-332q0 -58 36.5 -94t95.5 -36t94.5 34t35.5 92v109q0 4 -4 4h-117q-10 0 -10 10v42
q0 10 10 10h182q10 0 10 -10v-156q0 -91 -55 -144t-147 -53q-91 0 -146.5 53zM225.5 809q-15.5 16 -15.5 40q0 25 15.5 40.5t40.5 15.5q24 0 40 -15.5t16 -40.5q0 -24 -16 -40t-40 -16q-25 0 -40.5 16z" />
    <glyph glyph-name="gdotaccent" unicode="&#x121;" horiz-adv-x="474" 
d="M352 506h51q10 0 10 -10v-482q0 -226 -247 -215q-10 1 -10 11l1 45q0 5 3 7.5t7 1.5q94 -3 134.5 34.5t40.5 119.5v33q0 2 -1.5 3t-3.5 -1q-39 -56 -116 -56q-64 0 -107 38.5t-53 104.5q-6 44 -6 113q0 75 7 118q8 65 50.5 104t106.5 39q78 0 118 -55q2 -2 3.5 -1.5
t1.5 2.5v36q0 10 10 10zM342 254q0 60 -3 102q-4 42 -31.5 69t-70.5 27t-71.5 -27t-34.5 -69q-4 -36 -4 -102q0 -50 4 -100q5 -42 34 -69t72 -27t70.5 27t31.5 69q3 39 3 100zM201.5 614q-15.5 16 -15.5 40q0 25 15.5 40.5t40.5 15.5q24 0 40 -15.5t16 -40.5q0 -24 -16 -40
t-40 -16q-25 0 -40.5 16z" />
    <glyph glyph-name="uni0122" unicode="&#x122;" horiz-adv-x="532" 
d="M119.5 45q-55.5 53 -55.5 141v328q0 88 55.5 141t146.5 53q60 0 105.5 -24t71 -67t25.5 -99v-28q0 -10 -10 -10h-51q-10 0 -10 10v28q0 57 -36 92.5t-95 35.5t-95 -35.5t-36 -94.5v-332q0 -58 36.5 -94t95.5 -36t94.5 34t35.5 92v109q0 4 -4 4h-117q-10 0 -10 10v42
q0 10 10 10h182q10 0 10 -10v-156q0 -91 -55 -144t-147 -53q-91 0 -146.5 53zM205 -194.5q-2 3.5 1 8.5l61 109q5 7 12 7h43q6 0 7.5 -3.5t-1.5 -8.5l-69 -109q-5 -7 -12 -7h-34q-6 0 -8 3.5z" />
    <glyph glyph-name="uni0123" unicode="&#x123;" horiz-adv-x="474" 
d="M301 692.5q2 -3.5 -1 -8.5l-61 -109q-5 -7 -12 -7h-43q-6 0 -7.5 3.5t1.5 8.5l69 109q5 7 12 7h34q6 0 8 -3.5zM352 506h51q10 0 10 -10v-482q0 -226 -247 -215q-10 1 -10 11l1 45q0 5 3 7.5t7 1.5q94 -3 134.5 34.5t40.5 119.5v33q0 2 -1.5 3t-3.5 -1q-39 -56 -116 -56
q-64 0 -107 38.5t-53 104.5q-6 44 -6 113q0 75 7 118q8 65 50.5 104t106.5 39q78 0 118 -55q2 -2 3.5 -1.5t1.5 2.5v36q0 10 10 10zM342 254q0 60 -3 102q-4 42 -31.5 69t-70.5 27t-71.5 -27t-34.5 -69q-4 -36 -4 -102q0 -50 4 -100q5 -42 34 -69t72 -27t70.5 27t31.5 69
q3 39 3 100z" />
    <glyph glyph-name="Hcircumflex" unicode="&#x124;" horiz-adv-x="563" 
d="M420 700h51q10 0 10 -10v-680q0 -10 -10 -10h-51q-10 0 -10 10v306q0 4 -4 4h-248q-4 0 -4 -4v-306q0 -10 -10 -10h-51q-10 0 -10 10v680q0 10 10 10h51q10 0 10 -10v-304q0 -4 4 -4h248q4 0 4 4v304q0 10 10 10zM164 774.5q-2 3.5 1 8.5l73 106q4 6 12 6h59q8 0 12 -6
l74 -106q2 -2 2 -6q0 -2 -2 -4t-6 -2h-42q-7 0 -12 7l-51 78q-1 2 -3 2t-3 -2l-53 -79q-4 -6 -12 -6h-41q-6 0 -8 3.5z" />
    <glyph glyph-name="hcircumflex" unicode="&#x125;" horiz-adv-x="482" 
d="M376.5 468.5q40.5 -44.5 40.5 -121.5v-337q0 -10 -10 -10h-51q-10 0 -10 10v327q0 52 -27 83t-74 31t-75.5 -31.5t-28.5 -84.5v-325q0 -10 -10 -10h-51q-10 0 -10 10v680q0 10 10 10h51q10 0 10 -10v-233q0 -2 1.5 -3t3.5 1q39 58 120 58q70 0 110.5 -44.5zM130 754.5
q-2 3.5 1 8.5l73 106q4 6 12 6h59q8 0 12 -6l74 -106q2 -2 2 -6q0 -2 -2 -4t-6 -2h-42q-7 0 -12 7l-51 78q-1 2 -3 2t-3 -2l-53 -79q-4 -6 -12 -6h-41q-6 0 -8 3.5z" />
    <glyph glyph-name="Hbar" unicode="&#x126;" horiz-adv-x="563" 
d="M536 550v-32q0 -10 -10 -10h-41q-4 0 -4 -4v-494q0 -10 -10 -10h-51q-10 0 -10 10v306q0 4 -4 4h-248q-4 0 -4 -4v-306q0 -10 -10 -10h-51q-10 0 -10 10v494q0 4 -4 4h-40q-10 0 -10 10v32q0 10 10 10h40q4 0 4 4v126q0 10 10 10h51q10 0 10 -10v-126q0 -4 4 -4h248
q4 0 4 4v126q0 10 10 10h51q10 0 10 -10v-126q0 -4 4 -4h41q10 0 10 -10zM410 386v118q0 4 -4 4h-248q-4 0 -4 -4v-118q0 -4 4 -4h248q4 0 4 4z" />
    <glyph glyph-name="hbar" unicode="&#x127;" horiz-adv-x="482" 
d="M376.5 468.5q40.5 -44.5 40.5 -121.5v-337q0 -10 -10 -10h-51q-10 0 -10 10v327q0 52 -27 83t-74 31t-75.5 -31.5t-28.5 -84.5v-325q0 -10 -10 -10h-51q-10 0 -10 10v542q0 4 -4 4h-49q-10 0 -10 10v27q0 10 10 10h49q4 0 4 4v83q0 10 10 10h51q10 0 10 -10v-83
q0 -4 4 -4h144q10 0 10 -10v-27q0 -10 -10 -10h-144q-4 0 -4 -4v-95q0 -2 1.5 -3t3.5 1q39 58 120 58q70 0 110.5 -44.5z" />
    <glyph glyph-name="Itilde" unicode="&#x128;" horiz-adv-x="237" 
d="M83 10v680q0 10 10 10h51q10 0 10 -10v-680q0 -10 -10 -10h-51q-10 0 -10 10zM151.5 806q-13.5 6 -28.5 16q-4 2 -13.5 8.5t-17.5 9t-16 2.5q-16 0 -27 -5.5t-22 -20.5q-6 -9 -14 -3l-19 15q-7 7 -3 14q29 51 81 51q17 0 30.5 -6t30.5 -17q3 -2 13 -8.5t18.5 -9.5
t16.5 -3q29 0 47 29q6 9 14 3l19 -14q4 -4 4 -8t-3 -10q-15 -25 -37.5 -37t-44.5 -12q-15 0 -28.5 6z" />
    <glyph glyph-name="itilde" unicode="&#x129;" horiz-adv-x="190" 
d="M60 10v486q0 10 10 10h51q10 0 10 -10v-486q0 -10 -10 -10h-51q-10 0 -10 10zM127.5 612q-13.5 6 -28.5 16q-4 2 -13.5 8.5t-17.5 9t-16 2.5q-16 0 -27 -5.5t-22 -20.5q-6 -9 -14 -3l-19 15q-7 7 -3 14q29 51 81 51q17 0 30.5 -6t30.5 -17q3 -2 13 -8.5t18.5 -9.5
t16.5 -3q29 0 47 29q6 9 14 3l19 -14q4 -4 4 -8t-3 -10q-15 -25 -37.5 -37t-44.5 -12q-15 0 -28.5 6z" />
    <glyph glyph-name="Imacron" unicode="&#x12a;" horiz-adv-x="237" 
d="M83 10v680q0 10 10 10h51q10 0 10 -10v-680q0 -10 -10 -10h-51q-10 0 -10 10zM1 799v31q0 10 10 10h215q10 0 10 -10v-31q0 -10 -10 -10h-215q-10 0 -10 10z" />
    <glyph glyph-name="imacron" unicode="&#x12b;" horiz-adv-x="190" 
d="M60 10v486q0 10 10 10h51q10 0 10 -10v-486q0 -10 -10 -10h-51q-10 0 -10 10zM-23 605v31q0 10 10 10h215q10 0 10 -10v-31q0 -10 -10 -10h-215q-10 0 -10 10z" />
    <glyph glyph-name="ibreve" unicode="&#x12d;" horiz-adv-x="190" 
d="M60 10v486q0 10 10 10h51q10 0 10 -10v-486q0 -10 -10 -10h-51q-10 0 -10 10zM18 608.5q-32 27.5 -36 69.5q0 10 10 10h24q10 0 10 -10q4 -25 23.5 -41.5t46.5 -16.5q26 0 45 16.5t23 41.5q1 10 11 10h25q10 0 9 -10q-4 -42 -35.5 -69.5t-77.5 -27.5t-78 27.5z" />
    <glyph glyph-name="Iogonek" unicode="&#x12e;" horiz-adv-x="211" 
d="M71 10v680q0 10 10 10h51q10 0 10 -10v-680q0 -10 -10 -10h-51q-10 0 -10 10zM159 -173q0 -6 -8 -9q-20 -4 -34 -4q-36 0 -60.5 19t-24.5 64q0 53 51 96l2 2t1 2q4 3 11 3h27q8 0 8 -5q0 -4 -4 -7q-45 -42 -45 -81q0 -9 1 -13q6 -36 42 -36q12 0 18 2l3 1q7 0 9 -9l3 -22
v-3z" />
    <glyph glyph-name="iogonek" unicode="&#x12f;" horiz-adv-x="254" 
d="M102 10v486q0 10 10 10h51q10 0 10 -10v-486q0 -10 -10 -10h-51q-10 0 -10 10zM97.5 614q-15.5 16 -15.5 40q0 25 15.5 40.5t40.5 15.5q24 0 40 -15.5t16 -40.5q0 -24 -16 -40t-40 -16q-25 0 -40.5 16zM190 -173q0 -6 -8 -9q-20 -4 -34 -4q-36 0 -60.5 19t-24.5 64
q0 53 51 96l2 2t1 2q4 3 11 3h27q8 0 8 -5q0 -4 -4 -7q-45 -42 -45 -81q0 -9 1 -13q6 -36 42 -36q12 0 18 2l3 1q7 0 9 -9l3 -22v-3z" />
    <glyph glyph-name="Idotaccent" unicode="&#x130;" horiz-adv-x="237" 
d="M83 10v680q0 10 10 10h51q10 0 10 -10v-680q0 -10 -10 -10h-51q-10 0 -10 10zM78.5 808q-15.5 16 -15.5 40q0 25 15.5 40.5t40.5 15.5q24 0 40 -15.5t16 -40.5q0 -24 -16 -40t-40 -16q-25 0 -40.5 16z" />
    <glyph glyph-name="dotlessi" unicode="&#x131;" horiz-adv-x="190" 
d="M60 10v486q0 10 10 10h51q10 0 10 -10v-486q0 -10 -10 -10h-51q-10 0 -10 10z" />
    <glyph glyph-name="ij" unicode="&#x133;" horiz-adv-x="450" 
d="M75.5 614q-15.5 16 -15.5 40q0 25 15.5 40.5t40.5 15.5q24 0 40 -15.5t16 -40.5q0 -24 -16 -40t-40 -16q-25 0 -40.5 16zM79 10v486q0 10 10 10h51q10 0 10 -10v-486q0 -10 -10 -10h-51q-10 0 -10 10zM295 614q-16 16 -16 40q0 25 16 40.5t40 15.5t40 -15.5t16 -40.5
q0 -24 -16 -40t-40 -16t-40 16zM196 -198v42q0 10 10 10q47 1 70.5 27t23.5 75l-1 540q0 10 10 10h51q10 0 10 -10v-540q0 -84 -37 -124t-127 -40q-10 0 -10 10z" />
    <glyph glyph-name="Jcircumflex" unicode="&#x134;" horiz-adv-x="501" 
d="M79.5 44q-53.5 52 -53.5 137v80q0 10 10 10h51q10 0 10 -10v-81q0 -57 34 -91.5t91 -34.5q56 0 91 35t35 91v510q0 10 10 10h50q10 0 10 -10v-509q0 -85 -54 -137t-142 -52q-89 0 -142.5 52zM265 774.5q-2 3.5 1 8.5l73 106q4 6 12 6h59q8 0 12 -6l74 -106q2 -2 2 -6
q0 -2 -2 -4t-6 -2h-42q-7 0 -12 7l-51 78q-1 2 -3 2t-3 -2l-53 -79q-4 -6 -12 -6h-41q-6 0 -8 3.5z" />
    <glyph glyph-name="jcircumflex" unicode="&#x135;" horiz-adv-x="220" 
d="M-32 -198v42q0 10 10 10q47 1 70.5 27t23.5 75l-1 540q0 10 10 10h52q10 0 10 -10v-540q0 -84 -37.5 -124t-127.5 -40q-10 0 -10 10zM-10 579.5q-2 3.5 1 8.5l73 106q4 6 12 6h59q8 0 12 -6l74 -106q2 -2 2 -6q0 -2 -2 -4t-6 -2h-42q-7 0 -12 7l-51 78q-1 2 -3 2t-3 -2
l-53 -79q-4 -6 -12 -6h-41q-6 0 -8 3.5z" />
    <glyph glyph-name="uni0136" unicode="&#x136;" horiz-adv-x="531" 
d="M83 10v680q0 10 10 10h51q10 0 10 -10v-332q0 -2 2 -2.5t3 1.5l254 337q4 6 13 6h56q6 0 8 -3.5t-2 -8.5l-200 -274q-1 -3 0 -6l218 -396q2 -4 2 -6q0 -6 -9 -6h-58q-9 0 -12 7l-190 345q-2 5 -5 0l-78 -99q-2 -2 -2 -5v-238q0 -10 -10 -10h-51q-10 0 -10 10zM224 -186.5
q-2 3.5 1 8.5l61 109q5 7 12 7h43q6 0 7.5 -3.5t-1.5 -8.5l-69 -109q-5 -7 -12 -7h-34q-6 0 -8 3.5z" />
    <glyph glyph-name="uni0137" unicode="&#x137;" horiz-adv-x="453" 
d="M70 10v680q0 10 10 10h51q10 0 10 -10v-406q0 -2 2 -3t3 1l181 218q5 6 12 6h57q6 0 8 -3.5t-2 -8.5l-114 -142q-2 -3 -1 -5l135 -335l1 -4q0 -8 -9 -8h-53q-8 0 -11 8l-109 286q-1 2 -3 2.5t-3 -1.5l-92 -111q-2 -4 -2 -5v-169q0 -10 -10 -10h-51q-10 0 -10 10z
M181 -186.5q-2 3.5 1 8.5l61 109q5 7 12 7h43q6 0 7.5 -3.5t-1.5 -8.5l-69 -109q-5 -7 -12 -7h-34q-6 0 -8 3.5z" />
    <glyph glyph-name="Lacute" unicode="&#x139;" horiz-adv-x="482" 
d="M83 10v680q0 10 10 10h51q10 0 10 -10v-624q0 -4 4 -4h291q10 0 10 -10v-42q0 -10 -10 -10h-356q-10 0 -10 10zM76 769.5q-2 3.5 1 8.5l61 109q5 7 12 7h43q6 0 7.5 -3.5t-1.5 -8.5l-69 -109q-5 -7 -12 -7h-34q-6 0 -8 3.5z" />
    <glyph glyph-name="lacute" unicode="&#x13a;" horiz-adv-x="206" 
d="M67 10v680q0 10 10 10h51q10 0 10 -10v-680q0 -10 -10 -10h-51q-10 0 -10 10zM62 769.5q-2 3.5 1 8.5l61 109q5 7 12 7h43q6 0 7.5 -3.5t-1.5 -8.5l-69 -109q-5 -7 -12 -7h-34q-6 0 -8 3.5z" />
    <glyph glyph-name="uni013B" unicode="&#x13b;" horiz-adv-x="482" 
d="M83 10v680q0 10 10 10h51q10 0 10 -10v-624q0 -4 4 -4h291q10 0 10 -10v-42q0 -10 -10 -10h-356q-10 0 -10 10zM183 -186.5q-2 3.5 1 8.5l61 109q5 7 12 7h43q6 0 7.5 -3.5t-1.5 -8.5l-69 -109q-5 -7 -12 -7h-34q-6 0 -8 3.5z" />
    <glyph glyph-name="uni013C" unicode="&#x13c;" horiz-adv-x="206" 
d="M67 10v680q0 10 10 10h51q10 0 10 -10v-680q0 -10 -10 -10h-51q-10 0 -10 10zM1 -186.5q-2 3.5 1 8.5l61 109q5 7 12 7h43q6 0 7.5 -3.5t-1.5 -8.5l-69 -109q-5 -7 -12 -7h-34q-6 0 -8 3.5z" />
    <glyph glyph-name="Lcaron" unicode="&#x13d;" horiz-adv-x="483" 
d="M83 10v680q0 10 10 10h51q10 0 10 -10v-624q0 -4 4 -4h291q10 0 10 -10v-42q0 -10 -10 -10h-356q-10 0 -10 10zM226 575.5q-2 3.5 1 8.5l61 109q5 7 12 7h43q6 0 7.5 -3.5t-1.5 -8.5l-69 -109q-5 -7 -12 -7h-34q-6 0 -8 3.5z" />
    <glyph glyph-name="lcaron" unicode="&#x13e;" horiz-adv-x="346" 
d="M67 10v680q0 10 10 10h51q10 0 10 -10v-680q0 -10 -10 -10h-51q-10 0 -10 10zM182 575.5q-2 3.5 1 8.5l61 109q5 7 12 7h43q6 0 7.5 -3.5t-1.5 -8.5l-69 -109q-5 -7 -12 -7h-34q-6 0 -8 3.5z" />
    <glyph glyph-name="ldot" unicode="&#x140;" horiz-adv-x="247" 
d="M87 10v680q0 10 10 10h51q10 0 10 -10v-680q0 -10 -10 -10h-51q-10 0 -10 10zM83.5 808q-15.5 16 -15.5 40q0 25 15.5 40.5t40.5 15.5q24 0 40 -15.5t16 -40.5q0 -24 -16 -40t-40 -16q-25 0 -40.5 16z" />
    <glyph glyph-name="Lslash" unicode="&#x141;" horiz-adv-x="511" 
d="M187 62h291q10 0 10 -10v-42q0 -10 -10 -10h-356q-10 0 -10 10v235q0 2 -1.5 3t-3.5 -1l-85 -63q-2 -2 -6 -2q-5 0 -8 4l-23 28q-2 2 -2 6q0 5 4 8l123 91q2 2 2 5v366q0 10 10 10h51q10 0 10 -10v-310q0 -2 1.5 -3t3.5 1l191 142q2 2 6 2q5 0 8 -4l23 -28q3 -3 3 -7
t-4 -7l-230 -170q-2 -2 -2 -5v-235q0 -4 4 -4z" />
    <glyph glyph-name="lslash" unicode="&#x142;" horiz-adv-x="317" 
d="M294 399q0 -6 -5 -9l-97 -57q-3 -1 -3 -5v-318q0 -10 -10 -10h-51q-10 0 -10 10v273q0 2 -1.5 3t-3.5 0l-58 -34q-2 -1 -5 -1q-6 0 -9 5l-17 30q-1 2 -1 5q0 6 5 9l87 51q3 2 3 5v334q0 10 10 10h51q10 0 10 -10v-289q0 -2 1.5 -3t3.5 0l67 40q4 2 6 2q5 0 8 -6l18 -30
q1 -2 1 -5z" />
    <glyph glyph-name="Nacute" unicode="&#x143;" horiz-adv-x="585" 
d="M441 700h51q10 0 10 -10v-680q0 -10 -10 -10h-54q-9 0 -12 7l-268 535q-2 2 -3.5 2t-1.5 -3l1 -531q0 -10 -10 -10h-51q-10 0 -10 10v680q0 10 10 10h54q9 0 12 -7l268 -537q2 -2 3.5 -2t1.5 3l-1 533q0 10 10 10zM250 773.5q-2 3.5 1 8.5l61 109q5 7 12 7h43
q6 0 7.5 -3.5t-1.5 -8.5l-69 -109q-5 -7 -12 -7h-34q-6 0 -8 3.5z" />
    <glyph glyph-name="nacute" unicode="&#x144;" horiz-adv-x="482" 
d="M376.5 468.5q40.5 -44.5 40.5 -121.5v-337q0 -10 -10 -10h-51q-10 0 -10 10v327q0 52 -27 83t-74 31t-75.5 -31.5t-28.5 -84.5v-325q0 -10 -10 -10h-51q-10 0 -10 10v486q0 10 10 10h51q10 0 10 -10v-39q0 -2 1.5 -3t3.5 1q39 58 120 58q70 0 110.5 -44.5zM202 575.5
q-2 3.5 1 8.5l61 109q5 7 12 7h43q6 0 7.5 -3.5t-1.5 -8.5l-69 -109q-5 -7 -12 -7h-34q-6 0 -8 3.5z" />
    <glyph glyph-name="uni0145" unicode="&#x145;" horiz-adv-x="585" 
d="M441 700h51q10 0 10 -10v-680q0 -10 -10 -10h-54q-9 0 -12 7l-268 535q-2 2 -3.5 2t-1.5 -3l1 -531q0 -10 -10 -10h-51q-10 0 -10 10v680q0 10 10 10h54q9 0 12 -7l268 -537q2 -2 3.5 -2t1.5 3l-1 533q0 10 10 10zM234 -186.5q-2 3.5 1 8.5l61 109q5 7 12 7h43
q6 0 7.5 -3.5t-1.5 -8.5l-69 -109q-5 -7 -12 -7h-34q-6 0 -8 3.5z" />
    <glyph glyph-name="uni0146" unicode="&#x146;" horiz-adv-x="482" 
d="M376.5 468.5q40.5 -44.5 40.5 -121.5v-337q0 -10 -10 -10h-51q-10 0 -10 10v327q0 52 -27 83t-74 31t-75.5 -31.5t-28.5 -84.5v-325q0 -10 -10 -10h-51q-10 0 -10 10v486q0 10 10 10h51q10 0 10 -10v-39q0 -2 1.5 -3t3.5 1q39 58 120 58q70 0 110.5 -44.5zM189 -186.5
q-2 3.5 1 8.5l61 109q5 7 12 7h43q6 0 7.5 -3.5t-1.5 -8.5l-69 -109q-5 -7 -12 -7h-34q-6 0 -8 3.5z" />
    <glyph glyph-name="Ncaron" unicode="&#x147;" horiz-adv-x="585" 
d="M441 700h51q10 0 10 -10v-680q0 -10 -10 -10h-54q-9 0 -12 7l-268 535q-2 2 -3.5 2t-1.5 -3l1 -531q0 -10 -10 -10h-51q-10 0 -10 10v680q0 10 10 10h54q9 0 12 -7l268 -537q2 -2 3.5 -2t1.5 3l-1 533q0 10 10 10zM176 891q0 7 9 7h41q8 0 12 -6l53 -79q1 -1 3 -1t3 1
l51 78q5 7 12 7h42q6 0 8 -3.5t-2 -8.5l-74 -106q-4 -6 -12 -6h-59q-8 0 -12 6l-73 106z" />
    <glyph glyph-name="ncaron" unicode="&#x148;" horiz-adv-x="482" 
d="M376.5 468.5q40.5 -44.5 40.5 -121.5v-337q0 -10 -10 -10h-51q-10 0 -10 10v327q0 52 -27 83t-74 31t-75.5 -31.5t-28.5 -84.5v-325q0 -10 -10 -10h-51q-10 0 -10 10v486q0 10 10 10h51q10 0 10 -10v-39q0 -2 1.5 -3t3.5 1q39 58 120 58q70 0 110.5 -44.5zM129 693
q0 7 9 7h41q8 0 12 -6l53 -79q1 -1 3 -1t3 1l51 78q5 7 12 7h42q6 0 8 -3.5t-2 -8.5l-74 -106q-4 -6 -12 -6h-59q-8 0 -12 6l-73 106z" />
    <glyph glyph-name="Eng" unicode="&#x14a;" horiz-adv-x="585" 
d="M441 700h51q10 0 10 -10v-690q-1 -56 -12.5 -89t-43.5 -50.5t-93 -17.5q-10 0 -10 10v42q0 10 10 10q46 1 60.5 23.5t14.5 72.5q0 4 -1 5l-269 537q-2 2 -3.5 1.5t-1.5 -3.5l1 -531q0 -10 -10 -10h-51q-10 0 -10 10v680q0 10 10 10h54q9 0 12 -7l264 -529q2 -2 3.5 -2
t1.5 3v338q0 10 2 10l1 3v174q0 10 10 10z" />
    <glyph glyph-name="eng" unicode="&#x14b;" horiz-adv-x="482" 
d="M418 224v0v-232q0 -80 -31.5 -120t-116.5 -41q-10 0 -10 10v40q0 10 10 10q41 2 59 27.5t18 72.5v7v2h-1v337q0 52 -27 83t-74 31t-75.5 -31.5t-28.5 -84.5v-325q0 -10 -10 -10h-51q-10 0 -10 10v486q0 10 10 10h51q10 0 10 -10v-39q0 -2 2 -3t3 1q39 58 120 58
q70 0 110.5 -44.5t40.5 -121.5v-121z" />
    <glyph glyph-name="Omacron" unicode="&#x14c;" horiz-adv-x="539" 
d="M161.5 17.5q-46.5 25.5 -72 71.5t-25.5 106v309q0 60 25.5 106.5t72 72t107.5 25.5t107.5 -25.5t72.5 -72t26 -106.5v-309q0 -60 -26 -106t-72.5 -71.5t-107.5 -25.5t-107.5 25.5zM367 92q37 38 37 100v314q0 63 -37 101.5t-98 38.5q-60 0 -97 -38.5t-37 -101.5v-314
q0 -62 37 -100t97 -38q61 0 98 38zM151 799v31q0 10 10 10h215q10 0 10 -10v-31q0 -10 -10 -10h-215q-10 0 -10 10z" />
    <glyph glyph-name="omacron" unicode="&#x14d;" horiz-adv-x="475" 
d="M120 31.5q-47 39.5 -57 106.5q-6 50 -6 116t6 114q9 66 56.5 106t120.5 40t120.5 -40t56.5 -106q6 -40 6 -114q0 -76 -6 -116q-9 -67 -56.5 -106.5t-120.5 -39.5t-120 39.5zM312.5 80.5q29.5 26.5 35.5 70.5q4 37 4 102q0 66 -4 102q-5 44 -34.5 70.5t-73.5 26.5
t-73 -26.5t-35 -70.5q-4 -36 -4 -102t4 -102q5 -44 34.5 -70.5t73.5 -26.5q43 0 72.5 26.5zM120 605v31q0 10 10 10h215q10 0 10 -10v-31q0 -10 -10 -10h-215q-10 0 -10 10z" />
    <glyph glyph-name="obreve" unicode="&#x14f;" horiz-adv-x="475" 
d="M120 31.5q-47 39.5 -57 106.5q-6 50 -6 116t6 114q9 66 56.5 106t120.5 40t120.5 -40t56.5 -106q6 -40 6 -114q0 -76 -6 -116q-9 -67 -56.5 -106.5t-120.5 -39.5t-120 39.5zM312.5 80.5q29.5 26.5 35.5 70.5q4 37 4 102q0 66 -4 102q-5 44 -34.5 70.5t-73.5 26.5
t-73 -26.5t-35 -70.5q-4 -36 -4 -102t4 -102q5 -44 34.5 -70.5t73.5 -26.5q43 0 72.5 26.5zM160 608.5q-32 27.5 -36 69.5q0 10 10 10h24q10 0 10 -10q4 -25 23.5 -41.5t46.5 -16.5q26 0 45 16.5t23 41.5q1 10 11 10h25q10 0 9 -10q-4 -42 -35.5 -69.5t-77.5 -27.5t-78 27.5
z" />
    <glyph glyph-name="Ohungarumlaut" unicode="&#x150;" horiz-adv-x="539" 
d="M161.5 17.5q-46.5 25.5 -72 71.5t-25.5 106v309q0 60 25.5 106.5t72 72t107.5 25.5t107.5 -25.5t72.5 -72t26 -106.5v-309q0 -60 -26 -106t-72.5 -71.5t-107.5 -25.5t-107.5 25.5zM367 92q37 38 37 100v314q0 63 -37 101.5t-98 38.5q-60 0 -97 -38.5t-37 -101.5v-314
q0 -62 37 -100t97 -38q61 0 98 38zM169 769.5q-2 3.5 0 8.5l56 109q3 7 12 7h44q6 0 8 -3.5t-1 -8.5l-60 -109q-3 -7 -12 -7h-40q-5 0 -7 3.5zM312.5 769.5q-2.5 3.5 0.5 8.5l59 109q3 7 12 7h41q6 0 8 -3.5t-1 -8.5l-60 -109q-3 -7 -12 -7h-40q-5 0 -7.5 3.5z" />
    <glyph glyph-name="ohungarumlaut" unicode="&#x151;" horiz-adv-x="475" 
d="M120 31.5q-47 39.5 -57 106.5q-6 50 -6 116t6 114q9 66 56.5 106t120.5 40t120.5 -40t56.5 -106q6 -40 6 -114q0 -76 -6 -116q-9 -67 -56.5 -106.5t-120.5 -39.5t-120 39.5zM312.5 80.5q29.5 26.5 35.5 70.5q4 37 4 102q0 66 -4 102q-5 44 -34.5 70.5t-73.5 26.5
t-73 -26.5t-35 -70.5q-4 -36 -4 -102t4 -102q5 -44 34.5 -70.5t73.5 -26.5q43 0 72.5 26.5zM138 575.5q-2 3.5 0 8.5l56 109q3 7 12 7h44q6 0 8 -3.5t-1 -8.5l-60 -109q-3 -7 -12 -7h-40q-5 0 -7 3.5zM281.5 575.5q-2.5 3.5 0.5 8.5l59 109q3 7 12 7h41q6 0 8 -3.5t-1 -8.5
l-60 -109q-3 -7 -12 -7h-40q-5 0 -7.5 3.5z" />
    <glyph glyph-name="OE" unicode="&#x152;" horiz-adv-x="804" 
d="M744 638h-279q-4 0 -4 -4v-248q0 -4 4 -4h181q10 0 10 -10v-42q0 -10 -10 -10h-181q-4 0 -4 -4v-250q0 -4 4 -4h279q10 0 10 -10v-42q0 -10 -10 -10h-344q-10 0 -10 10v39q0 2 -1.5 2.5t-3.5 -1.5q-25 -27 -61 -42.5t-77 -15.5q-52 0 -94 25t-65.5 69.5t-23.5 101.5v323
q0 57 23.5 102t65.5 70t94 25q42 0 77.5 -15.5t60.5 -43.5q2 -2 3.5 -1t1.5 3v39q0 10 10 10h344q10 0 10 -10v-42q0 -10 -10 -10zM354.5 91q35.5 37 35.5 94v328q0 58 -35.5 95.5t-92.5 37.5t-92 -37.5t-35 -95.5v-328q0 -57 35 -94t92 -37t92.5 37z" />
    <glyph glyph-name="oe" unicode="&#x153;" horiz-adv-x="758" 
d="M596 73q28 20 40 53q3 9 12 6l40 -10q10 -3 7 -13q-15 -54 -58.5 -85.5t-107.5 -31.5q-48 0 -85 21t-59 58q-3 3 -6 0q-24 -37 -60.5 -58t-83.5 -21q-71 0 -117.5 40t-55.5 106q-5 34 -5 116t5 115q8 65 55 105t118 40q47 0 83.5 -21t60.5 -58q3 -3 6 0q23 37 59 58
t82 21q72 0 119.5 -40.5t55.5 -105.5q5 -42 5 -126q0 -10 -10 -10h-273q-4 0 -4 -4q0 -45 3 -77q5 -44 34.5 -71t75.5 -27q36 0 64 20zM343 253q0 75 -3 102q-5 43 -33.5 70t-71.5 27t-71 -27t-33 -70q-3 -27 -3 -102q0 -61 3 -102q5 -43 33 -70t71 -27t71.5 27t33.5 70
q3 27 3 102zM455 425q-28 -27 -33 -70l-3 -69q0 -4 4 -4h208q4 0 4 4q0 39 -3 69q-5 43 -33.5 70t-71.5 27q-44 0 -72 -27z" />
    <glyph glyph-name="Racute" unicode="&#x154;" horiz-adv-x="528" 
d="M415 8l-124 309q-1 3 -4 3h-129q-4 0 -4 -4v-306q0 -10 -10 -10h-51q-10 0 -10 10v680q0 10 10 10h212q52 0 92.5 -24t63 -68t22.5 -101q0 -68 -33 -116t-90 -64q-4 -2 -2 -5l129 -310l1 -4q0 -8 -9 -8h-53q-8 0 -11 8zM154 634v-253q0 -4 4 -4h138q52 0 84 36t32 94
q0 59 -32 95t-84 36h-138q-4 0 -4 -4zM219 769.5q-2 3.5 1 8.5l61 109q5 7 12 7h43q6 0 7.5 -3.5t-1.5 -8.5l-69 -109q-5 -7 -12 -7h-34q-6 0 -8 3.5z" />
    <glyph glyph-name="racute" unicode="&#x155;" horiz-adv-x="328" 
d="M309 499q7 -3 5 -12l-12 -52q-1 -10 -12 -6q-16 7 -35 7l-12 -1q-44 -1 -73 -38t-29 -90v-297q0 -10 -10 -10h-51q-10 0 -10 10v486q0 10 10 10h51q10 0 10 -10v-65q0 -3 1.5 -3t2.5 2q17 38 45.5 59.5t67.5 21.5q30 0 51 -12zM153 575.5q-2 3.5 1 8.5l61 109q5 7 12 7
h43q6 0 7.5 -3.5t-1.5 -8.5l-69 -109q-5 -7 -12 -7h-34q-6 0 -8 3.5z" />
    <glyph glyph-name="uni0156" unicode="&#x156;" horiz-adv-x="528" 
d="M415 8l-124 309q-1 3 -4 3h-129q-4 0 -4 -4v-306q0 -10 -10 -10h-51q-10 0 -10 10v680q0 10 10 10h212q52 0 92.5 -24t63 -68t22.5 -101q0 -68 -33 -116t-90 -64q-4 -2 -2 -5l129 -310l1 -4q0 -8 -9 -8h-53q-8 0 -11 8zM154 634v-253q0 -4 4 -4h138q52 0 84 36t32 94
q0 59 -32 95t-84 36h-138q-4 0 -4 -4zM214 -186.5q-2 3.5 1 8.5l61 109q5 7 12 7h43q6 0 7.5 -3.5t-1.5 -8.5l-69 -109q-5 -7 -12 -7h-34q-6 0 -8 3.5z" />
    <glyph glyph-name="uni0157" unicode="&#x157;" horiz-adv-x="328" 
d="M309 499q7 -3 5 -12l-12 -52q-1 -10 -12 -6q-16 7 -35 7l-12 -1q-44 -1 -73 -38t-29 -90v-297q0 -10 -10 -10h-51q-10 0 -10 10v486q0 10 10 10h51q10 0 10 -10v-65q0 -3 1.5 -3t2.5 2q17 38 45.5 59.5t67.5 21.5q30 0 51 -12zM3 -186.5q-2 3.5 1 8.5l61 109q5 7 12 7h43
q6 0 7.5 -3.5t-1.5 -8.5l-69 -109q-5 -7 -12 -7h-34q-6 0 -8 3.5z" />
    <glyph glyph-name="Rcaron" unicode="&#x158;" horiz-adv-x="528" 
d="M415 8l-124 309q-1 3 -4 3h-129q-4 0 -4 -4v-306q0 -10 -10 -10h-51q-10 0 -10 10v680q0 10 10 10h212q52 0 92.5 -24t63 -68t22.5 -101q0 -68 -33 -116t-90 -64q-4 -2 -2 -5l129 -310l1 -4q0 -8 -9 -8h-53q-8 0 -11 8zM154 634v-253q0 -4 4 -4h138q52 0 84 36t32 94
q0 59 -32 95t-84 36h-138q-4 0 -4 -4zM146 887q0 7 9 7h41q8 0 12 -6l53 -79q1 -1 3 -1t3 1l51 78q5 7 12 7h42q6 0 8 -3.5t-2 -8.5l-74 -106q-4 -6 -12 -6h-59q-8 0 -12 6l-73 106z" />
    <glyph glyph-name="rcaron" unicode="&#x159;" horiz-adv-x="328" 
d="M309 499q7 -3 5 -12l-12 -52q-1 -10 -12 -6q-16 7 -35 7l-12 -1q-44 -1 -73 -38t-29 -90v-297q0 -10 -10 -10h-51q-10 0 -10 10v486q0 10 10 10h51q10 0 10 -10v-65q0 -3 1.5 -3t2.5 2q17 38 45.5 59.5t67.5 21.5q30 0 51 -12zM80 693q0 7 9 7h41q8 0 12 -6l53 -79
q1 -1 3 -1t3 1l51 78q5 7 12 7h42q6 0 8 -3.5t-2 -8.5l-74 -106q-4 -6 -12 -6h-59q-8 0 -12 6l-73 106z" />
    <glyph glyph-name="Sacute" unicode="&#x15a;" horiz-adv-x="500" 
d="M102.5 41.5q-55.5 49.5 -55.5 132.5v27q0 10 10 10h49q10 0 10 -10v-23q0 -56 38 -90t101 -34q59 0 93 32t34 84q0 34 -16 59t-47 46t-89 53q-62 33 -97.5 58t-57.5 61t-22 88q0 81 52 127t139 46q93 0 148 -51t55 -135v-23q0 -10 -10 -10h-50q-10 0 -10 10v22
q0 56 -36 90.5t-99 34.5q-56 0 -87.5 -29t-31.5 -82q0 -34 15 -57t43.5 -42t87.5 -51q68 -38 104.5 -64.5t58 -61t21.5 -84.5q0 -84 -54 -133.5t-147 -49.5q-94 0 -149.5 49.5zM203 769.5q-2 3.5 1 8.5l61 109q5 7 12 7h43q6 0 7.5 -3.5t-1.5 -8.5l-69 -109q-5 -7 -12 -7
h-34q-6 0 -8 3.5z" />
    <glyph glyph-name="sacute" unicode="&#x15b;" horiz-adv-x="429" 
d="M95 32q-47 37 -47 95v9q0 10 10 10h49q10 0 10 -10v-7q0 -32 28.5 -55.5t73.5 -23.5q44 0 71 23t27 58q0 25 -15 42t-37 27t-61 23q-47 16 -78 32t-52.5 44.5t-21.5 72.5q0 64 45 101.5t119 37.5q76 0 121.5 -39t45.5 -100v-2q0 -10 -10 -10h-46q-10 0 -10 10v4
q0 34 -27.5 56.5t-73.5 22.5q-43 0 -69.5 -21.5t-26.5 -55.5q0 -35 26.5 -53t83.5 -38q49 -16 81 -32t54.5 -44.5t22.5 -73.5q0 -64 -46 -102t-123 -38t-124 37zM175 575.5q-2 3.5 1 8.5l61 109q5 7 12 7h43q6 0 7.5 -3.5t-1.5 -8.5l-69 -109q-5 -7 -12 -7h-34q-6 0 -8 3.5z
" />
    <glyph glyph-name="Scircumflex" unicode="&#x15c;" horiz-adv-x="500" 
d="M102.5 41.5q-55.5 49.5 -55.5 132.5v27q0 10 10 10h49q10 0 10 -10v-23q0 -56 38 -90t101 -34q59 0 93 32t34 84q0 34 -16 59t-47 46t-89 53q-62 33 -97.5 58t-57.5 61t-22 88q0 81 52 127t139 46q93 0 148 -51t55 -135v-23q0 -10 -10 -10h-50q-10 0 -10 10v22
q0 56 -36 90.5t-99 34.5q-56 0 -87.5 -29t-31.5 -82q0 -34 15 -57t43.5 -42t87.5 -51q68 -38 104.5 -64.5t58 -61t21.5 -84.5q0 -84 -54 -133.5t-147 -49.5q-94 0 -149.5 49.5zM127 773.5q-2 3.5 1 8.5l73 106q4 6 12 6h59q8 0 12 -6l74 -106q2 -2 2 -6q0 -2 -2 -4t-6 -2
h-42q-7 0 -12 7l-51 78q-1 2 -3 2t-3 -2l-53 -79q-4 -6 -12 -6h-41q-6 0 -8 3.5z" />
    <glyph glyph-name="scircumflex" unicode="&#x15d;" horiz-adv-x="429" 
d="M95 32q-47 37 -47 95v9q0 10 10 10h49q10 0 10 -10v-7q0 -32 28.5 -55.5t73.5 -23.5q44 0 71 23t27 58q0 25 -15 42t-37 27t-61 23q-47 16 -78 32t-52.5 44.5t-21.5 72.5q0 64 45 101.5t119 37.5q76 0 121.5 -39t45.5 -100v-2q0 -10 -10 -10h-46q-10 0 -10 10v4
q0 34 -27.5 56.5t-73.5 22.5q-43 0 -69.5 -21.5t-26.5 -55.5q0 -35 26.5 -53t83.5 -38q49 -16 81 -32t54.5 -44.5t22.5 -73.5q0 -64 -46 -102t-123 -38t-124 37zM100 579.5q-2 3.5 1 8.5l73 106q4 6 12 6h59q8 0 12 -6l74 -106q2 -2 2 -6q0 -2 -2 -4t-6 -2h-42q-7 0 -12 7
l-51 78q-1 2 -3 2t-3 -2l-53 -79q-4 -6 -12 -6h-41q-6 0 -8 3.5z" />
    <glyph glyph-name="Scedilla" unicode="&#x15e;" horiz-adv-x="500" 
d="M407.5 50q-45.5 -48 -125.5 -56q-6 -2 -1 -5q45 -42 45 -92q0 -15 -2 -23q-7 -32 -29.5 -46t-52.5 -14q-18 0 -36 5q-8 3 -7 12l3 21q1 5 4.5 7t7.5 1q6 -2 18 -2q19 0 31 11.5t12 35.5q0 41 -50 86q-1 2 -5 2q-80 9 -126.5 57.5t-46.5 123.5v27q0 10 10 10h49
q10 0 10 -10v-23q0 -56 38 -90t101 -34q59 0 93 32t34 84q0 34 -16 59t-47 46t-89 53q-62 33 -97.5 58t-57.5 61t-22 88q0 81 52 127t139 46q93 0 148 -51t55 -135v-23q0 -10 -10 -10h-50q-10 0 -10 10v22q0 56 -36 90.5t-99 34.5q-56 0 -87.5 -29t-31.5 -82q0 -34 15 -57
t43.5 -42t87.5 -51q68 -38 104.5 -64.5t58 -61t21.5 -84.5q0 -77 -45.5 -125z" />
    <glyph glyph-name="scedilla" unicode="&#x15f;" horiz-adv-x="429" 
d="M352 42.5q-36 -36.5 -99 -45.5q-6 -2 -1 -5q46 -45 46 -93q0 -15 -2 -22q-7 -32 -30 -46t-53 -14q-18 0 -36 5q-8 3 -7 12l4 22q1 5 4.5 6.5t7.5 0.5q12 -2 17 -2q19 0 31.5 11.5t12.5 35.5q0 41 -50 86q-1 2 -5 2q-66 7 -105 43t-39 88v9q0 10 10 10h49q10 0 10 -10v-7
q0 -32 28.5 -55.5t73.5 -23.5q44 0 71 23t27 58q0 25 -15 42t-37 27t-61 23q-47 16 -78 32t-52.5 44.5t-21.5 72.5q0 64 45 101.5t119 37.5q76 0 121.5 -39t45.5 -100v-2q0 -10 -10 -10h-46q-10 0 -10 10v4q0 34 -27.5 56.5t-73.5 22.5q-43 0 -69.5 -21.5t-26.5 -55.5
q0 -35 26.5 -53t83.5 -38q49 -16 81 -32t54.5 -44.5t22.5 -73.5q0 -56 -36 -92.5z" />
    <glyph glyph-name="Scaron" unicode="&#x160;" horiz-adv-x="500" 
d="M102.5 41.5q-55.5 49.5 -55.5 132.5v27q0 10 10 10h49q10 0 10 -10v-23q0 -56 38 -90t101 -34q59 0 93 32t34 84q0 34 -16 59t-47 46t-89 53q-62 33 -97.5 58t-57.5 61t-22 88q0 81 52 127t139 46q93 0 148 -51t55 -135v-23q0 -10 -10 -10h-50q-10 0 -10 10v22
q0 56 -36 90.5t-99 34.5q-56 0 -87.5 -29t-31.5 -82q0 -34 15 -57t43.5 -42t87.5 -51q68 -38 104.5 -64.5t58 -61t21.5 -84.5q0 -84 -54 -133.5t-147 -49.5q-94 0 -149.5 49.5zM130 887q0 7 9 7h41q8 0 12 -6l53 -79q1 -1 3 -1t3 1l51 78q5 7 12 7h42q6 0 8 -3.5t-2 -8.5
l-74 -106q-4 -6 -12 -6h-59q-8 0 -12 6l-73 106z" />
    <glyph glyph-name="scaron" unicode="&#x161;" horiz-adv-x="429" 
d="M95 32q-47 37 -47 95v9q0 10 10 10h49q10 0 10 -10v-7q0 -32 28.5 -55.5t73.5 -23.5q44 0 71 23t27 58q0 25 -15 42t-37 27t-61 23q-47 16 -78 32t-52.5 44.5t-21.5 72.5q0 64 45 101.5t119 37.5q76 0 121.5 -39t45.5 -100v-2q0 -10 -10 -10h-46q-10 0 -10 10v4
q0 34 -27.5 56.5t-73.5 22.5q-43 0 -69.5 -21.5t-26.5 -55.5q0 -35 26.5 -53t83.5 -38q49 -16 81 -32t54.5 -44.5t22.5 -73.5q0 -64 -46 -102t-123 -38t-124 37zM102 693q0 7 9 7h41q8 0 12 -6l53 -79q1 -1 3 -1t3 1l51 78q5 7 12 7h42q6 0 8 -3.5t-2 -8.5l-74 -106
q-4 -6 -12 -6h-59q-8 0 -12 6l-73 106z" />
    <glyph glyph-name="uni0162" unicode="&#x162;" horiz-adv-x="496" 
d="M457 690v-42q0 -10 -10 -10h-163q-4 0 -4 -4v-624q0 -10 -10 -10h-51q-10 0 -10 10v624q0 4 -4 4h-157q-10 0 -10 10v42q0 10 10 10h399q10 0 10 -10zM211 -170l3 22q1 5 4.5 7t7.5 1q6 -2 18 -2q19 0 31.5 11.5t12.5 35.5q0 39 -46 83q-4 3 -4 7q0 5 8 5h27q5 0 10 -3
q3 -2 3 -4q52 -44 52 -97q0 -44 -24.5 -62.5t-59.5 -18.5q-21 0 -36 4q-8 1 -7 11z" />
    <glyph glyph-name="uni0163" unicode="&#x163;" horiz-adv-x="315" 
d="M263 450h-95q-4 0 -4 -4v-300q0 -47 18.5 -65.5t59.5 -18.5h17q10 0 10 -10v-42q0 -10 -10 -10l-18 -1q-5 0 -2 -5q34 -37 34 -79q0 -12 -3 -24q-7 -32 -29.5 -45.5t-52.5 -13.5q-14 0 -36 4q-8 3 -7 12l3 22q1 5 4.5 6.5t7.5 0.5q12 -2 17 -2q20 0 32.5 11.5t12.5 34.5
q0 40 -42 80q0 1 -5 3q-39 9 -59.5 36.5t-20.5 83.5v322q0 4 -4 4h-50q-10 0 -10 10v36q0 10 10 10h50q4 0 4 4v114q0 10 10 10h49q10 0 10 -10v-114q0 -4 4 -4h95q10 0 10 -10v-36q0 -10 -10 -10z" />
    <glyph glyph-name="Tcaron" unicode="&#x164;" horiz-adv-x="496" 
d="M457 690v-42q0 -10 -10 -10h-163q-4 0 -4 -4v-624q0 -10 -10 -10h-51q-10 0 -10 10v624q0 4 -4 4h-157q-10 0 -10 10v42q0 10 10 10h399q10 0 10 -10zM129 885q0 7 9 7h41q8 0 12 -6l53 -79q1 -1 3 -1t3 1l51 78q5 7 12 7h42q6 0 8 -3.5t-2 -8.5l-74 -106q-4 -6 -12 -6
h-59q-8 0 -12 6l-73 106z" />
    <glyph glyph-name="tcaron" unicode="&#x165;" horiz-adv-x="315" 
d="M263 450h-95q-4 0 -4 -4v-300q0 -47 18.5 -65.5t59.5 -18.5h17q10 0 10 -10v-42q0 -10 -10 -10l-31 -1q-65 0 -99 26.5t-34 98.5v322q0 4 -4 4h-50q-10 0 -10 10v36q0 10 10 10h50q4 0 4 4v114q0 10 10 10h49q10 0 10 -10v-114q0 -4 4 -4h95q10 0 10 -10v-36
q0 -10 -10 -10zM204 575.5q-2 3.5 1 8.5l61 109q5 7 12 7h43q6 0 7.5 -3.5t-1.5 -8.5l-69 -109q-5 -7 -12 -7h-34q-6 0 -8 3.5z" />
    <glyph glyph-name="Tbar" unicode="&#x166;" horiz-adv-x="496" 
d="M447 638h-163q-4 0 -4 -4v-212q0 -4 4 -4h94q10 0 10 -10v-27q0 -10 -10 -10h-94q-4 0 -4 -4v-357q0 -10 -10 -10h-51q-10 0 -10 10v357q0 4 -4 4h-99q-10 0 -10 10v27q0 10 10 10h99q4 0 4 4v212q0 4 -4 4h-157q-10 0 -10 10v42q0 10 10 10h399q10 0 10 -10v-42
q0 -10 -10 -10z" />
    <glyph glyph-name="tbar" unicode="&#x167;" horiz-adv-x="315" 
d="M263 450h-95q-4 0 -4 -4v-94q0 -4 4 -4h92q10 0 10 -10v-27q0 -10 -10 -10h-92q-4 0 -4 -4v-151q0 -47 18.5 -65.5t59.5 -18.5h17q10 0 10 -10v-42q0 -10 -10 -10l-31 -1q-65 0 -99 26.5t-34 98.5v173q0 4 -4 4h-46q-10 0 -10 10v27q0 10 10 10h46q4 0 4 4v94q0 4 -4 4
h-50q-10 0 -10 10v36q0 10 10 10h50q4 0 4 4v114q0 10 10 10h49q10 0 10 -10v-114q0 -4 4 -4h95q10 0 10 -10v-36q0 -10 -10 -10z" />
    <glyph glyph-name="Utilde" unicode="&#x168;" horiz-adv-x="562" 
d="M173.5 18q-46.5 26 -72 73t-25.5 109v490q0 10 10 10h51q10 0 10 -10v-494q0 -64 37 -103t97 -39t97 39t37 103v494q0 10 10 10h51q10 0 10 -10v-490q0 -62 -25.5 -109t-72 -73t-107.5 -26t-107.5 26zM313.5 806q-13.5 6 -28.5 16q-4 2 -13.5 8.5t-17.5 9t-16 2.5
q-16 0 -27 -5.5t-22 -20.5q-6 -9 -14 -3l-19 15q-7 7 -3 14q29 51 81 51q17 0 30.5 -6t30.5 -17q3 -2 13 -8.5t18.5 -9.5t16.5 -3q29 0 47 29q6 9 14 3l19 -14q4 -4 4 -8t-3 -10q-15 -25 -37.5 -37t-44.5 -12q-15 0 -28.5 6z" />
    <glyph glyph-name="utilde" unicode="&#x169;" horiz-adv-x="481" 
d="M349 506h51q10 0 10 -10v-486q0 -10 -10 -10h-51q-10 0 -10 10v39q0 3 -1.5 3t-3.5 -2q-35 -57 -116 -57q-68 0 -111 40t-43 116v347q0 10 10 10h51q10 0 10 -10v-329q0 -53 26 -82.5t73 -29.5q49 0 77 31.5t28 84.5v325q0 10 10 10zM271.5 612q-13.5 6 -28.5 16
q-4 2 -13.5 8.5t-17.5 9t-16 2.5q-16 0 -27 -5.5t-22 -20.5q-6 -9 -14 -3l-19 15q-7 7 -3 14q29 51 81 51q17 0 30.5 -6t30.5 -17q3 -2 13 -8.5t18.5 -9.5t16.5 -3q29 0 47 29q6 9 14 3l19 -14q4 -4 4 -8t-3 -10q-15 -25 -37.5 -37t-44.5 -12q-15 0 -28.5 6z" />
    <glyph glyph-name="Umacron" unicode="&#x16a;" horiz-adv-x="562" 
d="M173.5 18q-46.5 26 -72 73t-25.5 109v490q0 10 10 10h51q10 0 10 -10v-494q0 -64 37 -103t97 -39t97 39t37 103v494q0 10 10 10h51q10 0 10 -10v-490q0 -62 -25.5 -109t-72 -73t-107.5 -26t-107.5 26zM163 799v31q0 10 10 10h215q10 0 10 -10v-31q0 -10 -10 -10h-215
q-10 0 -10 10z" />
    <glyph glyph-name="umacron" unicode="&#x16b;" horiz-adv-x="481" 
d="M349 506h51q10 0 10 -10v-486q0 -10 -10 -10h-51q-10 0 -10 10v39q0 3 -1.5 3t-3.5 -2q-35 -57 -116 -57q-68 0 -111 40t-43 116v347q0 10 10 10h51q10 0 10 -10v-329q0 -53 26 -82.5t73 -29.5q49 0 77 31.5t28 84.5v325q0 10 10 10zM121 605v31q0 10 10 10h215
q10 0 10 -10v-31q0 -10 -10 -10h-215q-10 0 -10 10z" />
    <glyph glyph-name="Ubreve" unicode="&#x16c;" horiz-adv-x="562" 
d="M173.5 18q-46.5 26 -72 73t-25.5 109v490q0 10 10 10h51q10 0 10 -10v-494q0 -64 37 -103t97 -39t97 39t37 103v494q0 10 10 10h51q10 0 10 -10v-490q0 -62 -25.5 -109t-72 -73t-107.5 -26t-107.5 26zM203 802.5q-32 27.5 -36 69.5q0 10 10 10h24q10 0 10 -10
q4 -25 23.5 -41.5t46.5 -16.5q26 0 45 16.5t23 41.5q1 10 11 10h25q10 0 9 -10q-4 -42 -35.5 -69.5t-77.5 -27.5t-78 27.5z" />
    <glyph glyph-name="ubreve" unicode="&#x16d;" horiz-adv-x="481" 
d="M349 506h51q10 0 10 -10v-486q0 -10 -10 -10h-51q-10 0 -10 10v39q0 3 -1.5 3t-3.5 -2q-35 -57 -116 -57q-68 0 -111 40t-43 116v347q0 10 10 10h51q10 0 10 -10v-329q0 -53 26 -82.5t73 -29.5q49 0 77 31.5t28 84.5v325q0 10 10 10zM161 608.5q-32 27.5 -36 69.5
q0 10 10 10h24q10 0 10 -10q4 -25 23.5 -41.5t46.5 -16.5q26 0 45 16.5t23 41.5q1 10 11 10h25q10 0 9 -10q-4 -42 -35.5 -69.5t-77.5 -27.5t-78 27.5z" />
    <glyph glyph-name="Uring" unicode="&#x16e;" horiz-adv-x="562" 
d="M173.5 18q-46.5 26 -72 73t-25.5 109v490q0 10 10 10h51q10 0 10 -10v-494q0 -64 37 -103t97 -39t97 39t37 103v494q0 10 10 10h51q10 0 10 -10v-490q0 -62 -25.5 -109t-72 -73t-107.5 -26t-107.5 26zM203 804q-31 31 -31 77q0 45 31 76.5t77 31.5t77 -31.5t31 -76.5
q0 -46 -31 -77t-77 -31t-77 31zM325 835q19 19 19 46q0 28 -19 47t-45 19q-27 0 -46 -19t-19 -47t19 -46.5t46 -18.5q26 0 45 19z" />
    <glyph glyph-name="uring" unicode="&#x16f;" horiz-adv-x="481" 
d="M349 506h51q10 0 10 -10v-486q0 -10 -10 -10h-51q-10 0 -10 10v39q0 3 -1.5 3t-3.5 -2q-35 -57 -116 -57q-68 0 -111 40t-43 116v347q0 10 10 10h51q10 0 10 -10v-329q0 -53 26 -82.5t73 -29.5q49 0 77 31.5t28 84.5v325q0 10 10 10zM162 610q-31 31 -31 77q0 45 31 76.5
t77 31.5t77 -31.5t31 -76.5q0 -46 -31 -77t-77 -31t-77 31zM284 641q19 19 19 46q0 28 -19 47t-45 19q-27 0 -46 -19t-19 -47t19 -46.5t46 -18.5q26 0 45 19z" />
    <glyph glyph-name="Uhungarumlaut" unicode="&#x170;" horiz-adv-x="562" 
d="M173.5 18q-46.5 26 -72 73t-25.5 109v490q0 10 10 10h51q10 0 10 -10v-494q0 -64 37 -103t97 -39t97 39t37 103v494q0 10 10 10h51q10 0 10 -10v-490q0 -62 -25.5 -109t-72 -73t-107.5 -26t-107.5 26zM181 769.5q-2 3.5 0 8.5l56 109q3 7 12 7h44q6 0 8 -3.5t-1 -8.5
l-60 -109q-3 -7 -12 -7h-40q-5 0 -7 3.5zM324.5 769.5q-2.5 3.5 0.5 8.5l59 109q3 7 12 7h41q6 0 8 -3.5t-1 -8.5l-60 -109q-3 -7 -12 -7h-40q-5 0 -7.5 3.5z" />
    <glyph glyph-name="uhungarumlaut" unicode="&#x171;" horiz-adv-x="481" 
d="M349 506h51q10 0 10 -10v-486q0 -10 -10 -10h-51q-10 0 -10 10v39q0 3 -1.5 3t-3.5 -2q-35 -57 -116 -57q-68 0 -111 40t-43 116v347q0 10 10 10h51q10 0 10 -10v-329q0 -53 26 -82.5t73 -29.5q49 0 77 31.5t28 84.5v325q0 10 10 10zM139 575.5q-2 3.5 0 8.5l56 109
q3 7 12 7h44q6 0 8 -3.5t-1 -8.5l-60 -109q-3 -7 -12 -7h-40q-5 0 -7 3.5zM282.5 575.5q-2.5 3.5 0.5 8.5l59 109q3 7 12 7h41q6 0 8 -3.5t-1 -8.5l-60 -109q-3 -7 -12 -7h-40q-5 0 -7.5 3.5z" />
    <glyph glyph-name="Uogonek" unicode="&#x172;" horiz-adv-x="562" 
d="M425 700h51q10 0 10 -10v-490q0 -88 -50 -144t-133 -63q-3 0 -5 -2q-41 -41 -41 -78q0 -8 1 -12q6 -36 42 -36q12 0 18 2l4 1q6 0 8 -8l4 -22v-2q0 -7 -8 -10q-17 -5 -36 -5q-34 0 -59 19.5t-25 63.5q0 47 39 86q3 3 -2 5q-77 11 -122 66t-45 139v490q0 10 10 10h51
q10 0 10 -10v-494q0 -64 37 -103t97 -39t97 39t37 103v494q0 10 10 10z" />
    <glyph glyph-name="uogonek" unicode="&#x173;" horiz-adv-x="481" 
d="M417 -139q6 0 8 -8l4 -23v-2q0 -7 -8 -9q-18 -5 -36 -5q-35 0 -59.5 19t-24.5 63q0 54 52 99q2 2 1 3.5t-3 1.5h-2q-10 0 -10 10v39q0 3 -1.5 3t-3.5 -2q-35 -57 -116 -57q-68 0 -111 40t-43 116v347q0 10 10 10h51q10 0 10 -10v-329q0 -53 26 -82.5t73 -29.5
q49 0 77 31.5t28 84.5v325q0 10 10 10h51q10 0 10 -10v-496l-5 -5q-53 -46 -53 -89q0 -8 1 -12q6 -36 42 -36q12 0 18 2z" />
    <glyph glyph-name="Wcircumflex" unicode="&#x174;" horiz-adv-x="758" 
d="M190 9l-161 680l-1 4q0 7 9 7h54q9 0 11 -9l122 -537q1 -3 2.5 -3t2.5 3l111 537q2 9 11 9h50q10 0 11 -9l115 -537q1 -3 2 -3t2 3l119 537q2 9 11 9h52q10 0 8 -11l-156 -680q-2 -9 -11 -9h-51q-9 0 -11 9l-114 545q-1 3 -2 3t-2 -3l-113 -545q-1 -9 -11 -9h-49
q-9 0 -11 9zM262 773.5q-2 3.5 1 8.5l73 106q4 6 12 6h59q8 0 12 -6l74 -106q2 -2 2 -6q0 -2 -2 -4t-6 -2h-42q-7 0 -12 7l-51 78q-1 2 -3 2t-3 -2l-53 -79q-4 -6 -12 -6h-41q-6 0 -8 3.5z" />
    <glyph glyph-name="wcircumflex" unicode="&#x175;" horiz-adv-x="638" 
d="M152 9l-123 486l-1 4q0 7 9 7h50q9 0 11 -9l90 -384q1 -3 2 -3t2 3l91 384q2 9 11 9h46q10 0 11 -9l93 -383q1 -3 2 -3t2 3l91 383q2 9 11 9l51 -1q5 0 7.5 -3t0.5 -8l-125 -485q-1 -9 -11 -9h-52q-9 0 -11 9l-91 370q-1 3 -2.5 3t-2.5 -3l-88 -370q-2 -9 -11 -9h-52
q-9 0 -11 9zM200 579.5q-2 3.5 1 8.5l73 106q4 6 12 6h59q8 0 12 -6l74 -106q2 -2 2 -6q0 -2 -2 -4t-6 -2h-42q-7 0 -12 7l-51 78q-1 2 -3 2t-3 -2l-53 -79q-4 -6 -12 -6h-41q-6 0 -8 3.5z" />
    <glyph glyph-name="Ycircumflex" unicode="&#x176;" horiz-adv-x="496" 
d="M212 11v298q0 4 -1 5l-173 374l-1 4q0 8 9 8h54q8 0 11 -8l134 -299q1 -2 3 -2t3 2l134 299q3 8 11 8h54q5 0 7.5 -3.5t0.5 -8.5l-174 -374q-1 -1 -1 -5v-298q0 -10 -10 -10h-51q-10 0 -10 10zM131 773.5q-2 3.5 1 8.5l73 106q4 6 12 6h59q8 0 12 -6l74 -106q2 -2 2 -6
q0 -2 -2 -4t-6 -2h-42q-7 0 -12 7l-51 78q-1 2 -3 2t-3 -2l-53 -79q-4 -6 -12 -6h-41q-6 0 -8 3.5z" />
    <glyph glyph-name="ycircumflex" unicode="&#x177;" horiz-adv-x="414" 
d="M44 -190v40q0 10 10 10h2q35 1 54.5 12t33 39t27.5 86q1 1 0.5 3.5l-0.5 2.5l-149 492l-1 3q0 8 10 8h54q9 0 11 -9l109 -399q1 -2 2.5 -2t2.5 2l109 399q2 9 11 9h53q5 0 7.5 -3t1.5 -8l-163 -539q-20 -67 -39.5 -99t-49 -44.5t-83.5 -12.5h-6q-7 0 -7 10zM90 581.5
q-2 3.5 1 8.5l73 106q4 6 12 6h59q8 0 12 -6l74 -106q2 -2 2 -6q0 -2 -2 -4t-6 -2h-42q-7 0 -12 7l-51 78q-1 2 -3 2t-3 -2l-53 -79q-4 -6 -12 -6h-41q-6 0 -8 3.5z" />
    <glyph glyph-name="Ydieresis" unicode="&#x178;" horiz-adv-x="496" 
d="M212 11v298q0 4 -1 5l-173 374l-1 4q0 8 9 8h54q8 0 11 -8l134 -299q1 -2 3 -2t3 2l134 299q3 8 11 8h54q5 0 7.5 -3.5t0.5 -8.5l-174 -374q-1 -1 -1 -5v-298q0 -10 -10 -10h-51q-10 0 -10 10zM287.5 809q-15.5 16 -15.5 40q0 25 15.5 40.5t40.5 15.5q24 0 40 -15.5
t16 -40.5q0 -24 -16 -40t-40 -16q-25 0 -40.5 16zM127.5 809q-15.5 16 -15.5 40q0 25 15.5 40.5t40.5 15.5q24 0 40 -15.5t16 -40.5q0 -24 -16 -40t-40 -16q-25 0 -40.5 16z" />
    <glyph glyph-name="Zacute" unicode="&#x179;" horiz-adv-x="472" 
d="M39 10v47q0 6 3 13l304 563q2 5 -2 5h-295q-10 0 -10 10v42q0 10 10 10h367q10 0 10 -10v-47q0 -5 -3 -13l-304 -563q-2 -5 2 -5h295q10 0 10 -10v-42q0 -10 -10 -10h-367q-10 0 -10 10zM190 769.5q-2 3.5 1 8.5l61 109q5 7 12 7h43q6 0 7.5 -3.5t-1.5 -8.5l-69 -109
q-5 -7 -12 -7h-34q-6 0 -8 3.5z" />
    <glyph glyph-name="zacute" unicode="&#x17a;" horiz-adv-x="403" 
d="M33 10v48q0 8 4 13l245 365q1 1 0 3t-3 2h-232q-10 0 -10 10v45q0 10 10 10h311q10 0 10 -10v-48q0 -8 -4 -13l-247 -365q-1 -1 0 -3t3 -2h239q10 0 10 -10v-45q0 -10 -10 -10h-316q-10 0 -10 10zM160 575.5q-2 3.5 1 8.5l61 109q5 7 12 7h43q6 0 7.5 -3.5t-1.5 -8.5
l-69 -109q-5 -7 -12 -7h-34q-6 0 -8 3.5z" />
    <glyph glyph-name="Zdotaccent" unicode="&#x17b;" horiz-adv-x="472" 
d="M39 10v47q0 6 3 13l304 563q2 5 -2 5h-295q-10 0 -10 10v42q0 10 10 10h367q10 0 10 -10v-47q0 -5 -3 -13l-304 -563q-2 -5 2 -5h295q10 0 10 -10v-42q0 -10 -10 -10h-367q-10 0 -10 10zM191.5 808q-15.5 16 -15.5 40q0 25 15.5 40.5t40.5 15.5q24 0 40 -15.5t16 -40.5
q0 -24 -16 -40t-40 -16q-25 0 -40.5 16z" />
    <glyph glyph-name="zdotaccent" unicode="&#x17c;" horiz-adv-x="403" 
d="M33 10v48q0 8 4 13l245 365q1 1 0 3t-3 2h-232q-10 0 -10 10v45q0 10 10 10h311q10 0 10 -10v-48q0 -8 -4 -13l-247 -365q-1 -1 0 -3t3 -2h239q10 0 10 -10v-45q0 -10 -10 -10h-316q-10 0 -10 10zM161.5 614q-15.5 16 -15.5 40q0 25 15.5 40.5t40.5 15.5q24 0 40 -15.5
t16 -40.5q0 -24 -16 -40t-40 -16q-25 0 -40.5 16z" />
    <glyph glyph-name="Zcaron" unicode="&#x17d;" horiz-adv-x="472" 
d="M39 10v47q0 6 3 13l304 563q2 5 -2 5h-295q-10 0 -10 10v42q0 10 10 10h367q10 0 10 -10v-47q0 -5 -3 -13l-304 -563q-2 -5 2 -5h295q10 0 10 -10v-42q0 -10 -10 -10h-367q-10 0 -10 10zM117 887q0 7 9 7h41q8 0 12 -6l53 -79q1 -1 3 -1t3 1l51 78q5 7 12 7h42
q6 0 8 -3.5t-2 -8.5l-74 -106q-4 -6 -12 -6h-59q-8 0 -12 6l-73 106z" />
    <glyph glyph-name="zcaron" unicode="&#x17e;" horiz-adv-x="403" 
d="M33 10v48q0 8 4 13l245 365q1 1 0 3t-3 2h-232q-10 0 -10 10v45q0 10 10 10h311q10 0 10 -10v-48q0 -8 -4 -13l-247 -365q-1 -1 0 -3t3 -2h239q10 0 10 -10v-45q0 -10 -10 -10h-316q-10 0 -10 10zM87 693q0 7 9 7h41q8 0 12 -6l53 -79q1 -1 3 -1t3 1l51 78q5 7 12 7h42
q6 0 8 -3.5t-2 -8.5l-74 -106q-4 -6 -12 -6h-59q-8 0 -12 6l-73 106z" />
    <glyph glyph-name="uni018F" unicode="&#x18f;" horiz-adv-x="553" 
d="M489 316q0 -93 -6 -143q-10 -83 -65.5 -133t-143.5 -50q-93 0 -149 53t-64 142q-4 37 -4 81l1 61q0 10 10 10h346q4 0 4 4q0 75 -4 106q-6 58 -45 94t-100 36q-51 0 -87.5 -27.5t-51.5 -73.5q-3 -9 -13 -6l-43 12q-9 3 -8 13q19 67 73 105.5t133 38.5q87 0 143 -49
t67 -131q7 -51 7 -143zM371 88q38 36 44 95q3 35 3 93q0 4 -4 4h-282q-4 0 -4 -4q2 -72 4 -92q5 -59 44 -95.5t98 -36.5t97 36z" />
    <glyph glyph-name="florin" unicode="&#x192;" horiz-adv-x="507" 
d="M292 644q21 35 60 48.5t107 10.5q10 0 10 -10l-1 -43q0 -10 -10 -10h-27q-48 0 -69 -25.5t-31 -82.5l-21 -132q0 -4 3 -4h82q10 0 10 -10v-39q0 -10 -10 -10h-91q-5 0 -5 -4l-60 -376q-10 -66 -31 -101t-60 -48.5t-107 -10.5q-10 0 -10 10l1 43q0 10 10 10h28
q47 0 68.5 25.5t30.5 82.5l58 365q0 4 -3 4h-66q-10 0 -10 10v39q0 10 10 10h75q5 0 5 4l23 143q10 66 31 101z" />
    <glyph glyph-name="Ohorn" unicode="&#x1a0;" horiz-adv-x="539" 
d="M510 770q-4 -45 -30.5 -73t-65.5 -35q-5 -2 -2 -5q63 -57 63 -153v-309q0 -60 -26 -106t-72.5 -71.5t-107.5 -25.5t-107.5 25.5t-72 71.5t-25.5 106v309q0 60 25.5 106.5t72 72t107.5 25.5q67 0 117 -31q2 -1 3.5 0t1.5 3v10q0 10 10 11q25 3 43 21t21 48q0 10 10 10h25
q10 0 10 -10zM404 506q0 63 -37 101.5t-98 38.5q-60 0 -97 -38.5t-37 -101.5v-314q0 -62 37 -100t97 -38q61 0 98 38t37 100v314z" />
    <glyph glyph-name="ohorn" unicode="&#x1a1;" horiz-adv-x="475" 
d="M423 254q0 -76 -6 -116q-9 -67 -56.5 -106.5t-120.5 -39.5t-120 39.5t-57 106.5q-6 50 -6 116t6 114q9 66 56.5 106t120.5 40q26 0 56 -7q1 -1 5 -1q26 3 44.5 21t21.5 49q0 10 10 10h25q10 0 10 -10q-4 -62 -56 -94q-3 -2 0 -5q50 -38 61 -109q6 -40 6 -114zM352 253
q0 66 -4 102q-5 44 -34.5 70.5t-73.5 26.5t-73 -26.5t-35 -70.5q-4 -36 -4 -102t4 -102q5 -44 34.5 -70.5t73.5 -26.5q43 0 72.5 26.5t35.5 70.5q4 37 4 102z" />
    <glyph glyph-name="Uhorn" unicode="&#x1af;" horiz-adv-x="562" 
d="M590 770q-4 -45 -32 -74t-68 -35q-4 0 -4 -4v-457q0 -62 -25.5 -109t-72 -73t-107.5 -26t-107.5 26t-72 73t-25.5 109v490q0 10 10 10h51q10 0 10 -10v-494q0 -64 37 -103t97 -39t97 39t37 103v494q0 10 10 10h46q27 0 48 18t25 52q0 10 10 10h26q10 0 10 -10z" />
    <glyph glyph-name="uhorn" unicode="&#x1b0;" horiz-adv-x="481" 
d="M496 576q-3 -41 -25.5 -68t-57.5 -37q-3 -1 -3 -5v-456q0 -10 -10 -10h-51q-10 0 -10 10v39q0 3 -1.5 3t-3.5 -2q-35 -57 -116 -57q-68 0 -111 40t-43 116v347q0 10 10 10h51q10 0 10 -10v-329q0 -53 26 -82.5t73 -29.5q49 0 77 31.5t28 84.5v325q0 10 10 10h27
q28 0 49 18t25 52q0 10 10 10h26q10 0 10 -10z" />
    <glyph glyph-name="uni01CD" unicode="&#x1cd;" horiz-adv-x="508" 
d="M411 9l-33 125q-1 3 -5 3h-239q-4 0 -5 -3l-33 -125q-2 -9 -11 -9h-52q-5 0 -7.5 3t-1.5 8l187 680q2 9 11 9h64q9 0 11 -9l187 -680l1 -3q0 -8 -10 -8h-53q-9 0 -11 9zM146.5 196.5q1.5 -1.5 3.5 -1.5h207q2 0 3.5 1.5t0.5 2.5l-106 402q-1 2 -2 2t-2 -2l-105 -402
q-1 -1 0.5 -2.5zM137 885q0 7 9 7h41q8 0 12 -6l53 -79q1 -1 3 -1t3 1l51 78q5 7 12 7h42q6 0 8 -3.5t-2 -8.5l-74 -106q-4 -6 -12 -6h-59q-8 0 -12 6l-73 106z" />
    <glyph glyph-name="uni01CE" unicode="&#x1ce;" horiz-adv-x="461" 
d="M357.5 468q45.5 -46 45.5 -122v-336q0 -10 -10 -10h-51q-10 0 -10 10v36q0 2 -1.5 3t-3.5 -1q-22 -28 -56 -42t-76 -14q-63 0 -107.5 34t-44.5 111q0 80 51.5 121.5t140.5 41.5h93q4 0 4 4v38q0 51 -25.5 80.5t-75.5 29.5q-39 0 -65 -19.5t-31 -51.5q-1 -9 -11 -9l-55 3
q-5 0 -7.5 3t-1.5 7q7 58 54.5 93.5t117.5 35.5q80 0 125.5 -46zM295.5 81.5q36.5 27.5 36.5 76.5v81q0 4 -4 4h-88q-57 0 -91 -26.5t-34 -75.5q0 -44 26 -65.5t68 -21.5q50 0 86.5 27.5zM114 691q0 7 9 7h41q8 0 12 -6l53 -79q1 -1 3 -1t3 1l51 78q5 7 12 7h42q6 0 8 -3.5
t-2 -8.5l-74 -106q-4 -6 -12 -6h-59q-8 0 -12 6l-73 106z" />
    <glyph glyph-name="uni01D4" unicode="&#x1d4;" horiz-adv-x="481" 
d="M349 506h51q10 0 10 -10v-486q0 -10 -10 -10h-51q-10 0 -10 10v39q0 3 -1.5 3t-3.5 -2q-35 -57 -116 -57q-68 0 -111 40t-43 116v347q0 10 10 10h51q10 0 10 -10v-329q0 -53 26 -82.5t73 -29.5q49 0 77 31.5t28 84.5v325q0 10 10 10zM123 691q0 7 9 7h41q8 0 12 -6
l53 -79q1 -1 3 -1t3 1l51 78q5 7 12 7h42q6 0 8 -3.5t-2 -8.5l-74 -106q-4 -6 -12 -6h-59q-8 0 -12 6l-73 106z" />
    <glyph glyph-name="uni01E5" unicode="&#x1e5;" horiz-adv-x="490" 
d="M488 267v-27q0 -10 -10 -10h-61q-4 0 -4 -4v-212q0 -226 -247 -215q-10 1 -10 11l1 45q0 5 3 7.5t7 1.5q94 -3 134.5 34.5t40.5 119.5v33q0 2 -1.5 3t-3.5 -1q-39 -56 -116 -56q-64 0 -107 38.5t-53 104.5q-6 44 -6 113q0 75 7 118q8 65 50.5 104t106.5 39q78 0 118 -55
q2 -2 3.5 -1.5t1.5 2.5v36q0 10 10 10h51q10 0 10 -10v-215q0 -4 4 -4h61q10 0 10 -10zM307.5 85q27.5 27 31.5 69q3 32 3 72q0 4 -4 4h-104q-10 0 -10 10v27q0 10 10 10h104q4 0 4 4q0 42 -3 75q-4 42 -31.5 69t-70.5 27t-71.5 -27t-34.5 -69q-4 -36 -4 -102q0 -50 4 -100
q5 -42 34 -69t72 -27t70.5 27z" />
    <glyph glyph-name="gcaron" unicode="&#x1e7;" horiz-adv-x="474" 
d="M352 506h51q10 0 10 -10v-482q0 -226 -247 -215q-10 1 -10 11l1 45q0 5 3 7.5t7 1.5q94 -3 134.5 34.5t40.5 119.5v33q0 2 -1.5 3t-3.5 -1q-39 -56 -116 -56q-64 0 -107 38.5t-53 104.5q-6 44 -6 113q0 75 7 118q8 65 50.5 104t106.5 39q78 0 118 -55q2 -2 3.5 -1.5
t1.5 2.5v36q0 10 10 10zM342 254q0 60 -3 102q-4 42 -31.5 69t-70.5 27t-71.5 -27t-34.5 -69q-4 -36 -4 -102q0 -50 4 -100q5 -42 34 -69t72 -27t70.5 27t31.5 69q3 39 3 100zM126 691q0 7 9 7h41q8 0 12 -6l53 -79q1 -1 3 -1t3 1l51 78q5 7 12 7h42q6 0 8 -3.5t-2 -8.5
l-74 -106q-4 -6 -12 -6h-59q-8 0 -12 6l-73 106z" />
    <glyph glyph-name="uni01E9" unicode="&#x1e9;" horiz-adv-x="453" 
d="M70 10v680q0 10 10 10h51q10 0 10 -10v-406q0 -2 2 -3t3 1l181 218q5 6 12 6h57q6 0 8 -3.5t-2 -8.5l-114 -142q-2 -3 -1 -5l135 -335l1 -4q0 -8 -9 -8h-53q-8 0 -11 8l-109 286q-1 2 -3 2.5t-3 -1.5l-92 -111q-2 -4 -2 -5v-169q0 -10 -10 -10h-51q-10 0 -10 10zM114 885
q0 7 9 7h41q8 0 12 -6l53 -79q1 -1 3 -1t3 1l51 78q5 7 12 7h42q6 0 8 -3.5t-2 -8.5l-74 -106q-4 -6 -12 -6h-59q-8 0 -12 6l-73 106z" />
    <glyph glyph-name="uni01EF" unicode="&#x1ef;" horiz-adv-x="488" 
d="M198 257.5q1 -1.5 3 -1.5q117 -4 176 -67.5t59 -157.5q0 -75 -35 -127.5t-93.5 -79t-129.5 -26.5q-59 0 -113 17q-8 3 -8 12l2 42q0 6 3.5 8t8.5 0q53 -16 103 -16q82 0 136.5 42t54.5 128q0 70 -43 118.5t-134 48.5q-37 0 -83 -9h-4q-7 0 -9 6l-13 30q-1 2 -1 5q0 5 4 9
l215 197q2 2 1 3.5t-3 1.5h-221q-10 0 -10 10v45q0 10 10 10h312q10 0 10 -10v-47q0 -8 -5 -12l-192 -176q-2 -2 -1 -3.5zM124 691q0 7 9 7h41q8 0 12 -6l53 -79q1 -1 3 -1t3 1l51 78q5 7 12 7h42q6 0 8 -3.5t-2 -8.5l-74 -106q-4 -6 -12 -6h-59q-8 0 -12 6l-73 106z" />
    <glyph glyph-name="oslashacute" unicode="&#x1ff;" horiz-adv-x="471" 
d="M421 254q0 -66 -6 -116q-9 -66 -57 -106t-120 -40q-53 0 -95 22q-4 2 -5 -1l-26 -46q-2 -4 -6 -4.5t-8 1.5l-35 23q-8 5 -3 13l30 56q2 3 0 6q-23 32 -29 76q-6 40 -6 116t6 114q9 66 56.5 106t120.5 40q52 0 93 -21q4 -2 5 1l27 49q2 4 6 5t8 -2l35 -24q7 -6 3 -13
l-31 -57q-2 -3 0 -5q25 -34 31 -79q6 -49 6 -114zM132 140q2 -6 5 -1l162 291q1 4 -1 5q-26 17 -61 17q-43 0 -72.5 -26.5t-34.5 -70.5q-4 -36 -4 -102t4 -102zM349 253q0 75 -3 102l-3 14q-2 6 -5 1l-164 -293q-1 -4 1 -5q27 -18 63 -18q43 0 72.5 26.5t35.5 70.5
q3 28 3 102zM194 575.5q-2 3.5 1 8.5l61 109q5 7 12 7h43q6 0 7.5 -3.5t-1.5 -8.5l-69 -109q-5 -7 -12 -7h-34q-6 0 -8 3.5z" />
    <glyph glyph-name="uni0218" unicode="&#x218;" horiz-adv-x="500" 
d="M102.5 41.5q-55.5 49.5 -55.5 132.5v27q0 10 10 10h49q10 0 10 -10v-23q0 -56 38 -90t101 -34q59 0 93 32t34 84q0 34 -16 59t-47 46t-89 53q-62 33 -97.5 58t-57.5 61t-22 88q0 81 52 127t139 46q93 0 148 -51t55 -135v-23q0 -10 -10 -10h-50q-10 0 -10 10v22
q0 56 -36 90.5t-99 34.5q-56 0 -87.5 -29t-31.5 -82q0 -34 15 -57t43.5 -42t87.5 -51q68 -38 104.5 -64.5t58 -61t21.5 -84.5q0 -84 -54 -133.5t-147 -49.5q-94 0 -149.5 49.5zM190 -194.5q-2 3.5 1 8.5l61 109q5 7 12 7h43q6 0 7.5 -3.5t-1.5 -8.5l-69 -109q-5 -7 -12 -7
h-34q-6 0 -8 3.5z" />
    <glyph glyph-name="uni0219" unicode="&#x219;" horiz-adv-x="429" 
d="M95 32q-47 37 -47 95v9q0 10 10 10h49q10 0 10 -10v-7q0 -32 28.5 -55.5t73.5 -23.5q44 0 71 23t27 58q0 25 -15 42t-37 27t-61 23q-47 16 -78 32t-52.5 44.5t-21.5 72.5q0 64 45 101.5t119 37.5q76 0 121.5 -39t45.5 -100v-2q0 -10 -10 -10h-46q-10 0 -10 10v4
q0 34 -27.5 56.5t-73.5 22.5q-43 0 -69.5 -21.5t-26.5 -55.5q0 -35 26.5 -53t83.5 -38q49 -16 81 -32t54.5 -44.5t22.5 -73.5q0 -64 -46 -102t-123 -38t-124 37zM162 -191.5q-2 3.5 1 8.5l61 109q5 7 12 7h43q6 0 7.5 -3.5t-1.5 -8.5l-69 -109q-5 -7 -12 -7h-34q-6 0 -8 3.5
z" />
    <glyph glyph-name="uni021A" unicode="&#x21a;" horiz-adv-x="496" 
d="M457 690v-42q0 -10 -10 -10h-163q-4 0 -4 -4v-624q0 -10 -10 -10h-51q-10 0 -10 10v624q0 4 -4 4h-157q-10 0 -10 10v42q0 10 10 10h399q10 0 10 -10zM140 -187.5q-2 3.5 1 8.5l61 109q5 7 12 7h43q6 0 7.5 -3.5t-1.5 -8.5l-69 -109q-5 -7 -12 -7h-34q-6 0 -8 3.5z" />
    <glyph glyph-name="uni021B" unicode="&#x21b;" horiz-adv-x="315" 
d="M263 450h-95q-4 0 -4 -4v-300q0 -47 18.5 -65.5t59.5 -18.5h17q10 0 10 -10v-42q0 -10 -10 -10l-31 -1q-65 0 -99 26.5t-34 98.5v322q0 4 -4 4h-50q-10 0 -10 10v36q0 10 10 10h50q4 0 4 4v114q0 10 10 10h49q10 0 10 -10v-114q0 -4 4 -4h95q10 0 10 -10v-36
q0 -10 -10 -10zM136 -177.5q-2 3.5 1 8.5l61 109q5 7 12 7h43q6 0 7.5 -3.5t-1.5 -8.5l-69 -109q-5 -7 -12 -7h-34q-6 0 -8 3.5z" />
    <glyph glyph-name="uni021F" unicode="&#x21f;" horiz-adv-x="482" 
d="M376.5 468.5q40.5 -44.5 40.5 -121.5v-337q0 -10 -10 -10h-51q-10 0 -10 10v327q0 52 -27 83t-74 31t-75.5 -31.5t-28.5 -84.5v-325q0 -10 -10 -10h-51q-10 0 -10 10v680q0 10 10 10h51q10 0 10 -10v-233q0 -2 1.5 -3t3.5 1q39 58 120 58q70 0 110.5 -44.5zM126 885
q0 7 9 7h41q8 0 12 -6l53 -79q1 -1 3 -1t3 1l51 78q5 7 12 7h42q6 0 8 -3.5t-2 -8.5l-74 -106q-4 -6 -12 -6h-59q-8 0 -12 6l-73 106z" />
    <glyph glyph-name="uni0228" unicode="&#x228;" horiz-adv-x="517" 
d="M458 638h-300q-4 0 -4 -4v-248q0 -4 4 -4h202q10 0 10 -10v-42q0 -10 -10 -10h-202q-4 0 -4 -4v-250q0 -4 4 -4h300q10 0 10 -10v-42q0 -10 -10 -10h-150q-5 0 -2 -5q44 -41 44 -91q0 -8 -2 -22q-7 -32 -29.5 -46t-52.5 -14q-18 0 -36 5q-8 3 -7 12l3 21q1 5 4.5 7t7.5 1
q6 -2 18 -2q19 0 31 11.5t12 35.5q0 39 -49 85q-2 2 -5 2h-152q-10 0 -10 10v680q0 10 10 10h365q10 0 10 -10v-42q0 -10 -10 -10z" />
    <glyph glyph-name="uni0229" unicode="&#x229;" horiz-adv-x="470" 
d="M306.5 73.5q27.5 19.5 39.5 52.5q3 9 12 7l46 -9q5 -1 6.5 -4.5t0.5 -7.5q-14 -48 -50 -79t-88 -38q-5 -2 -2 -5q43 -43 43 -89q0 -11 -3 -23q-7 -32 -30 -46t-54 -14q-14 0 -34 4q-8 3 -7 12l3 22q1 5 4.5 7t7.5 1q6 -2 18 -2q36 0 43 35q1 3 1 10q0 41 -46 84
q-1 2 -5 2q-61 7 -99.5 45t-48.5 97q-4 25 -5 59t-1 56.5v31.5q0 51 4 83q8 67 55.5 108t119.5 41q77 0 125 -44t54 -116q3 -33 3 -121q0 -10 -10 -10h-276q-4 0 -4 -4q0 -31 2 -69q5 -43 34.5 -69.5t75.5 -26.5q38 0 65.5 19.5zM164.5 425.5q-28.5 -26.5 -33.5 -69.5
q-2 -42 -2 -70q0 -4 4 -4h211q4 0 4 4q0 29 -4 69q-5 43 -33.5 70t-72.5 27q-45 0 -73.5 -26.5z" />
    <glyph glyph-name="uni0237" unicode="&#x237;" horiz-adv-x="220" 
d="M-32 -198v42q0 10 10 10q47 1 70.5 27t23.5 75l-1 540q0 10 10 10h52q10 0 10 -10v-540q0 -84 -37.5 -124t-127.5 -40q-10 0 -10 10z" />
    <glyph glyph-name="uni0259" unicode="&#x259;" horiz-adv-x="470" 
d="M413 253q0 -80 -5 -112q-8 -67 -55.5 -108t-118.5 -41q-77 0 -125 44t-54 116q-3 33 -3 121q0 10 10 10h276q4 0 4 4q0 41 -3 69q-5 43 -34.5 69.5t-74.5 26.5q-38 0 -66 -19.5t-40 -52.5q-3 -9 -12 -7l-45 9q-5 1 -6.5 4.5t-0.5 7.5q17 56 61.5 88t109.5 32
q72 0 118 -38.5t57 -104.5q7 -41 7 -118zM305.5 80.5q28.5 26.5 33.5 69.5q3 32 3 70q0 4 -4 4h-211q-4 0 -4 -4q0 -39 3 -69q5 -44 34 -70.5t73 -26.5t72.5 26.5z" />
    <glyph glyph-name="uni0292" unicode="&#x292;" horiz-adv-x="488" 
d="M198 257.5q1 -1.5 3 -1.5q117 -4 176 -67.5t59 -157.5q0 -75 -35 -127.5t-93.5 -79t-129.5 -26.5q-59 0 -113 17q-8 3 -8 12l2 42q0 6 3.5 8t8.5 0q53 -16 103 -16q82 0 136.5 42t54.5 128q0 70 -43 118.5t-134 48.5q-37 0 -83 -9h-4q-7 0 -9 6l-13 30q-1 2 -1 5q0 5 4 9
l215 197q2 2 1 3.5t-3 1.5h-221q-10 0 -10 10v45q0 10 10 10h312q10 0 10 -10v-47q0 -8 -5 -12l-192 -176q-2 -2 -1 -3.5z" />
    <glyph glyph-name="uni02BB" unicode="&#x2bb;" horiz-adv-x="132" 
d="M3 693q0 7 9 7h53q8 0 11 -8l53 -186l1 -3q0 -8 -10 -8h-37q-9 0 -12 8l-67 186z" />
    <glyph glyph-name="uni02BC" unicode="&#x2bc;" horiz-adv-x="132" 
d="M128 689l-68 -186q-3 -8 -12 -8h-36q-5 0 -7.5 3t-1.5 8l53 186q3 8 11 8h53q11 0 8 -11z" />
    <glyph glyph-name="circumflex" unicode="&#x2c6;" horiz-adv-x="246" 
d="M32 579.5q-2 3.5 1 8.5l73 106q4 6 12 6h59q8 0 12 -6l74 -106q2 -2 2 -6q0 -2 -2 -4t-6 -2h-42q-7 0 -12 7l-51 78q-1 2 -3 2t-3 -2l-53 -79q-4 -6 -12 -6h-41q-6 0 -8 3.5z" />
    <glyph glyph-name="caron" unicode="&#x2c7;" horiz-adv-x="299" 
d="M32 693q0 7 9 7h41q8 0 12 -6l53 -79q1 -1 3 -1t3 1l51 78q5 7 12 7h42q6 0 8 -3.5t-2 -8.5l-74 -106q-4 -6 -12 -6h-59q-8 0 -12 6l-73 106z" />
    <glyph glyph-name="uni02C9" unicode="&#x2c9;" horiz-adv-x="236" 
d="M0 658v32q0 10 10 10h216q10 0 10 -10v-32q0 -10 -10 -10h-216q-10 0 -10 10z" />
    <glyph glyph-name="breve" unicode="&#x2d8;" horiz-adv-x="279" 
d="M62.5 587.5q-31.5 27.5 -36.5 70.5q0 10 10 10h26q10 0 11 -10q3 -25 22 -41.5t45 -16.5t44.5 16.5t21.5 41.5q1 10 11 10h27q10 0 10 -10q-4 -43 -36 -70.5t-78 -27.5t-77.5 27.5z" />
    <glyph glyph-name="dotaccent" unicode="&#x2d9;" horiz-adv-x="163" 
d="M41.5 614q-15.5 16 -15.5 40q0 25 15.5 40.5t40.5 15.5q24 0 40 -15.5t16 -40.5q0 -24 -16 -40t-40 -16q-25 0 -40.5 16z" />
    <glyph glyph-name="ring" unicode="&#x2da;" horiz-adv-x="267" 
d="M56 610q-31 31 -31 77q0 45 31 76.5t77 31.5t77 -31.5t31 -76.5q0 -46 -31 -77t-77 -31t-77 31zM178 641q19 19 19 46q0 28 -19 47t-45 19q-27 0 -46 -19t-19 -47t19 -46.5t46 -18.5q26 0 45 19z" />
    <glyph glyph-name="ogonek" unicode="&#x2db;" horiz-adv-x="130" 
d="M127 -173q0 -6 -7 -9q-20 -4 -34 -4q-36 0 -61 19t-25 63q0 54 53 100q5 4 13 4h26q7 0 8.5 -4t-3.5 -8q-46 -43 -46 -82q0 -8 1 -12q6 -36 42 -36q12 0 18 2l3 1q7 0 9 -9l3 -22v-3z" />
    <glyph glyph-name="tilde" unicode="&#x2dc;" horiz-adv-x="333" 
d="M190.5 612q-13.5 6 -28.5 16q-4 2 -13.5 8.5t-17.5 9t-16 2.5q-16 0 -27 -5.5t-22 -20.5q-6 -9 -14 -3l-19 15q-7 7 -3 14q29 51 81 51q17 0 30.5 -6t30.5 -17q3 -2 13 -8.5t18.5 -9.5t16.5 -3q29 0 47 29q6 9 14 3l19 -14q4 -4 4 -8t-3 -10q-15 -25 -37.5 -37t-44.5 -12
q-15 0 -28.5 6z" />
    <glyph glyph-name="hungarumlaut" unicode="&#x2dd;" horiz-adv-x="333" 
d="M31 583.5q-2 3.5 1 8.5l60 109q3 7 12 7h43q6 0 7.5 -3.5t-1.5 -8.5l-68 -109q-5 -7 -12 -7h-34q-6 0 -8 3.5zM178 583.5q-2 3.5 1 8.5l60 109q3 7 12 7h43q6 0 7.5 -3.5t-1.5 -8.5l-68 -109q-5 -7 -12 -7h-34q-6 0 -8 3.5z" />
    <glyph glyph-name="gravecomb" unicode="&#x300;" 
d="M-5 578q0 -6 -9 -6h-34q-7 0 -12 7l-68 109q-2 4 -2 6q0 6 8 6h43q9 0 12 -7l60 -109q2 -4 2 -6z" />
    <glyph glyph-name="acutecomb" unicode="&#x301;" 
d="M-162 575.5q-2 3.5 1 8.5l61 109q5 7 12 7h43q6 0 7.5 -3.5t-1.5 -8.5l-69 -109q-5 -7 -12 -7h-34q-6 0 -8 3.5z" />
    <glyph glyph-name="uni0302" unicode="&#x302;" 
d="M-266 579.5q-2 3.5 1 8.5l73 106q4 6 12 6h59q8 0 12 -6l74 -106q2 -2 2 -6q0 -2 -2 -4t-6 -2h-42q-7 0 -12 7l-51 78q-1 2 -3 2t-3 -2l-53 -79q-4 -6 -12 -6h-41q-6 0 -8 3.5z" />
    <glyph glyph-name="tildecomb" unicode="&#x303;" 
d="M-116.5 612q-13.5 6 -28.5 16q-4 2 -13.5 8.5t-17.5 9t-16 2.5q-16 0 -27 -5.5t-22 -20.5q-6 -9 -14 -3l-19 15q-7 7 -3 14q29 51 81 51q17 0 30.5 -6t30.5 -17q3 -2 13 -8.5t18.5 -9.5t16.5 -3q29 0 47 29q6 9 14 3l19 -14q4 -4 4 -8t-3 -10q-15 -25 -37.5 -37
t-44.5 -12q-15 0 -28.5 6z" />
    <glyph glyph-name="uni0304" unicode="&#x304;" 
d="M-236 631v32q0 10 10 10h216q10 0 10 -10v-32q0 -10 -10 -10h-216q-10 0 -10 10z" />
    <glyph glyph-name="uni0306" unicode="&#x306;" 
d="M-217 607.5q-32 27.5 -36 69.5q0 10 10 10h24q10 0 10 -10q4 -25 23.5 -41.5t46.5 -16.5q26 0 45 16.5t23 41.5q1 10 11 10h25q10 0 9 -10q-4 -42 -35.5 -69.5t-77.5 -27.5t-78 27.5z" />
    <glyph glyph-name="uni0307" unicode="&#x307;" 
d="M-100.5 614q-15.5 16 -15.5 40q0 25 15.5 40.5t40.5 15.5q24 0 40 -15.5t16 -40.5q0 -24 -16 -40t-40 -16q-25 0 -40.5 16z" />
    <glyph glyph-name="uni0308" unicode="&#x308;" 
d="M-96.5 615q-15.5 16 -15.5 40q0 25 15.5 40.5t40.5 15.5q24 0 40 -15.5t16 -40.5q0 -24 -16 -40t-40 -16q-25 0 -40.5 16zM-256.5 615q-15.5 16 -15.5 40q0 25 15.5 40.5t40.5 15.5q24 0 40 -15.5t16 -40.5q0 -24 -16 -40t-40 -16q-25 0 -40.5 16z" />
    <glyph glyph-name="hookabovecomb" unicode="&#x309;" 
d="M-333 556.5q-2 3.5 0 7.5q7 15 16 27t18 21q13 12 19 21.5t6 24.5t-12.5 25.5t-29.5 10.5t-28.5 -7.5t-25.5 -27.5q-6 -9 -14 -3l-16 11q-8 6 -3 14q19 29 38 41t51 12q37 0 60.5 -21t23.5 -55q0 -22 -9 -36t-29 -35q-21 -19 -28 -33q-3 -7 -12 -6l-18 4q-5 1 -7 4.5z
" />
    <glyph glyph-name="uni030A" unicode="&#x30a;" 
d="M-178 610q-31 31 -31 77q0 45 31 76.5t77 31.5t77 -31.5t31 -76.5q0 -46 -31 -77t-77 -31t-77 31zM-56 641q19 19 19 46q0 28 -19 47t-45 19q-27 0 -46 -19t-19 -47t19 -46.5t46 -18.5q26 0 45 19z" />
    <glyph glyph-name="uni030B" unicode="&#x30b;" 
d="M-296 575.5q-2 3.5 0 8.5l56 109q3 7 12 7h44q6 0 8 -3.5t-1 -8.5l-60 -109q-3 -7 -12 -7h-40q-5 0 -7 3.5zM-152.5 575.5q-2.5 3.5 0.5 8.5l59 109q3 7 12 7h41q6 0 8 -3.5t-1 -8.5l-60 -109q-3 -7 -12 -7h-40q-5 0 -7.5 3.5z" />
    <glyph glyph-name="uni030C" unicode="&#x30c;" 
d="M-267 693q0 7 9 7h41q8 0 12 -6l53 -79q1 -1 3 -1t3 1l51 78q5 7 12 7h42q6 0 8 -3.5t-2 -8.5l-74 -106q-4 -6 -12 -6h-59q-8 0 -12 6l-73 106z" />
    <glyph glyph-name="uni0312" unicode="&#x312;" 
d="M-32 696.5q2 -3.5 -1 -8.5l-60 -109q-3 -7 -12 -7h-43q-6 0 -7.5 3.5t1.5 8.5l68 109q5 7 12 7h34q6 0 8 -3.5z" />
    <glyph glyph-name="uni0313" unicode="&#x313;" 
d="M-133 575.5q-2 3.5 1 8.5l61 109q5 7 12 7h43q6 0 7.5 -3.5t-1.5 -8.5l-69 -109q-5 -7 -12 -7h-34q-6 0 -8 3.5z" />
    <glyph glyph-name="uni031B" unicode="&#x31b;" 
d="M-136 476v20q0 10 10 11q25 3 43 21t21 48q0 10 10 10h25q10 0 10 -13q-4 -47 -34.5 -75t-74.5 -32q-10 0 -10 10z" />
    <glyph glyph-name="dotbelowcomb" unicode="&#x323;" 
d="M-99 -172q-15 15 -15 38t15 38t38 15t38 -15t15 -38t-15 -38t-38 -15t-38 15z" />
    <glyph glyph-name="uni0326" unicode="&#x326;" 
d="M-162 -186.5q-2 3.5 1 8.5l61 109q5 7 12 7h43q6 0 7.5 -3.5t-1.5 -8.5l-69 -109q-5 -7 -12 -7h-34q-6 0 -8 3.5z" />
    <glyph glyph-name="uni0327" unicode="&#x327;" 
d="M-127 -170l3 22q1 5 4.5 7t7.5 1q6 -2 18 -2q19 0 31.5 11.5t12.5 35.5q0 39 -46 83q-4 3 -4 7q0 5 8 5h27q5 0 10 -3q3 -2 3 -4q52 -44 52 -97q0 -44 -24.5 -62.5t-59.5 -18.5q-21 0 -36 4q-8 1 -7 11z" />
    <glyph glyph-name="uni0328" unicode="&#x328;" 
d="M-3 -173q0 -6 -8 -9q-20 -4 -34 -4q-36 0 -60.5 19t-24.5 64q0 53 51 96l2 2t1 2q4 3 11 3h27q8 0 8 -5q0 -4 -4 -7q-45 -42 -45 -81q0 -9 1 -13q6 -36 42 -36q12 0 18 2l3 1q7 0 9 -9l3 -22v-3z" />
    <glyph glyph-name="uni0335" unicode="&#x335;" 
d="M-283 617h272q10 0 10 -10v-27q0 -10 -10 -10h-272q-10 0 -10 10v27q0 10 10 10z" />
    <glyph glyph-name="uni0336" unicode="&#x336;" 
d="M-507 526v31q0 10 10 10h487q10 0 10 -10v-31q0 -10 -10 -10h-487q-10 0 -10 10z" />
    <glyph glyph-name="uni0337" unicode="&#x337;" 
d="M-341 87q-5 0 -8 4l-23 28q-2 2 -2 6q0 5 4 8l393 292q2 2 6 2q5 0 8 -4l23 -28q2 -2 2 -6q0 -5 -4 -8l-393 -292q-2 -2 -6 -2z" />
    <glyph glyph-name="uni0338" unicode="&#x338;" 
d="M-399.5 -35.5q-2.5 3.5 -0.5 8.5l341 764q3 8 11 8h35q5 0 7.5 -3.5t0.5 -8.5l-342 -764q-3 -8 -11 -8h-34q-5 0 -7.5 3.5z" />
    <glyph glyph-name="uni0394" unicode="&#x394;" horiz-adv-x="568" 
d="M21 10v46q0 4 2 12l230 624q3 8 12 8h38q9 0 12 -8l230 -625q2 -8 2 -12v-45q0 -10 -10 -10h-506q-10 0 -10 10zM93 63.5q1 -1.5 3 -1.5h377q2 0 3 1.5t0 3.5l-189 536q-1 2 -3 2t-3 -2l-188 -536q-1 -2 0 -3.5z" />
    <glyph glyph-name="uni03A9" unicode="&#x3a9;" horiz-adv-x="561" 
d="M64 10v42q0 10 10 10h69q2 0 2.5 1.5t-1.5 3.5q-33 23 -50.5 62t-17.5 88v287q0 60 25.5 106.5t72 72t107.5 25.5t107.5 -25.5t72.5 -72t26 -106.5v-287q0 -49 -18 -87.5t-51 -62.5q-2 -2 -1.5 -3.5t2.5 -1.5h69q10 0 10 -10v-42q0 -10 -10 -10h-165q-10 0 -10 10v44
q0 8 9 11q39 8 66.5 45.5t27.5 90.5v306q0 62 -37 100.5t-98 38.5q-60 0 -97 -38.5t-37 -100.5v-306q0 -52 27.5 -89.5t64.5 -46.5q9 -3 9 -11v-44q0 -10 -10 -10h-164q-10 0 -10 10z" />
    <glyph glyph-name="uni03BC" unicode="&#x3bc;" horiz-adv-x="488" 
d="M356 506h50q10 0 10 -10v-486q0 -10 -10 -10h-50q-10 0 -10 10v39q0 3 -1.5 3t-3.5 -2q-35 -57 -117 -57q-43 0 -78 18q-5 2 -5 -3v-198q0 -10 -10 -10h-51q-10 0 -10 10v686q0 10 10 10h51q10 0 10 -10v-329q0 -53 26.5 -82.5t73.5 -29.5q48 0 76.5 31.5t28.5 84.5v325
q0 10 10 10z" />
    <glyph glyph-name="pi" unicode="&#x3c0;" horiz-adv-x="577" 
d="M531 445h-60q-4 0 -4 -4v-311q0 -40 12.5 -53t42.5 -14q10 0 10 -10v-43q0 -10 -10 -10q-39 0 -65.5 6.5t-44 28t-16.5 64.5v342q0 4 -4 4h-201q-4 0 -4 -4v-431q0 -10 -10 -10h-51q-10 0 -10 10v431q0 4 -4 4h-66q-10 0 -10 10v41q0 10 10 10h485q10 0 10 -10v-41
q0 -10 -10 -10z" />
    <glyph glyph-name="Wgrave" unicode="&#x1e80;" horiz-adv-x="758" 
d="M190 9l-161 680l-1 4q0 7 9 7h54q9 0 11 -9l122 -537q1 -3 2.5 -3t2.5 3l111 537q2 9 11 9h50q10 0 11 -9l115 -537q1 -3 2 -3t2 3l119 537q2 9 11 9h52q10 0 8 -11l-156 -680q-2 -9 -11 -9h-51q-9 0 -11 9l-114 545q-1 3 -2 3t-2 -3l-113 -545q-1 -9 -11 -9h-49
q-9 0 -11 9zM404 772q0 -6 -9 -6h-34q-7 0 -12 7l-68 109q-2 4 -2 6q0 6 8 6h43q9 0 12 -7l60 -109q2 -4 2 -6z" />
    <glyph glyph-name="wgrave" unicode="&#x1e81;" horiz-adv-x="638" 
d="M152 9l-123 486l-1 4q0 7 9 7h50q9 0 11 -9l90 -384q1 -3 2 -3t2 3l91 384q2 9 11 9h46q10 0 11 -9l93 -383q1 -3 2 -3t2 3l91 383q2 9 11 9l51 -1q5 0 7.5 -3t0.5 -8l-125 -485q-1 -9 -11 -9h-52q-9 0 -11 9l-91 370q-1 3 -2.5 3t-2.5 -3l-88 -370q-2 -9 -11 -9h-52
q-9 0 -11 9zM342 578q0 -6 -9 -6h-34q-7 0 -12 7l-68 109q-2 4 -2 6q0 6 8 6h43q9 0 12 -7l60 -109q2 -4 2 -6z" />
    <glyph glyph-name="Wacute" unicode="&#x1e82;" horiz-adv-x="758" 
d="M190 9l-161 680l-1 4q0 7 9 7h54q9 0 11 -9l122 -537q1 -3 2.5 -3t2.5 3l111 537q2 9 11 9h50q10 0 11 -9l115 -537q1 -3 2 -3t2 3l119 537q2 9 11 9h52q10 0 8 -11l-156 -680q-2 -9 -11 -9h-51q-9 0 -11 9l-114 545q-1 3 -2 3t-2 -3l-113 -545q-1 -9 -11 -9h-49
q-9 0 -11 9zM337 769.5q-2 3.5 1 8.5l61 109q5 7 12 7h43q6 0 7.5 -3.5t-1.5 -8.5l-69 -109q-5 -7 -12 -7h-34q-6 0 -8 3.5z" />
    <glyph glyph-name="wacute" unicode="&#x1e83;" horiz-adv-x="638" 
d="M152 9l-123 486l-1 4q0 7 9 7h50q9 0 11 -9l90 -384q1 -3 2 -3t2 3l91 384q2 9 11 9h46q10 0 11 -9l93 -383q1 -3 2 -3t2 3l91 383q2 9 11 9l51 -1q5 0 7.5 -3t0.5 -8l-125 -485q-1 -9 -11 -9h-52q-9 0 -11 9l-91 370q-1 3 -2.5 3t-2.5 -3l-88 -370q-2 -9 -11 -9h-52
q-9 0 -11 9zM275 575.5q-2 3.5 1 8.5l61 109q5 7 12 7h43q6 0 7.5 -3.5t-1.5 -8.5l-69 -109q-5 -7 -12 -7h-34q-6 0 -8 3.5z" />
    <glyph glyph-name="Wdieresis" unicode="&#x1e84;" horiz-adv-x="758" 
d="M190 9l-161 680l-1 4q0 7 9 7h54q9 0 11 -9l122 -537q1 -3 2.5 -3t2.5 3l111 537q2 9 11 9h50q10 0 11 -9l115 -537q1 -3 2 -3t2 3l119 537q2 9 11 9h52q10 0 8 -11l-156 -680q-2 -9 -11 -9h-51q-9 0 -11 9l-114 545q-1 3 -2 3t-2 -3l-113 -545q-1 -9 -11 -9h-49
q-9 0 -11 9zM418.5 809q-15.5 16 -15.5 40q0 25 15.5 40.5t40.5 15.5q24 0 40 -15.5t16 -40.5q0 -24 -16 -40t-40 -16q-25 0 -40.5 16zM258.5 809q-15.5 16 -15.5 40q0 25 15.5 40.5t40.5 15.5q24 0 40 -15.5t16 -40.5q0 -24 -16 -40t-40 -16q-25 0 -40.5 16z" />
    <glyph glyph-name="wdieresis" unicode="&#x1e85;" horiz-adv-x="638" 
d="M152 9l-123 486l-1 4q0 7 9 7h50q9 0 11 -9l90 -384q1 -3 2 -3t2 3l91 384q2 9 11 9h46q10 0 11 -9l93 -383q1 -3 2 -3t2 3l91 383q2 9 11 9l51 -1q5 0 7.5 -3t0.5 -8l-125 -485q-1 -9 -11 -9h-52q-9 0 -11 9l-91 370q-1 3 -2.5 3t-2.5 -3l-88 -370q-2 -9 -11 -9h-52
q-9 0 -11 9zM356.5 615q-15.5 16 -15.5 40q0 25 15.5 40.5t40.5 15.5q24 0 40 -15.5t16 -40.5q0 -24 -16 -40t-40 -16q-25 0 -40.5 16zM196.5 615q-15.5 16 -15.5 40q0 25 15.5 40.5t40.5 15.5q24 0 40 -15.5t16 -40.5q0 -24 -16 -40t-40 -16q-25 0 -40.5 16z" />
    <glyph glyph-name="uni1EA0" unicode="&#x1ea0;" horiz-adv-x="508" 
d="M411 9l-33 125q-1 3 -5 3h-239q-4 0 -5 -3l-33 -125q-2 -9 -11 -9h-52q-5 0 -7.5 3t-1.5 8l187 680q2 9 11 9h64q9 0 11 -9l187 -680l1 -3q0 -8 -10 -8h-53q-9 0 -11 9zM146.5 196.5q1.5 -1.5 3.5 -1.5h207q2 0 3.5 1.5t0.5 2.5l-106 402q-1 2 -2 2t-2 -2l-105 -402
q-1 -1 0.5 -2.5zM217 -172q-15 15 -15 38t15 38t38 15t38 -15t15 -38t-15 -38t-38 -15t-38 15z" />
    <glyph glyph-name="uni1EA1" unicode="&#x1ea1;" horiz-adv-x="461" 
d="M357.5 468q45.5 -46 45.5 -122v-336q0 -10 -10 -10h-51q-10 0 -10 10v36q0 2 -1.5 3t-3.5 -1q-22 -28 -56 -42t-76 -14q-63 0 -107.5 34t-44.5 111q0 80 51.5 121.5t140.5 41.5h93q4 0 4 4v38q0 51 -25.5 80.5t-75.5 29.5q-39 0 -65 -19.5t-31 -51.5q-1 -9 -11 -9l-55 3
q-5 0 -7.5 3t-1.5 7q7 58 54.5 93.5t117.5 35.5q80 0 125.5 -46zM295.5 81.5q36.5 27.5 36.5 76.5v81q0 4 -4 4h-88q-57 0 -91 -26.5t-34 -75.5q0 -44 26 -65.5t68 -21.5q50 0 86.5 27.5zM193 -172q-15 15 -15 38t15 38t38 15t38 -15t15 -38t-15 -38t-38 -15t-38 15z" />
    <glyph glyph-name="uni1EA2" unicode="&#x1ea2;" horiz-adv-x="508" 
d="M411 9l-33 125q-1 3 -5 3h-239q-4 0 -5 -3l-33 -125q-2 -9 -11 -9h-52q-5 0 -7.5 3t-1.5 8l187 680q2 9 11 9h64q9 0 11 -9l187 -680l1 -3q0 -8 -10 -8h-53q-9 0 -11 9zM146.5 196.5q1.5 -1.5 3.5 -1.5h207q2 0 3.5 1.5t0.5 2.5l-106 402q-1 2 -2 2t-2 -2l-105 -402
q-1 -1 0.5 -2.5zM239 750.5q-2 3.5 0 7.5q7 15 16 27t18 21q13 12 19 21.5t6 24.5t-12.5 25.5t-29.5 10.5t-28.5 -7.5t-25.5 -27.5q-6 -9 -14 -3l-16 11q-8 6 -3 14q19 29 38 41t51 12q37 0 60.5 -21t23.5 -55q0 -22 -9 -36t-29 -35q-21 -19 -28 -33q-3 -7 -12 -6l-18 4
q-5 1 -7 4.5z" />
    <glyph glyph-name="uni1EA3" unicode="&#x1ea3;" horiz-adv-x="461" 
d="M357.5 468q45.5 -46 45.5 -122v-336q0 -10 -10 -10h-51q-10 0 -10 10v36q0 2 -1.5 3t-3.5 -1q-22 -28 -56 -42t-76 -14q-63 0 -107.5 34t-44.5 111q0 80 51.5 121.5t140.5 41.5h93q4 0 4 4v38q0 51 -25.5 80.5t-75.5 29.5q-39 0 -65 -19.5t-31 -51.5q-1 -9 -11 -9l-55 3
q-5 0 -7.5 3t-1.5 7q7 58 54.5 93.5t117.5 35.5q80 0 125.5 -46zM295.5 81.5q36.5 27.5 36.5 76.5v81q0 4 -4 4h-88q-57 0 -91 -26.5t-34 -75.5q0 -44 26 -65.5t68 -21.5q50 0 86.5 27.5zM216 556.5q-2 3.5 0 7.5q7 15 16 27t18 21q13 12 19 21.5t6 24.5t-12.5 25.5
t-29.5 10.5t-28.5 -7.5t-25.5 -27.5q-6 -9 -14 -3l-16 11q-8 6 -3 14q19 29 38 41t51 12q37 0 60.5 -21t23.5 -55q0 -22 -9 -36t-29 -35q-21 -19 -28 -33q-3 -7 -12 -6l-18 4q-5 1 -7 4.5z" />
    <glyph glyph-name="uni1EA4" unicode="&#x1ea4;" horiz-adv-x="508" 
d="M411 9l-33 125q-1 3 -5 3h-239q-4 0 -5 -3l-33 -125q-2 -9 -11 -9h-52q-5 0 -7.5 3t-1.5 8l187 680q2 9 11 9h64q9 0 11 -9l187 -680l1 -3q0 -8 -10 -8h-53q-9 0 -11 9zM146.5 196.5q1.5 -1.5 3.5 -1.5h207q2 0 3.5 1.5t0.5 2.5l-106 402q-1 2 -2 2t-2 -2l-105 -402
q-1 -1 0.5 -2.5zM137 773.5q-2 3.5 1 8.5l73 106q4 6 12 6h59q8 0 12 -6l74 -106q2 -2 2 -6q0 -2 -2 -4t-6 -2h-42q-7 0 -12 7l-51 78q-1 2 -3 2t-3 -2l-53 -79q-4 -6 -12 -6h-41q-6 0 -8 3.5zM371 846.5q-2 3.5 1 8.5l61 109q5 7 12 7h43q6 0 7.5 -3.5t-1.5 -8.5l-69 -109
q-5 -7 -12 -7h-34q-6 0 -8 3.5z" />
    <glyph glyph-name="uni1EA5" unicode="&#x1ea5;" horiz-adv-x="461" 
d="M357.5 468q45.5 -46 45.5 -122v-336q0 -10 -10 -10h-51q-10 0 -10 10v36q0 2 -1.5 3t-3.5 -1q-22 -28 -56 -42t-76 -14q-63 0 -107.5 34t-44.5 111q0 80 51.5 121.5t140.5 41.5h93q4 0 4 4v38q0 51 -25.5 80.5t-75.5 29.5q-39 0 -65 -19.5t-31 -51.5q-1 -9 -11 -9l-55 3
q-5 0 -7.5 3t-1.5 7q7 58 54.5 93.5t117.5 35.5q80 0 125.5 -46zM295.5 81.5q36.5 27.5 36.5 76.5v81q0 4 -4 4h-88q-57 0 -91 -26.5t-34 -75.5q0 -44 26 -65.5t68 -21.5q50 0 86.5 27.5zM114 579.5q-2 3.5 1 8.5l73 106q4 6 12 6h59q8 0 12 -6l74 -106q2 -2 2 -6
q0 -2 -2 -4t-6 -2h-42q-7 0 -12 7l-51 78q-1 2 -3 2t-3 -2l-53 -79q-4 -6 -12 -6h-41q-6 0 -8 3.5zM348 652.5q-2 3.5 1 8.5l61 109q5 7 12 7h43q6 0 7.5 -3.5t-1.5 -8.5l-69 -109q-5 -7 -12 -7h-34q-6 0 -8 3.5z" />
    <glyph glyph-name="uni1EA6" unicode="&#x1ea6;" horiz-adv-x="508" 
d="M411 9l-33 125q-1 3 -5 3h-239q-4 0 -5 -3l-33 -125q-2 -9 -11 -9h-52q-5 0 -7.5 3t-1.5 8l187 680q2 9 11 9h64q9 0 11 -9l187 -680l1 -3q0 -8 -10 -8h-53q-9 0 -11 9zM146.5 196.5q1.5 -1.5 3.5 -1.5h207q2 0 3.5 1.5t0.5 2.5l-106 402q-1 2 -2 2t-2 -2l-105 -402
q-1 -1 0.5 -2.5zM137 773.5q-2 3.5 1 8.5l73 106q4 6 12 6h59q8 0 12 -6l74 -106q2 -2 2 -6q0 -2 -2 -4t-6 -2h-42q-7 0 -12 7l-51 78q-1 2 -3 2t-3 -2l-53 -79q-4 -6 -12 -6h-41q-6 0 -8 3.5zM419 890q0 -6 -9 -6h-34q-7 0 -12 7l-68 109q-2 4 -2 6q0 6 8 6h43q9 0 12 -7
l60 -109q2 -4 2 -6z" />
    <glyph glyph-name="uni1EA7" unicode="&#x1ea7;" horiz-adv-x="461" 
d="M357.5 468q45.5 -46 45.5 -122v-336q0 -10 -10 -10h-51q-10 0 -10 10v36q0 2 -1.5 3t-3.5 -1q-22 -28 -56 -42t-76 -14q-63 0 -107.5 34t-44.5 111q0 80 51.5 121.5t140.5 41.5h93q4 0 4 4v38q0 51 -25.5 80.5t-75.5 29.5q-39 0 -65 -19.5t-31 -51.5q-1 -9 -11 -9l-55 3
q-5 0 -7.5 3t-1.5 7q7 58 54.5 93.5t117.5 35.5q80 0 125.5 -46zM295.5 81.5q36.5 27.5 36.5 76.5v81q0 4 -4 4h-88q-57 0 -91 -26.5t-34 -75.5q0 -44 26 -65.5t68 -21.5q50 0 86.5 27.5zM114 579.5q-2 3.5 1 8.5l73 106q4 6 12 6h59q8 0 12 -6l74 -106q2 -2 2 -6
q0 -2 -2 -4t-6 -2h-42q-7 0 -12 7l-51 78q-1 2 -3 2t-3 -2l-53 -79q-4 -6 -12 -6h-41q-6 0 -8 3.5zM396 696q0 -6 -9 -6h-34q-7 0 -12 7l-68 109q-2 4 -2 6q0 6 8 6h43q9 0 12 -7l60 -109q2 -4 2 -6z" />
    <glyph glyph-name="uni1EA8" unicode="&#x1ea8;" horiz-adv-x="508" 
d="M411 9l-33 125q-1 3 -5 3h-239q-4 0 -5 -3l-33 -125q-2 -9 -11 -9h-52q-5 0 -7.5 3t-1.5 8l187 680q2 9 11 9h64q9 0 11 -9l187 -680l1 -3q0 -8 -10 -8h-53q-9 0 -11 9zM146.5 196.5q1.5 -1.5 3.5 -1.5h207q2 0 3.5 1.5t0.5 2.5l-106 402q-1 2 -2 2t-2 -2l-105 -402
q-1 -1 0.5 -2.5zM359 879q6 15 14 25.5t20 22.5q13 13 18.5 22t5.5 23q0 15 -12 25.5t-29 10.5q-18 0 -29 -7.5t-25 -28.5q-6 -8 -14 -2l-15 10q-8 6 -3 14q19 29 37.5 41t49.5 12q37 0 60 -20.5t23 -54.5q0 -22 -9.5 -37t-28.5 -33q-19 -17 -26 -30l-2 -4q-3 -7 -11 -5
l-17 4q-11 3 -7 12zM137 773.5q-2 3.5 1 8.5l73 106q4 6 12 6h59q8 0 12 -6l74 -106q2 -2 2 -6q0 -2 -2 -4t-6 -2h-42q-7 0 -12 7l-51 78q-1 2 -3 2t-3 -2l-53 -79q-4 -6 -12 -6h-41q-6 0 -8 3.5z" />
    <glyph glyph-name="uni1EA9" unicode="&#x1ea9;" horiz-adv-x="461" 
d="M357.5 468q45.5 -46 45.5 -122v-336q0 -10 -10 -10h-51q-10 0 -10 10v36q0 2 -1.5 3t-3.5 -1q-22 -28 -56 -42t-76 -14q-63 0 -107.5 34t-44.5 111q0 80 51.5 121.5t140.5 41.5h93q4 0 4 4v38q0 51 -25.5 80.5t-75.5 29.5q-39 0 -65 -19.5t-31 -51.5q-1 -9 -11 -9l-55 3
q-5 0 -7.5 3t-1.5 7q7 58 54.5 93.5t117.5 35.5q80 0 125.5 -46zM295.5 81.5q36.5 27.5 36.5 76.5v81q0 4 -4 4h-88q-57 0 -91 -26.5t-34 -75.5q0 -44 26 -65.5t68 -21.5q50 0 86.5 27.5zM336 685q6 15 14 25.5t20 22.5q13 13 18.5 22t5.5 23q0 15 -12 25.5t-29 10.5
q-18 0 -29 -7.5t-25 -28.5q-6 -8 -14 -2l-15 10q-8 6 -3 14q19 29 37.5 41t49.5 12q37 0 60 -20.5t23 -54.5q0 -22 -9.5 -37t-28.5 -33q-19 -17 -26 -30l-2 -4q-3 -7 -11 -5l-17 4q-11 3 -7 12zM114 579.5q-2 3.5 1 8.5l73 106q4 6 12 6h59q8 0 12 -6l74 -106q2 -2 2 -6
q0 -2 -2 -4t-6 -2h-42q-7 0 -12 7l-51 78q-1 2 -3 2t-3 -2l-53 -79q-4 -6 -12 -6h-41q-6 0 -8 3.5z" />
    <glyph glyph-name="uni1EAA" unicode="&#x1eaa;" horiz-adv-x="508" 
d="M411 9l-33 125q-1 3 -5 3h-239q-4 0 -5 -3l-33 -125q-2 -9 -11 -9h-52q-5 0 -7.5 3t-1.5 8l187 680q2 9 11 9h64q9 0 11 -9l187 -680l1 -3q0 -8 -10 -8h-53q-9 0 -11 9zM146.5 196.5q1.5 -1.5 3.5 -1.5h207q2 0 3.5 1.5t0.5 2.5l-106 402q-1 2 -2 2t-2 -2l-105 -402
q-1 -1 0.5 -2.5zM137 773.5q-2 3.5 1 8.5l73 106q4 6 12 6h59q8 0 12 -6l74 -106q2 -2 2 -6q0 -2 -2 -4t-6 -2h-42q-7 0 -12 7l-51 78q-1 2 -3 2t-3 -2l-53 -79q-4 -6 -12 -6h-41q-6 0 -8 3.5zM282.5 931q-13.5 6 -28.5 16q-4 2 -13.5 8.5t-17.5 9t-16 2.5q-16 0 -27 -5.5
t-22 -20.5q-6 -9 -14 -3l-19 15q-7 7 -3 14q29 51 81 51q17 0 30.5 -6t30.5 -17q3 -2 13 -8.5t18.5 -9.5t16.5 -3q29 0 47 29q6 9 14 3l19 -14q4 -4 4 -8t-3 -10q-15 -25 -37.5 -37t-44.5 -12q-15 0 -28.5 6z" />
    <glyph glyph-name="uni1EAB" unicode="&#x1eab;" horiz-adv-x="461" 
d="M357.5 468q45.5 -46 45.5 -122v-336q0 -10 -10 -10h-51q-10 0 -10 10v36q0 2 -1.5 3t-3.5 -1q-22 -28 -56 -42t-76 -14q-63 0 -107.5 34t-44.5 111q0 80 51.5 121.5t140.5 41.5h93q4 0 4 4v38q0 51 -25.5 80.5t-75.5 29.5q-39 0 -65 -19.5t-31 -51.5q-1 -9 -11 -9l-55 3
q-5 0 -7.5 3t-1.5 7q7 58 54.5 93.5t117.5 35.5q80 0 125.5 -46zM295.5 81.5q36.5 27.5 36.5 76.5v81q0 4 -4 4h-88q-57 0 -91 -26.5t-34 -75.5q0 -44 26 -65.5t68 -21.5q50 0 86.5 27.5zM114 579.5q-2 3.5 1 8.5l73 106q4 6 12 6h59q8 0 12 -6l74 -106q2 -2 2 -6
q0 -2 -2 -4t-6 -2h-42q-7 0 -12 7l-51 78q-1 2 -3 2t-3 -2l-53 -79q-4 -6 -12 -6h-41q-6 0 -8 3.5zM259.5 737q-13.5 6 -28.5 16q-4 2 -13.5 8.5t-17.5 9t-16 2.5q-16 0 -27 -5.5t-22 -20.5q-6 -9 -14 -3l-19 15q-7 7 -3 14q29 51 81 51q17 0 30.5 -6t30.5 -17q3 -2 13 -8.5
t18.5 -9.5t16.5 -3q29 0 47 29q6 9 14 3l19 -14q4 -4 4 -8t-3 -10q-15 -25 -37.5 -37t-44.5 -12q-15 0 -28.5 6z" />
    <glyph glyph-name="uni1EAC" unicode="&#x1eac;" horiz-adv-x="508" 
d="M411 9l-33 125q-1 3 -5 3h-239q-4 0 -5 -3l-33 -125q-2 -9 -11 -9h-52q-5 0 -7.5 3t-1.5 8l187 680q2 9 11 9h64q9 0 11 -9l187 -680l1 -3q0 -8 -10 -8h-53q-9 0 -11 9zM146.5 196.5q1.5 -1.5 3.5 -1.5h207q2 0 3.5 1.5t0.5 2.5l-106 402q-1 2 -2 2t-2 -2l-105 -402
q-1 -1 0.5 -2.5zM217 -172q-15 15 -15 38t15 38t38 15t38 -15t15 -38t-15 -38t-38 -15t-38 15zM136 773.5q-2 3.5 1 8.5l73 106q4 6 12 6h59q8 0 12 -6l74 -106q2 -2 2 -6q0 -2 -2 -4t-6 -2h-42q-7 0 -12 7l-51 78q-1 2 -3 2t-3 -2l-53 -79q-4 -6 -12 -6h-41q-6 0 -8 3.5z
" />
    <glyph glyph-name="uni1EAD" unicode="&#x1ead;" horiz-adv-x="461" 
d="M357.5 468q45.5 -46 45.5 -122v-336q0 -10 -10 -10h-51q-10 0 -10 10v36q0 2 -1.5 3t-3.5 -1q-22 -28 -56 -42t-76 -14q-63 0 -107.5 34t-44.5 111q0 80 51.5 121.5t140.5 41.5h93q4 0 4 4v38q0 51 -25.5 80.5t-75.5 29.5q-39 0 -65 -19.5t-31 -51.5q-1 -9 -11 -9l-55 3
q-5 0 -7.5 3t-1.5 7q7 58 54.5 93.5t117.5 35.5q80 0 125.5 -46zM295.5 81.5q36.5 27.5 36.5 76.5v81q0 4 -4 4h-88q-57 0 -91 -26.5t-34 -75.5q0 -44 26 -65.5t68 -21.5q50 0 86.5 27.5zM193 -172q-15 15 -15 38t15 38t38 15t38 -15t15 -38t-15 -38t-38 -15t-38 15z
M113 579.5q-2 3.5 1 8.5l73 106q4 6 12 6h59q8 0 12 -6l74 -106q2 -2 2 -6q0 -2 -2 -4t-6 -2h-42q-7 0 -12 7l-51 78q-1 2 -3 2t-3 -2l-53 -79q-4 -6 -12 -6h-41q-6 0 -8 3.5z" />
    <glyph glyph-name="uni1EAE" unicode="&#x1eae;" horiz-adv-x="508" 
d="M411 9l-33 125q-1 3 -5 3h-239q-4 0 -5 -3l-33 -125q-2 -9 -11 -9h-52q-5 0 -7.5 3t-1.5 8l187 680q2 9 11 9h64q9 0 11 -9l187 -680l1 -3q0 -8 -10 -8h-53q-9 0 -11 9zM146.5 196.5q1.5 -1.5 3.5 -1.5h207q2 0 3.5 1.5t0.5 2.5l-106 402q-1 2 -2 2t-2 -2l-105 -402
q-1 -1 0.5 -2.5zM176 802.5q-32 27.5 -36 69.5q0 10 10 10h24q10 0 10 -10q4 -25 23.5 -41.5t46.5 -16.5q26 0 45 16.5t23 41.5q1 10 11 10h25q10 0 9 -10q-4 -42 -35.5 -69.5t-77.5 -27.5t-78 27.5zM218 922.5q-2 3.5 1 8.5l61 109q5 7 12 7h43q6 0 7.5 -3.5t-1.5 -8.5
l-69 -109q-5 -7 -12 -7h-34q-6 0 -8 3.5z" />
    <glyph glyph-name="uni1EAF" unicode="&#x1eaf;" horiz-adv-x="461" 
d="M357.5 468q45.5 -46 45.5 -122v-336q0 -10 -10 -10h-51q-10 0 -10 10v36q0 2 -1.5 3t-3.5 -1q-22 -28 -56 -42t-76 -14q-63 0 -107.5 34t-44.5 111q0 80 51.5 121.5t140.5 41.5h93q4 0 4 4v38q0 51 -25.5 80.5t-75.5 29.5q-39 0 -65 -19.5t-31 -51.5q-1 -9 -11 -9l-55 3
q-5 0 -7.5 3t-1.5 7q7 58 54.5 93.5t117.5 35.5q80 0 125.5 -46zM295.5 81.5q36.5 27.5 36.5 76.5v81q0 4 -4 4h-88q-57 0 -91 -26.5t-34 -75.5q0 -44 26 -65.5t68 -21.5q50 0 86.5 27.5zM153 608.5q-32 27.5 -36 69.5q0 10 10 10h24q10 0 10 -10q4 -25 23.5 -41.5
t46.5 -16.5q26 0 45 16.5t23 41.5q1 10 11 10h25q10 0 9 -10q-4 -42 -35.5 -69.5t-77.5 -27.5t-78 27.5zM195 728.5q-2 3.5 1 8.5l61 109q5 7 12 7h43q6 0 7.5 -3.5t-1.5 -8.5l-69 -109q-5 -7 -12 -7h-34q-6 0 -8 3.5z" />
    <glyph glyph-name="uni1EB0" unicode="&#x1eb0;" horiz-adv-x="508" 
d="M411 9l-33 125q-1 3 -5 3h-239q-4 0 -5 -3l-33 -125q-2 -9 -11 -9h-52q-5 0 -7.5 3t-1.5 8l187 680q2 9 11 9h64q9 0 11 -9l187 -680l1 -3q0 -8 -10 -8h-53q-9 0 -11 9zM146.5 196.5q1.5 -1.5 3.5 -1.5h207q2 0 3.5 1.5t0.5 2.5l-106 402q-1 2 -2 2t-2 -2l-105 -402
q-1 -1 0.5 -2.5zM176 802.5q-32 27.5 -36 69.5q0 10 10 10h24q10 0 10 -10q4 -25 23.5 -41.5t46.5 -16.5q26 0 45 16.5t23 41.5q1 10 11 10h25q10 0 9 -10q-4 -42 -35.5 -69.5t-77.5 -27.5t-78 27.5zM279 925q0 -6 -9 -6h-34q-7 0 -12 7l-68 109q-2 4 -2 6q0 6 8 6h43
q9 0 12 -7l60 -109q2 -4 2 -6z" />
    <glyph glyph-name="uni1EB1" unicode="&#x1eb1;" horiz-adv-x="461" 
d="M357.5 468q45.5 -46 45.5 -122v-336q0 -10 -10 -10h-51q-10 0 -10 10v36q0 2 -1.5 3t-3.5 -1q-22 -28 -56 -42t-76 -14q-63 0 -107.5 34t-44.5 111q0 80 51.5 121.5t140.5 41.5h93q4 0 4 4v38q0 51 -25.5 80.5t-75.5 29.5q-39 0 -65 -19.5t-31 -51.5q-1 -9 -11 -9l-55 3
q-5 0 -7.5 3t-1.5 7q7 58 54.5 93.5t117.5 35.5q80 0 125.5 -46zM295.5 81.5q36.5 27.5 36.5 76.5v81q0 4 -4 4h-88q-57 0 -91 -26.5t-34 -75.5q0 -44 26 -65.5t68 -21.5q50 0 86.5 27.5zM153 608.5q-32 27.5 -36 69.5q0 10 10 10h24q10 0 10 -10q4 -25 23.5 -41.5
t46.5 -16.5q26 0 45 16.5t23 41.5q1 10 11 10h25q10 0 9 -10q-4 -42 -35.5 -69.5t-77.5 -27.5t-78 27.5zM256 731q0 -6 -9 -6h-34q-7 0 -12 7l-68 109q-2 4 -2 6q0 6 8 6h43q9 0 12 -7l60 -109q2 -4 2 -6z" />
    <glyph glyph-name="uni1EB2" unicode="&#x1eb2;" horiz-adv-x="508" 
d="M411 9l-33 125q-1 3 -5 3h-239q-4 0 -5 -3l-33 -125q-2 -9 -11 -9h-52q-5 0 -7.5 3t-1.5 8l187 680q2 9 11 9h64q9 0 11 -9l187 -680l1 -3q0 -8 -10 -8h-53q-9 0 -11 9zM146.5 196.5q1.5 -1.5 3.5 -1.5h207q2 0 3.5 1.5t0.5 2.5l-106 402q-1 2 -2 2t-2 -2l-105 -402
q-1 -1 0.5 -2.5zM241 913q9 22 33 46q12 12 18 21.5t6 24.5q0 14 -12 24.5t-29 10.5t-28 -7.5t-25 -27.5q-6 -8 -14 -2l-15 10q-8 6 -2 14q19 28 36.5 40t49.5 12q35 0 58 -20.5t23 -53.5q0 -21 -9 -35.5t-28 -34.5q-20 -20 -26 -32q-5 -9 -13 -6l-16 4q-11 3 -7 12z
M176.5 802.5q-31.5 27.5 -36.5 69.5q0 10 10 10h24q10 0 11 -10q3 -25 22.5 -41.5t46.5 -16.5q26 0 45.5 16.5t22.5 41.5q1 10 11 10h25q10 0 10 -10q-4 -42 -36 -69.5t-78 -27.5t-77.5 27.5z" />
    <glyph glyph-name="uni1EB3" unicode="&#x1eb3;" horiz-adv-x="461" 
d="M357.5 468q45.5 -46 45.5 -122v-336q0 -10 -10 -10h-51q-10 0 -10 10v36q0 2 -1.5 3t-3.5 -1q-22 -28 -56 -42t-76 -14q-63 0 -107.5 34t-44.5 111q0 80 51.5 121.5t140.5 41.5h93q4 0 4 4v38q0 51 -25.5 80.5t-75.5 29.5q-39 0 -65 -19.5t-31 -51.5q-1 -9 -11 -9l-55 3
q-5 0 -7.5 3t-1.5 7q7 58 54.5 93.5t117.5 35.5q80 0 125.5 -46zM295.5 81.5q36.5 27.5 36.5 76.5v81q0 4 -4 4h-88q-57 0 -91 -26.5t-34 -75.5q0 -44 26 -65.5t68 -21.5q50 0 86.5 27.5zM218 719q9 22 33 46q12 12 18 21.5t6 24.5q0 14 -12 24.5t-29 10.5t-28 -7.5
t-25 -27.5q-6 -8 -14 -2l-15 10q-8 6 -2 14q19 28 36.5 40t49.5 12q35 0 58 -20.5t23 -53.5q0 -21 -9 -35.5t-28 -34.5q-20 -20 -26 -32q-5 -9 -13 -6l-16 4q-11 3 -7 12zM153.5 608.5q-31.5 27.5 -36.5 69.5q0 10 10 10h24q10 0 11 -10q3 -25 22.5 -41.5t46.5 -16.5
q26 0 45.5 16.5t22.5 41.5q1 10 11 10h25q10 0 10 -10q-4 -42 -36 -69.5t-78 -27.5t-77.5 27.5z" />
    <glyph glyph-name="uni1EB4" unicode="&#x1eb4;" horiz-adv-x="508" 
d="M411 9l-33 125q-1 3 -5 3h-239q-4 0 -5 -3l-33 -125q-2 -9 -11 -9h-52q-5 0 -7.5 3t-1.5 8l187 680q2 9 11 9h64q9 0 11 -9l187 -680l1 -3q0 -8 -10 -8h-53q-9 0 -11 9zM146.5 196.5q1.5 -1.5 3.5 -1.5h207q2 0 3.5 1.5t0.5 2.5l-106 402q-1 2 -2 2t-2 -2l-105 -402
q-1 -1 0.5 -2.5zM283 927.5q-12 5.5 -29 15.5q-3 2 -12.5 8t-17 9t-15.5 3q-15 0 -26 -5.5t-22 -19.5q-6 -9 -14 -3l-18 14q-7 7 -3 14q29 50 79 50q16 0 29 -5.5t30 -16.5q4 -2 13.5 -8.5t17.5 -9.5t16 -3q29 0 46 28q6 8 14 2l17 -13q4 -3 4 -7t-3 -10q-13 -24 -35 -36
t-44 -12q-15 0 -27 5.5zM176.5 802.5q-31.5 27.5 -36.5 69.5q0 10 10 10h24q10 0 11 -10q3 -25 22.5 -41.5t46.5 -16.5q26 0 45.5 16.5t22.5 41.5q1 10 11 10h25q10 0 10 -10q-4 -42 -36 -69.5t-78 -27.5t-77.5 27.5z" />
    <glyph glyph-name="uni1EB5" unicode="&#x1eb5;" horiz-adv-x="461" 
d="M357.5 468q45.5 -46 45.5 -122v-336q0 -10 -10 -10h-51q-10 0 -10 10v36q0 2 -1.5 3t-3.5 -1q-22 -28 -56 -42t-76 -14q-63 0 -107.5 34t-44.5 111q0 80 51.5 121.5t140.5 41.5h93q4 0 4 4v38q0 51 -25.5 80.5t-75.5 29.5q-39 0 -65 -19.5t-31 -51.5q-1 -9 -11 -9l-55 3
q-5 0 -7.5 3t-1.5 7q7 58 54.5 93.5t117.5 35.5q80 0 125.5 -46zM295.5 81.5q36.5 27.5 36.5 76.5v81q0 4 -4 4h-88q-57 0 -91 -26.5t-34 -75.5q0 -44 26 -65.5t68 -21.5q50 0 86.5 27.5zM260 733.5q-12 5.5 -29 15.5q-3 2 -12.5 8t-17 9t-15.5 3q-15 0 -26 -5.5t-22 -19.5
q-6 -9 -14 -3l-18 14q-7 7 -3 14q29 50 79 50q16 0 29 -5.5t30 -16.5q4 -2 13.5 -8.5t17.5 -9.5t16 -3q29 0 46 28q6 8 14 2l17 -13q4 -3 4 -7t-3 -10q-13 -24 -35 -36t-44 -12q-15 0 -27 5.5zM153.5 608.5q-31.5 27.5 -36.5 69.5q0 10 10 10h24q10 0 11 -10
q3 -25 22.5 -41.5t46.5 -16.5q26 0 45.5 16.5t22.5 41.5q1 10 11 10h25q10 0 10 -10q-4 -42 -36 -69.5t-78 -27.5t-77.5 27.5z" />
    <glyph glyph-name="uni1EB6" unicode="&#x1eb6;" horiz-adv-x="508" 
d="M411 9l-33 125q-1 3 -5 3h-239q-4 0 -5 -3l-33 -125q-2 -9 -11 -9h-52q-5 0 -7.5 3t-1.5 8l187 680q2 9 11 9h64q9 0 11 -9l187 -680l1 -3q0 -8 -10 -8h-53q-9 0 -11 9zM146.5 196.5q1.5 -1.5 3.5 -1.5h207q2 0 3.5 1.5t0.5 2.5l-106 402q-1 2 -2 2t-2 -2l-105 -402
q-1 -1 0.5 -2.5zM217 -172q-15 15 -15 38t15 38t38 15t38 -15t15 -38t-15 -38t-38 -15t-38 15zM176 802.5q-32 27.5 -36 69.5q0 10 10 10h24q10 0 10 -10q4 -25 23.5 -41.5t46.5 -16.5q26 0 45 16.5t23 41.5q1 10 11 10h25q10 0 9 -10q-4 -42 -35.5 -69.5t-77.5 -27.5
t-78 27.5z" />
    <glyph glyph-name="uni1EB7" unicode="&#x1eb7;" horiz-adv-x="461" 
d="M357.5 468q45.5 -46 45.5 -122v-336q0 -10 -10 -10h-51q-10 0 -10 10v36q0 2 -1.5 3t-3.5 -1q-22 -28 -56 -42t-76 -14q-63 0 -107.5 34t-44.5 111q0 80 51.5 121.5t140.5 41.5h93q4 0 4 4v38q0 51 -25.5 80.5t-75.5 29.5q-39 0 -65 -19.5t-31 -51.5q-1 -9 -11 -9l-55 3
q-5 0 -7.5 3t-1.5 7q7 58 54.5 93.5t117.5 35.5q80 0 125.5 -46zM295.5 81.5q36.5 27.5 36.5 76.5v81q0 4 -4 4h-88q-57 0 -91 -26.5t-34 -75.5q0 -44 26 -65.5t68 -21.5q50 0 86.5 27.5zM193 -172q-15 15 -15 38t15 38t38 15t38 -15t15 -38t-15 -38t-38 -15t-38 15z
M153 608.5q-32 27.5 -36 69.5q0 10 10 10h24q10 0 10 -10q4 -25 23.5 -41.5t46.5 -16.5q26 0 45 16.5t23 41.5q1 10 11 10h25q10 0 9 -10q-4 -42 -35.5 -69.5t-77.5 -27.5t-78 27.5z" />
    <glyph glyph-name="uni1EB8" unicode="&#x1eb8;" horiz-adv-x="517" 
d="M458 638h-300q-4 0 -4 -4v-248q0 -4 4 -4h202q10 0 10 -10v-42q0 -10 -10 -10h-202q-4 0 -4 -4v-250q0 -4 4 -4h300q10 0 10 -10v-42q0 -10 -10 -10h-365q-10 0 -10 10v680q0 10 10 10h365q10 0 10 -10v-42q0 -10 -10 -10zM236 -172q-15 15 -15 38t15 38t38 15t38 -15
t15 -38t-15 -38t-38 -15t-38 15z" />
    <glyph glyph-name="uni1EB9" unicode="&#x1eb9;" horiz-adv-x="470" 
d="M306.5 73.5q27.5 19.5 39.5 52.5q3 9 12 7l46 -9q5 -1 6.5 -4.5t0.5 -7.5q-17 -56 -62 -88t-109 -32q-73 0 -119 38.5t-57 104.5q-4 25 -5 59t-1 56.5v31.5q0 51 4 83q8 67 55.5 108t119.5 41q77 0 125 -44t54 -116q3 -33 3 -121q0 -10 -10 -10h-276q-4 0 -4 -4
q0 -31 2 -69q5 -43 34.5 -69.5t75.5 -26.5q38 0 65.5 19.5zM164.5 425.5q-28.5 -26.5 -33.5 -69.5q-2 -42 -2 -70q0 -4 4 -4h211q4 0 4 4q0 29 -4 69q-5 43 -33.5 70t-72.5 27q-45 0 -73.5 -26.5zM200 -176q-15 15 -15 38t15 38t38 15t38 -15t15 -38t-15 -38t-38 -15t-38 15
z" />
    <glyph glyph-name="uni1EBA" unicode="&#x1eba;" horiz-adv-x="517" 
d="M458 638h-300q-4 0 -4 -4v-248q0 -4 4 -4h202q10 0 10 -10v-42q0 -10 -10 -10h-202q-4 0 -4 -4v-250q0 -4 4 -4h300q10 0 10 -10v-42q0 -10 -10 -10h-365q-10 0 -10 10v680q0 10 10 10h365q10 0 10 -10v-42q0 -10 -10 -10zM259 750.5q-2 3.5 0 7.5q7 15 16 27t18 21
q13 12 19 21.5t6 24.5t-12.5 25.5t-29.5 10.5t-28.5 -7.5t-25.5 -27.5q-6 -9 -14 -3l-16 11q-8 6 -3 14q19 29 38 41t51 12q37 0 60.5 -21t23.5 -55q0 -22 -9 -36t-29 -35q-21 -19 -28 -33q-3 -7 -12 -6l-18 4q-5 1 -7 4.5z" />
    <glyph glyph-name="uni1EBB" unicode="&#x1ebb;" horiz-adv-x="470" 
d="M306.5 73.5q27.5 19.5 39.5 52.5q3 9 12 7l46 -9q5 -1 6.5 -4.5t0.5 -7.5q-17 -56 -62 -88t-109 -32q-73 0 -119 38.5t-57 104.5q-4 25 -5 59t-1 56.5v31.5q0 51 4 83q8 67 55.5 108t119.5 41q77 0 125 -44t54 -116q3 -33 3 -121q0 -10 -10 -10h-276q-4 0 -4 -4
q0 -31 2 -69q5 -43 34.5 -69.5t75.5 -26.5q38 0 65.5 19.5zM164.5 425.5q-28.5 -26.5 -33.5 -69.5q-2 -42 -2 -70q0 -4 4 -4h211q4 0 4 4q0 29 -4 69q-5 43 -33.5 70t-72.5 27q-45 0 -73.5 -26.5zM221 556.5q-2 3.5 0 7.5q7 15 16 27t18 21q13 12 19 21.5t6 24.5t-12.5 25.5
t-29.5 10.5t-28.5 -7.5t-25.5 -27.5q-6 -9 -14 -3l-16 11q-8 6 -3 14q19 29 38 41t51 12q37 0 60.5 -21t23.5 -55q0 -22 -9 -36t-29 -35q-21 -19 -28 -33q-3 -7 -12 -6l-18 4q-5 1 -7 4.5z" />
    <glyph glyph-name="uni1EBC" unicode="&#x1ebc;" horiz-adv-x="517" 
d="M458 638h-300q-4 0 -4 -4v-248q0 -4 4 -4h202q10 0 10 -10v-42q0 -10 -10 -10h-202q-4 0 -4 -4v-250q0 -4 4 -4h300q10 0 10 -10v-42q0 -10 -10 -10h-365q-10 0 -10 10v680q0 10 10 10h365q10 0 10 -10v-42q0 -10 -10 -10zM306.5 806q-13.5 6 -28.5 16q-4 2 -13.5 8.5
t-17.5 9t-16 2.5q-16 0 -27 -5.5t-22 -20.5q-6 -9 -14 -3l-19 15q-7 7 -3 14q29 51 81 51q17 0 30.5 -6t30.5 -17q3 -2 13 -8.5t18.5 -9.5t16.5 -3q29 0 47 29q6 9 14 3l19 -14q4 -4 4 -8t-3 -10q-15 -25 -37.5 -37t-44.5 -12q-15 0 -28.5 6z" />
    <glyph glyph-name="uni1EBD" unicode="&#x1ebd;" horiz-adv-x="470" 
d="M306.5 73.5q27.5 19.5 39.5 52.5q3 9 12 7l46 -9q5 -1 6.5 -4.5t0.5 -7.5q-17 -56 -62 -88t-109 -32q-73 0 -119 38.5t-57 104.5q-4 25 -5 59t-1 56.5v31.5q0 51 4 83q8 67 55.5 108t119.5 41q77 0 125 -44t54 -116q3 -33 3 -121q0 -10 -10 -10h-276q-4 0 -4 -4
q0 -31 2 -69q5 -43 34.5 -69.5t75.5 -26.5q38 0 65.5 19.5zM164.5 425.5q-28.5 -26.5 -33.5 -69.5q-2 -42 -2 -70q0 -4 4 -4h211q4 0 4 4q0 29 -4 69q-5 43 -33.5 70t-72.5 27q-45 0 -73.5 -26.5zM267.5 612q-13.5 6 -28.5 16q-4 2 -13.5 8.5t-17.5 9t-16 2.5
q-16 0 -27 -5.5t-22 -20.5q-6 -9 -14 -3l-19 15q-7 7 -3 14q29 51 81 51q17 0 30.5 -6t30.5 -17q3 -2 13 -8.5t18.5 -9.5t16.5 -3q29 0 47 29q6 9 14 3l19 -14q4 -4 4 -8t-3 -10q-15 -25 -37.5 -37t-44.5 -12q-15 0 -28.5 6z" />
    <glyph glyph-name="uni1EBE" unicode="&#x1ebe;" horiz-adv-x="517" 
d="M458 638h-300q-4 0 -4 -4v-248q0 -4 4 -4h202q10 0 10 -10v-42q0 -10 -10 -10h-202q-4 0 -4 -4v-250q0 -4 4 -4h300q10 0 10 -10v-42q0 -10 -10 -10h-365q-10 0 -10 10v680q0 10 10 10h365q10 0 10 -10v-42q0 -10 -10 -10zM157 773.5q-2 3.5 1 8.5l73 106q4 6 12 6h59
q8 0 12 -6l74 -106q2 -2 2 -6q0 -2 -2 -4t-6 -2h-42q-7 0 -12 7l-51 78q-1 2 -3 2t-3 -2l-53 -79q-4 -6 -12 -6h-41q-6 0 -8 3.5zM391 846.5q-2 3.5 1 8.5l61 109q5 7 12 7h43q6 0 7.5 -3.5t-1.5 -8.5l-69 -109q-5 -7 -12 -7h-34q-6 0 -8 3.5z" />
    <glyph glyph-name="uni1EBF" unicode="&#x1ebf;" horiz-adv-x="470" 
d="M306.5 73.5q27.5 19.5 39.5 52.5q3 9 12 7l46 -9q5 -1 6.5 -4.5t0.5 -7.5q-17 -56 -62 -88t-109 -32q-73 0 -119 38.5t-57 104.5q-4 25 -5 59t-1 56.5v31.5q0 51 4 83q8 67 55.5 108t119.5 41q77 0 125 -44t54 -116q3 -33 3 -121q0 -10 -10 -10h-276q-4 0 -4 -4
q0 -31 2 -69q5 -43 34.5 -69.5t75.5 -26.5q38 0 65.5 19.5zM164.5 425.5q-28.5 -26.5 -33.5 -69.5q-2 -42 -2 -70q0 -4 4 -4h211q4 0 4 4q0 29 -4 69q-5 43 -33.5 70t-72.5 27q-45 0 -73.5 -26.5zM118 579.5q-2 3.5 1 8.5l73 106q4 6 12 6h59q8 0 12 -6l74 -106q2 -2 2 -6
q0 -2 -2 -4t-6 -2h-42q-7 0 -12 7l-51 78q-1 2 -3 2t-3 -2l-53 -79q-4 -6 -12 -6h-41q-6 0 -8 3.5zM352 652.5q-2 3.5 1 8.5l61 109q5 7 12 7h43q6 0 7.5 -3.5t-1.5 -8.5l-69 -109q-5 -7 -12 -7h-34q-6 0 -8 3.5z" />
    <glyph glyph-name="uni1EC0" unicode="&#x1ec0;" horiz-adv-x="517" 
d="M458 638h-300q-4 0 -4 -4v-248q0 -4 4 -4h202q10 0 10 -10v-42q0 -10 -10 -10h-202q-4 0 -4 -4v-250q0 -4 4 -4h300q10 0 10 -10v-42q0 -10 -10 -10h-365q-10 0 -10 10v680q0 10 10 10h365q10 0 10 -10v-42q0 -10 -10 -10zM157 773.5q-2 3.5 1 8.5l73 106q4 6 12 6h59
q8 0 12 -6l74 -106q2 -2 2 -6q0 -2 -2 -4t-6 -2h-42q-7 0 -12 7l-51 78q-1 2 -3 2t-3 -2l-53 -79q-4 -6 -12 -6h-41q-6 0 -8 3.5zM439 890q0 -6 -9 -6h-34q-7 0 -12 7l-68 109q-2 4 -2 6q0 6 8 6h43q9 0 12 -7l60 -109q2 -4 2 -6z" />
    <glyph glyph-name="uni1EC1" unicode="&#x1ec1;" horiz-adv-x="470" 
d="M306.5 73.5q27.5 19.5 39.5 52.5q3 9 12 7l46 -9q5 -1 6.5 -4.5t0.5 -7.5q-17 -56 -62 -88t-109 -32q-73 0 -119 38.5t-57 104.5q-4 25 -5 59t-1 56.5v31.5q0 51 4 83q8 67 55.5 108t119.5 41q77 0 125 -44t54 -116q3 -33 3 -121q0 -10 -10 -10h-276q-4 0 -4 -4
q0 -31 2 -69q5 -43 34.5 -69.5t75.5 -26.5q38 0 65.5 19.5zM164.5 425.5q-28.5 -26.5 -33.5 -69.5q-2 -42 -2 -70q0 -4 4 -4h211q4 0 4 4q0 29 -4 69q-5 43 -33.5 70t-72.5 27q-45 0 -73.5 -26.5zM118 579.5q-2 3.5 1 8.5l73 106q4 6 12 6h59q8 0 12 -6l74 -106q2 -2 2 -6
q0 -2 -2 -4t-6 -2h-42q-7 0 -12 7l-51 78q-1 2 -3 2t-3 -2l-53 -79q-4 -6 -12 -6h-41q-6 0 -8 3.5zM400 696q0 -6 -9 -6h-34q-7 0 -12 7l-68 109q-2 4 -2 6q0 6 8 6h43q9 0 12 -7l60 -109q2 -4 2 -6z" />
    <glyph glyph-name="uni1EC2" unicode="&#x1ec2;" horiz-adv-x="517" 
d="M458 638h-300q-4 0 -4 -4v-248q0 -4 4 -4h202q10 0 10 -10v-42q0 -10 -10 -10h-202q-4 0 -4 -4v-250q0 -4 4 -4h300q10 0 10 -10v-42q0 -10 -10 -10h-365q-10 0 -10 10v680q0 10 10 10h365q10 0 10 -10v-42q0 -10 -10 -10zM379 879q6 15 14 25.5t20 22.5q13 13 18.5 22
t5.5 23q0 15 -12 25.5t-29 10.5q-18 0 -29 -7.5t-25 -28.5q-6 -8 -14 -2l-15 10q-8 6 -3 14q19 29 37.5 41t49.5 12q37 0 60 -20.5t23 -54.5q0 -22 -9.5 -37t-28.5 -33q-19 -17 -26 -30l-2 -4q-3 -7 -11 -5l-17 4q-11 3 -7 12zM157 773.5q-2 3.5 1 8.5l73 106q4 6 12 6h59
q8 0 12 -6l74 -106q2 -2 2 -6q0 -2 -2 -4t-6 -2h-42q-7 0 -12 7l-51 78q-1 2 -3 2t-3 -2l-53 -79q-4 -6 -12 -6h-41q-6 0 -8 3.5z" />
    <glyph glyph-name="uni1EC3" unicode="&#x1ec3;" horiz-adv-x="470" 
d="M306.5 73.5q27.5 19.5 39.5 52.5q3 9 12 7l46 -9q5 -1 6.5 -4.5t0.5 -7.5q-17 -56 -62 -88t-109 -32q-73 0 -119 38.5t-57 104.5q-4 25 -5 59t-1 56.5v31.5q0 51 4 83q8 67 55.5 108t119.5 41q77 0 125 -44t54 -116q3 -33 3 -121q0 -10 -10 -10h-276q-4 0 -4 -4
q0 -31 2 -69q5 -43 34.5 -69.5t75.5 -26.5q38 0 65.5 19.5zM164.5 425.5q-28.5 -26.5 -33.5 -69.5q-2 -42 -2 -70q0 -4 4 -4h211q4 0 4 4q0 29 -4 69q-5 43 -33.5 70t-72.5 27q-45 0 -73.5 -26.5zM340 685q6 15 14 25.5t20 22.5q13 13 18.5 22t5.5 23q0 15 -12 25.5
t-29 10.5q-18 0 -29 -7.5t-25 -28.5q-6 -8 -14 -2l-15 10q-8 6 -3 14q19 29 37.5 41t49.5 12q37 0 60 -20.5t23 -54.5q0 -22 -9.5 -37t-28.5 -33q-19 -17 -26 -30l-2 -4q-3 -7 -11 -5l-17 4q-11 3 -7 12zM118 579.5q-2 3.5 1 8.5l73 106q4 6 12 6h59q8 0 12 -6l74 -106
q2 -2 2 -6q0 -2 -2 -4t-6 -2h-42q-7 0 -12 7l-51 78q-1 2 -3 2t-3 -2l-53 -79q-4 -6 -12 -6h-41q-6 0 -8 3.5z" />
    <glyph glyph-name="uni1EC4" unicode="&#x1ec4;" horiz-adv-x="517" 
d="M458 638h-300q-4 0 -4 -4v-248q0 -4 4 -4h202q10 0 10 -10v-42q0 -10 -10 -10h-202q-4 0 -4 -4v-250q0 -4 4 -4h300q10 0 10 -10v-42q0 -10 -10 -10h-365q-10 0 -10 10v680q0 10 10 10h365q10 0 10 -10v-42q0 -10 -10 -10zM157 773.5q-2 3.5 1 8.5l73 106q4 6 12 6h59
q8 0 12 -6l74 -106q2 -2 2 -6q0 -2 -2 -4t-6 -2h-42q-7 0 -12 7l-51 78q-1 2 -3 2t-3 -2l-53 -79q-4 -6 -12 -6h-41q-6 0 -8 3.5zM302.5 931q-13.5 6 -28.5 16q-4 2 -13.5 8.5t-17.5 9t-16 2.5q-16 0 -27 -5.5t-22 -20.5q-6 -9 -14 -3l-19 15q-7 7 -3 14q29 51 81 51
q17 0 30.5 -6t30.5 -17q3 -2 13 -8.5t18.5 -9.5t16.5 -3q29 0 47 29q6 9 14 3l19 -14q4 -4 4 -8t-3 -10q-15 -25 -37.5 -37t-44.5 -12q-15 0 -28.5 6z" />
    <glyph glyph-name="uni1EC5" unicode="&#x1ec5;" horiz-adv-x="470" 
d="M306.5 73.5q27.5 19.5 39.5 52.5q3 9 12 7l46 -9q5 -1 6.5 -4.5t0.5 -7.5q-17 -56 -62 -88t-109 -32q-73 0 -119 38.5t-57 104.5q-4 25 -5 59t-1 56.5v31.5q0 51 4 83q8 67 55.5 108t119.5 41q77 0 125 -44t54 -116q3 -33 3 -121q0 -10 -10 -10h-276q-4 0 -4 -4
q0 -31 2 -69q5 -43 34.5 -69.5t75.5 -26.5q38 0 65.5 19.5zM164.5 425.5q-28.5 -26.5 -33.5 -69.5q-2 -42 -2 -70q0 -4 4 -4h211q4 0 4 4q0 29 -4 69q-5 43 -33.5 70t-72.5 27q-45 0 -73.5 -26.5zM118 579.5q-2 3.5 1 8.5l73 106q4 6 12 6h59q8 0 12 -6l74 -106q2 -2 2 -6
q0 -2 -2 -4t-6 -2h-42q-7 0 -12 7l-51 78q-1 2 -3 2t-3 -2l-53 -79q-4 -6 -12 -6h-41q-6 0 -8 3.5zM263.5 737q-13.5 6 -28.5 16q-4 2 -13.5 8.5t-17.5 9t-16 2.5q-16 0 -27 -5.5t-22 -20.5q-6 -9 -14 -3l-19 15q-7 7 -3 14q29 51 81 51q17 0 30.5 -6t30.5 -17q3 -2 13 -8.5
t18.5 -9.5t16.5 -3q29 0 47 29q6 9 14 3l19 -14q4 -4 4 -8t-3 -10q-15 -25 -37.5 -37t-44.5 -12q-15 0 -28.5 6z" />
    <glyph glyph-name="uni1EC6" unicode="&#x1ec6;" horiz-adv-x="517" 
d="M458 638h-300q-4 0 -4 -4v-248q0 -4 4 -4h202q10 0 10 -10v-42q0 -10 -10 -10h-202q-4 0 -4 -4v-250q0 -4 4 -4h300q10 0 10 -10v-42q0 -10 -10 -10h-365q-10 0 -10 10v680q0 10 10 10h365q10 0 10 -10v-42q0 -10 -10 -10zM236 -172q-15 15 -15 38t15 38t38 15t38 -15
t15 -38t-15 -38t-38 -15t-38 15zM156 773.5q-2 3.5 1 8.5l73 106q4 6 12 6h59q8 0 12 -6l74 -106q2 -2 2 -6q0 -2 -2 -4t-6 -2h-42q-7 0 -12 7l-51 78q-1 2 -3 2t-3 -2l-53 -79q-4 -6 -12 -6h-41q-6 0 -8 3.5z" />
    <glyph glyph-name="uni1EC7" unicode="&#x1ec7;" horiz-adv-x="470" 
d="M306.5 73.5q27.5 19.5 39.5 52.5q3 9 12 7l46 -9q5 -1 6.5 -4.5t0.5 -7.5q-17 -56 -62 -88t-109 -32q-73 0 -119 38.5t-57 104.5q-4 25 -5 59t-1 56.5v31.5q0 51 4 83q8 67 55.5 108t119.5 41q77 0 125 -44t54 -116q3 -33 3 -121q0 -10 -10 -10h-276q-4 0 -4 -4
q0 -31 2 -69q5 -43 34.5 -69.5t75.5 -26.5q38 0 65.5 19.5zM164.5 425.5q-28.5 -26.5 -33.5 -69.5q-2 -42 -2 -70q0 -4 4 -4h211q4 0 4 4q0 29 -4 69q-5 43 -33.5 70t-72.5 27q-45 0 -73.5 -26.5zM200 -176q-15 15 -15 38t15 38t38 15t38 -15t15 -38t-15 -38t-38 -15t-38 15
zM118 579.5q-2 3.5 1 8.5l73 106q4 6 12 6h59q8 0 12 -6l74 -106q2 -2 2 -6q0 -2 -2 -4t-6 -2h-42q-7 0 -12 7l-51 78q-1 2 -3 2t-3 -2l-53 -79q-4 -6 -12 -6h-41q-6 0 -8 3.5z" />
    <glyph glyph-name="uni1EC8" unicode="&#x1ec8;" horiz-adv-x="237" 
d="M83 10v680q0 10 10 10h51q10 0 10 -10v-680q0 -10 -10 -10h-51q-10 0 -10 10zM104 750.5q-2 3.5 0 7.5q7 15 16 27t18 21q13 12 19 21.5t6 24.5t-12.5 25.5t-29.5 10.5t-28.5 -7.5t-25.5 -27.5q-6 -9 -14 -3l-16 11q-8 6 -3 14q19 29 38 41t51 12q37 0 60.5 -21t23.5 -55
q0 -22 -9 -36t-29 -35q-21 -19 -28 -33q-3 -7 -12 -6l-18 4q-5 1 -7 4.5z" />
    <glyph glyph-name="uni1EC9" unicode="&#x1ec9;" horiz-adv-x="190" 
d="M60 10v486q0 10 10 10h51q10 0 10 -10v-486q0 -10 -10 -10h-51q-10 0 -10 10zM81 556.5q-2 3.5 0 7.5q7 15 16 27t18 21q13 12 19 21.5t6 24.5t-12.5 25.5t-29.5 10.5t-28.5 -7.5t-25.5 -27.5q-6 -9 -14 -3l-16 11q-8 6 -3 14q19 29 38 41t51 12q37 0 60.5 -21t23.5 -55
q0 -22 -9 -36t-29 -35q-21 -19 -28 -33q-3 -7 -12 -6l-18 4q-5 1 -7 4.5z" />
    <glyph glyph-name="uni1ECA" unicode="&#x1eca;" horiz-adv-x="237" 
d="M83 10v680q0 10 10 10h51q10 0 10 -10v-680q0 -10 -10 -10h-51q-10 0 -10 10zM81 -172q-15 15 -15 38t15 38t38 15t38 -15t15 -38t-15 -38t-38 -15t-38 15z" />
    <glyph glyph-name="uni1ECB" unicode="&#x1ecb;" horiz-adv-x="232" 
d="M75.5 614q-15.5 16 -15.5 40q0 25 15.5 40.5t40.5 15.5q24 0 40 -15.5t16 -40.5q0 -24 -16 -40t-40 -16q-25 0 -40.5 16zM79 10v486q0 10 10 10h51q10 0 10 -10v-486q0 -10 -10 -10h-51q-10 0 -10 10zM78 -172q-15 15 -15 38t15 38t38 15t38 -15t15 -38t-15 -38t-38 -15
t-38 15z" />
    <glyph glyph-name="uni1ECC" unicode="&#x1ecc;" horiz-adv-x="539" 
d="M161.5 17.5q-46.5 25.5 -72 71.5t-25.5 106v309q0 60 25.5 106.5t72 72t107.5 25.5t107.5 -25.5t72.5 -72t26 -106.5v-309q0 -60 -26 -106t-72.5 -71.5t-107.5 -25.5t-107.5 25.5zM367 92q37 38 37 100v314q0 63 -37 101.5t-98 38.5q-60 0 -97 -38.5t-37 -101.5v-314
q0 -62 37 -100t97 -38q61 0 98 38zM232 -172q-15 15 -15 38t15 38t38 15t38 -15t15 -38t-15 -38t-38 -15t-38 15z" />
    <glyph glyph-name="uni1ECD" unicode="&#x1ecd;" horiz-adv-x="475" 
d="M120 31.5q-47 39.5 -57 106.5q-6 50 -6 116t6 114q9 66 56.5 106t120.5 40t120.5 -40t56.5 -106q6 -40 6 -114q0 -76 -6 -116q-9 -67 -56.5 -106.5t-120.5 -39.5t-120 39.5zM312.5 80.5q29.5 26.5 35.5 70.5q4 37 4 102q0 66 -4 102q-5 44 -34.5 70.5t-73.5 26.5
t-73 -26.5t-35 -70.5q-4 -36 -4 -102t4 -102q5 -44 34.5 -70.5t73.5 -26.5q43 0 72.5 26.5zM201 -172q-15 15 -15 38t15 38t38 15t38 -15t15 -38t-15 -38t-38 -15t-38 15z" />
    <glyph glyph-name="uni1ECE" unicode="&#x1ece;" horiz-adv-x="539" 
d="M161.5 17.5q-46.5 25.5 -72 71.5t-25.5 106v309q0 60 25.5 106.5t72 72t107.5 25.5t107.5 -25.5t72.5 -72t26 -106.5v-309q0 -60 -26 -106t-72.5 -71.5t-107.5 -25.5t-107.5 25.5zM367 92q37 38 37 100v314q0 63 -37 101.5t-98 38.5q-60 0 -97 -38.5t-37 -101.5v-314
q0 -62 37 -100t97 -38q61 0 98 38zM254 750.5q-2 3.5 0 7.5q7 15 16 27t18 21q13 12 19 21.5t6 24.5t-12.5 25.5t-29.5 10.5t-28.5 -7.5t-25.5 -27.5q-6 -9 -14 -3l-16 11q-8 6 -3 14q19 29 38 41t51 12q37 0 60.5 -21t23.5 -55q0 -22 -9 -36t-29 -35q-21 -19 -28 -33
q-3 -7 -12 -6l-18 4q-5 1 -7 4.5z" />
    <glyph glyph-name="uni1ECF" unicode="&#x1ecf;" horiz-adv-x="475" 
d="M120 31.5q-47 39.5 -57 106.5q-6 50 -6 116t6 114q9 66 56.5 106t120.5 40t120.5 -40t56.5 -106q6 -40 6 -114q0 -76 -6 -116q-9 -67 -56.5 -106.5t-120.5 -39.5t-120 39.5zM312.5 80.5q29.5 26.5 35.5 70.5q4 37 4 102q0 66 -4 102q-5 44 -34.5 70.5t-73.5 26.5
t-73 -26.5t-35 -70.5q-4 -36 -4 -102t4 -102q5 -44 34.5 -70.5t73.5 -26.5q43 0 72.5 26.5zM223 556.5q-2 3.5 0 7.5q7 15 16 27t18 21q13 12 19 21.5t6 24.5t-12.5 25.5t-29.5 10.5t-28.5 -7.5t-25.5 -27.5q-6 -9 -14 -3l-16 11q-8 6 -3 14q19 29 38 41t51 12
q37 0 60.5 -21t23.5 -55q0 -22 -9 -36t-29 -35q-21 -19 -28 -33q-3 -7 -12 -6l-18 4q-5 1 -7 4.5z" />
    <glyph glyph-name="uni1ED0" unicode="&#x1ed0;" horiz-adv-x="539" 
d="M161.5 17.5q-46.5 25.5 -72 71.5t-25.5 106v309q0 60 25.5 106.5t72 72t107.5 25.5t107.5 -25.5t72.5 -72t26 -106.5v-309q0 -60 -26 -106t-72.5 -71.5t-107.5 -25.5t-107.5 25.5zM367 92q37 38 37 100v314q0 63 -37 101.5t-98 38.5q-60 0 -97 -38.5t-37 -101.5v-314
q0 -62 37 -100t97 -38q61 0 98 38zM152 773.5q-2 3.5 1 8.5l73 106q4 6 12 6h59q8 0 12 -6l74 -106q2 -2 2 -6q0 -2 -2 -4t-6 -2h-42q-7 0 -12 7l-51 78q-1 2 -3 2t-3 -2l-53 -79q-4 -6 -12 -6h-41q-6 0 -8 3.5zM386 846.5q-2 3.5 1 8.5l61 109q5 7 12 7h43q6 0 7.5 -3.5
t-1.5 -8.5l-69 -109q-5 -7 -12 -7h-34q-6 0 -8 3.5z" />
    <glyph glyph-name="uni1ED1" unicode="&#x1ed1;" horiz-adv-x="475" 
d="M120 31.5q-47 39.5 -57 106.5q-6 50 -6 116t6 114q9 66 56.5 106t120.5 40t120.5 -40t56.5 -106q6 -40 6 -114q0 -76 -6 -116q-9 -67 -56.5 -106.5t-120.5 -39.5t-120 39.5zM312.5 80.5q29.5 26.5 35.5 70.5q4 37 4 102q0 66 -4 102q-5 44 -34.5 70.5t-73.5 26.5
t-73 -26.5t-35 -70.5q-4 -36 -4 -102t4 -102q5 -44 34.5 -70.5t73.5 -26.5q43 0 72.5 26.5zM121 579.5q-2 3.5 1 8.5l73 106q4 6 12 6h59q8 0 12 -6l74 -106q2 -2 2 -6q0 -2 -2 -4t-6 -2h-42q-7 0 -12 7l-51 78q-1 2 -3 2t-3 -2l-53 -79q-4 -6 -12 -6h-41q-6 0 -8 3.5z
M355 652.5q-2 3.5 1 8.5l61 109q5 7 12 7h43q6 0 7.5 -3.5t-1.5 -8.5l-69 -109q-5 -7 -12 -7h-34q-6 0 -8 3.5z" />
    <glyph glyph-name="uni1ED2" unicode="&#x1ed2;" horiz-adv-x="539" 
d="M161.5 17.5q-46.5 25.5 -72 71.5t-25.5 106v309q0 60 25.5 106.5t72 72t107.5 25.5t107.5 -25.5t72.5 -72t26 -106.5v-309q0 -60 -26 -106t-72.5 -71.5t-107.5 -25.5t-107.5 25.5zM367 92q37 38 37 100v314q0 63 -37 101.5t-98 38.5q-60 0 -97 -38.5t-37 -101.5v-314
q0 -62 37 -100t97 -38q61 0 98 38zM152 773.5q-2 3.5 1 8.5l73 106q4 6 12 6h59q8 0 12 -6l74 -106q2 -2 2 -6q0 -2 -2 -4t-6 -2h-42q-7 0 -12 7l-51 78q-1 2 -3 2t-3 -2l-53 -79q-4 -6 -12 -6h-41q-6 0 -8 3.5zM434 890q0 -6 -9 -6h-34q-7 0 -12 7l-68 109q-2 4 -2 6
q0 6 8 6h43q9 0 12 -7l60 -109q2 -4 2 -6z" />
    <glyph glyph-name="uni1ED3" unicode="&#x1ed3;" horiz-adv-x="475" 
d="M120 31.5q-47 39.5 -57 106.5q-6 50 -6 116t6 114q9 66 56.5 106t120.5 40t120.5 -40t56.5 -106q6 -40 6 -114q0 -76 -6 -116q-9 -67 -56.5 -106.5t-120.5 -39.5t-120 39.5zM312.5 80.5q29.5 26.5 35.5 70.5q4 37 4 102q0 66 -4 102q-5 44 -34.5 70.5t-73.5 26.5
t-73 -26.5t-35 -70.5q-4 -36 -4 -102t4 -102q5 -44 34.5 -70.5t73.5 -26.5q43 0 72.5 26.5zM121 579.5q-2 3.5 1 8.5l73 106q4 6 12 6h59q8 0 12 -6l74 -106q2 -2 2 -6q0 -2 -2 -4t-6 -2h-42q-7 0 -12 7l-51 78q-1 2 -3 2t-3 -2l-53 -79q-4 -6 -12 -6h-41q-6 0 -8 3.5z
M403 696q0 -6 -9 -6h-34q-7 0 -12 7l-68 109q-2 4 -2 6q0 6 8 6h43q9 0 12 -7l60 -109q2 -4 2 -6z" />
    <glyph glyph-name="uni1ED4" unicode="&#x1ed4;" horiz-adv-x="539" 
d="M161.5 17.5q-46.5 25.5 -72 71.5t-25.5 106v309q0 60 25.5 106.5t72 72t107.5 25.5t107.5 -25.5t72.5 -72t26 -106.5v-309q0 -60 -26 -106t-72.5 -71.5t-107.5 -25.5t-107.5 25.5zM367 92q37 38 37 100v314q0 63 -37 101.5t-98 38.5q-60 0 -97 -38.5t-37 -101.5v-314
q0 -62 37 -100t97 -38q61 0 98 38zM374 879q6 15 14 25.5t20 22.5q13 13 18.5 22t5.5 23q0 15 -12 25.5t-29 10.5q-18 0 -29 -7.5t-25 -28.5q-6 -8 -14 -2l-15 10q-8 6 -3 14q19 29 37.5 41t49.5 12q37 0 60 -20.5t23 -54.5q0 -22 -9.5 -37t-28.5 -33q-19 -17 -26 -30l-2 -4
q-3 -7 -11 -5l-17 4q-11 3 -7 12zM152 773.5q-2 3.5 1 8.5l73 106q4 6 12 6h59q8 0 12 -6l74 -106q2 -2 2 -6q0 -2 -2 -4t-6 -2h-42q-7 0 -12 7l-51 78q-1 2 -3 2t-3 -2l-53 -79q-4 -6 -12 -6h-41q-6 0 -8 3.5z" />
    <glyph glyph-name="uni1ED5" unicode="&#x1ed5;" horiz-adv-x="475" 
d="M120 31.5q-47 39.5 -57 106.5q-6 50 -6 116t6 114q9 66 56.5 106t120.5 40t120.5 -40t56.5 -106q6 -40 6 -114q0 -76 -6 -116q-9 -67 -56.5 -106.5t-120.5 -39.5t-120 39.5zM312.5 80.5q29.5 26.5 35.5 70.5q4 37 4 102q0 66 -4 102q-5 44 -34.5 70.5t-73.5 26.5
t-73 -26.5t-35 -70.5q-4 -36 -4 -102t4 -102q5 -44 34.5 -70.5t73.5 -26.5q43 0 72.5 26.5zM343 685q6 15 14 25.5t20 22.5q13 13 18.5 22t5.5 23q0 15 -12 25.5t-29 10.5q-18 0 -29 -7.5t-25 -28.5q-6 -8 -14 -2l-15 10q-8 6 -3 14q19 29 37.5 41t49.5 12q37 0 60 -20.5
t23 -54.5q0 -22 -9.5 -37t-28.5 -33q-19 -17 -26 -30l-2 -4q-3 -7 -11 -5l-17 4q-11 3 -7 12zM121 579.5q-2 3.5 1 8.5l73 106q4 6 12 6h59q8 0 12 -6l74 -106q2 -2 2 -6q0 -2 -2 -4t-6 -2h-42q-7 0 -12 7l-51 78q-1 2 -3 2t-3 -2l-53 -79q-4 -6 -12 -6h-41q-6 0 -8 3.5z
" />
    <glyph glyph-name="uni1ED6" unicode="&#x1ed6;" horiz-adv-x="539" 
d="M161.5 17.5q-46.5 25.5 -72 71.5t-25.5 106v309q0 60 25.5 106.5t72 72t107.5 25.5t107.5 -25.5t72.5 -72t26 -106.5v-309q0 -60 -26 -106t-72.5 -71.5t-107.5 -25.5t-107.5 25.5zM367 92q37 38 37 100v314q0 63 -37 101.5t-98 38.5q-60 0 -97 -38.5t-37 -101.5v-314
q0 -62 37 -100t97 -38q61 0 98 38zM152 773.5q-2 3.5 1 8.5l73 106q4 6 12 6h59q8 0 12 -6l74 -106q2 -2 2 -6q0 -2 -2 -4t-6 -2h-42q-7 0 -12 7l-51 78q-1 2 -3 2t-3 -2l-53 -79q-4 -6 -12 -6h-41q-6 0 -8 3.5zM297.5 931q-13.5 6 -28.5 16q-4 2 -13.5 8.5t-17.5 9t-16 2.5
q-16 0 -27 -5.5t-22 -20.5q-6 -9 -14 -3l-19 15q-7 7 -3 14q29 51 81 51q17 0 30.5 -6t30.5 -17q3 -2 13 -8.5t18.5 -9.5t16.5 -3q29 0 47 29q6 9 14 3l19 -14q4 -4 4 -8t-3 -10q-15 -25 -37.5 -37t-44.5 -12q-15 0 -28.5 6z" />
    <glyph glyph-name="uni1ED7" unicode="&#x1ed7;" horiz-adv-x="475" 
d="M120 31.5q-47 39.5 -57 106.5q-6 50 -6 116t6 114q9 66 56.5 106t120.5 40t120.5 -40t56.5 -106q6 -40 6 -114q0 -76 -6 -116q-9 -67 -56.5 -106.5t-120.5 -39.5t-120 39.5zM312.5 80.5q29.5 26.5 35.5 70.5q4 37 4 102q0 66 -4 102q-5 44 -34.5 70.5t-73.5 26.5
t-73 -26.5t-35 -70.5q-4 -36 -4 -102t4 -102q5 -44 34.5 -70.5t73.5 -26.5q43 0 72.5 26.5zM121 579.5q-2 3.5 1 8.5l73 106q4 6 12 6h59q8 0 12 -6l74 -106q2 -2 2 -6q0 -2 -2 -4t-6 -2h-42q-7 0 -12 7l-51 78q-1 2 -3 2t-3 -2l-53 -79q-4 -6 -12 -6h-41q-6 0 -8 3.5z
M266.5 737q-13.5 6 -28.5 16q-4 2 -13.5 8.5t-17.5 9t-16 2.5q-16 0 -27 -5.5t-22 -20.5q-6 -9 -14 -3l-19 15q-7 7 -3 14q29 51 81 51q17 0 30.5 -6t30.5 -17q3 -2 13 -8.5t18.5 -9.5t16.5 -3q29 0 47 29q6 9 14 3l19 -14q4 -4 4 -8t-3 -10q-15 -25 -37.5 -37t-44.5 -12
q-15 0 -28.5 6z" />
    <glyph glyph-name="uni1ED8" unicode="&#x1ed8;" horiz-adv-x="539" 
d="M161.5 17.5q-46.5 25.5 -72 71.5t-25.5 106v309q0 60 25.5 106.5t72 72t107.5 25.5t107.5 -25.5t72.5 -72t26 -106.5v-309q0 -60 -26 -106t-72.5 -71.5t-107.5 -25.5t-107.5 25.5zM367 92q37 38 37 100v314q0 63 -37 101.5t-98 38.5q-60 0 -97 -38.5t-37 -101.5v-314
q0 -62 37 -100t97 -38q61 0 98 38zM232 -172q-15 15 -15 38t15 38t38 15t38 -15t15 -38t-15 -38t-38 -15t-38 15zM151 773.5q-2 3.5 1 8.5l73 106q4 6 12 6h59q8 0 12 -6l74 -106q2 -2 2 -6q0 -2 -2 -4t-6 -2h-42q-7 0 -12 7l-51 78q-1 2 -3 2t-3 -2l-53 -79q-4 -6 -12 -6
h-41q-6 0 -8 3.5z" />
    <glyph glyph-name="uni1ED9" unicode="&#x1ed9;" horiz-adv-x="475" 
d="M120 31.5q-47 39.5 -57 106.5q-6 50 -6 116t6 114q9 66 56.5 106t120.5 40t120.5 -40t56.5 -106q6 -40 6 -114q0 -76 -6 -116q-9 -67 -56.5 -106.5t-120.5 -39.5t-120 39.5zM312.5 80.5q29.5 26.5 35.5 70.5q4 37 4 102q0 66 -4 102q-5 44 -34.5 70.5t-73.5 26.5
t-73 -26.5t-35 -70.5q-4 -36 -4 -102t4 -102q5 -44 34.5 -70.5t73.5 -26.5q43 0 72.5 26.5zM201 -172q-15 15 -15 38t15 38t38 15t38 -15t15 -38t-15 -38t-38 -15t-38 15zM120 579.5q-2 3.5 1 8.5l73 106q4 6 12 6h59q8 0 12 -6l74 -106q2 -2 2 -6q0 -2 -2 -4t-6 -2h-42
q-7 0 -12 7l-51 78q-1 2 -3 2t-3 -2l-53 -79q-4 -6 -12 -6h-41q-6 0 -8 3.5z" />
    <glyph glyph-name="uni1EDA" unicode="&#x1eda;" horiz-adv-x="539" 
d="M510 770q-4 -45 -30.5 -73t-65.5 -35q-5 -2 -2 -5q63 -57 63 -153v-309q0 -60 -26 -106t-72.5 -71.5t-107.5 -25.5t-107.5 25.5t-72 71.5t-25.5 106v309q0 60 25.5 106.5t72 72t107.5 25.5q67 0 117 -31q2 -1 3.5 0t1.5 3v10q0 10 10 11q25 3 43 21t21 48q0 10 10 10h25
q10 0 10 -10zM404 506q0 63 -37 101.5t-98 38.5q-60 0 -97 -38.5t-37 -101.5v-314q0 -62 37 -100t97 -38q61 0 98 38t37 100v314zM227 769.5q-2 3.5 1 8.5l61 109q5 7 12 7h43q6 0 7.5 -3.5t-1.5 -8.5l-69 -109q-5 -7 -12 -7h-34q-6 0 -8 3.5z" />
    <glyph glyph-name="uni1EDB" unicode="&#x1edb;" horiz-adv-x="475" 
d="M423 254q0 -76 -6 -116q-9 -67 -56.5 -106.5t-120.5 -39.5t-120 39.5t-57 106.5q-6 50 -6 116t6 114q9 66 56.5 106t120.5 40q26 0 56 -7q1 -1 5 -1q26 3 44.5 21t21.5 49q0 10 10 10h25q10 0 10 -10q-4 -62 -56 -94q-3 -2 0 -5q50 -38 61 -109q6 -40 6 -114zM352 253
q0 66 -4 102q-5 44 -34.5 70.5t-73.5 26.5t-73 -26.5t-35 -70.5q-4 -36 -4 -102t4 -102q5 -44 34.5 -70.5t73.5 -26.5q43 0 72.5 26.5t35.5 70.5q4 37 4 102zM196 575.5q-2 3.5 1 8.5l61 109q5 7 12 7h43q6 0 7.5 -3.5t-1.5 -8.5l-69 -109q-5 -7 -12 -7h-34q-6 0 -8 3.5z
" />
    <glyph glyph-name="uni1EDC" unicode="&#x1edc;" horiz-adv-x="539" 
d="M510 770q-4 -45 -30.5 -73t-65.5 -35q-5 -2 -2 -5q63 -57 63 -153v-309q0 -60 -26 -106t-72.5 -71.5t-107.5 -25.5t-107.5 25.5t-72 71.5t-25.5 106v309q0 60 25.5 106.5t72 72t107.5 25.5q67 0 117 -31q2 -1 3.5 0t1.5 3v10q0 10 10 11q25 3 43 21t21 48q0 10 10 10h25
q10 0 10 -10zM404 506q0 63 -37 101.5t-98 38.5q-60 0 -97 -38.5t-37 -101.5v-314q0 -62 37 -100t97 -38q61 0 98 38t37 100v314zM294 772q0 -6 -9 -6h-34q-7 0 -12 7l-68 109q-2 4 -2 6q0 6 8 6h43q9 0 12 -7l60 -109q2 -4 2 -6z" />
    <glyph glyph-name="uni1EDD" unicode="&#x1edd;" horiz-adv-x="475" 
d="M423 254q0 -76 -6 -116q-9 -67 -56.5 -106.5t-120.5 -39.5t-120 39.5t-57 106.5q-6 50 -6 116t6 114q9 66 56.5 106t120.5 40q26 0 56 -7q1 -1 5 -1q26 3 44.5 21t21.5 49q0 10 10 10h25q10 0 10 -10q-4 -62 -56 -94q-3 -2 0 -5q50 -38 61 -109q6 -40 6 -114zM352 253
q0 66 -4 102q-5 44 -34.5 70.5t-73.5 26.5t-73 -26.5t-35 -70.5q-4 -36 -4 -102t4 -102q5 -44 34.5 -70.5t73.5 -26.5q43 0 72.5 26.5t35.5 70.5q4 37 4 102zM263 578q0 -6 -9 -6h-34q-7 0 -12 7l-68 109q-2 4 -2 6q0 6 8 6h43q9 0 12 -7l60 -109q2 -4 2 -6z" />
    </font>
</defs>
</svg>
