<?xml version="1.0" standalone="no"?>
<!DOCTYPE svg PUBLIC "-//W3C//DTD SVG 1.1//EN" "http://www.w3.org/Graphics/SVG/1.1/DTD/svg11.dtd" >
<svg xmlns="http://www.w3.org/2000/svg" xmlns:xlink="http://www.w3.org/1999/xlink" version="1.1">
<metadata>
Created by FontForge 20170731 at Wed Nov  7 06:08:39 2018
 By Aleksey,,,
Copyright 2017 The Barlow Project Authors (https://github.com/jpt/barlow)
</metadata>
<defs>
<font id="BarlowSemiCondensed-Bold" horiz-adv-x="0" >
  <font-face 
    font-family="Barlow Semi Condensed"
    font-weight="700"
    font-stretch="semi-condensed"
    units-per-em="1000"
    panose-1="0 0 8 6 0 0 0 0 0 0"
    ascent="800"
    descent="-200"
    x-height="514"
    cap-height="700"
    bbox="-583.333 -233 1080 1085"
    underline-thickness="50"
    underline-position="-150"
    unicode-range="U+000D-FB02"
  />
<missing-glyph horiz-adv-x="439" 
d="M5 0h429q5 0 5 5v690q0 5 -5 5h-429q-5 0 -5 -5v-690q0 -5 5 -5zM165.5 252.5q-3.5 3.5 -3.5 8.5v20q0 36 16 57.5t48 46.5q26 20 38 34.5t12 35.5q0 23 -14.5 37t-37.5 14q-25 0 -40 -15t-15 -39v-8q0 -11 -12 -11l-77 3q-5 0 -8.5 4t-3.5 9v3q0 65 44 105.5t115 40.5
q69 0 110 -38t41 -101q0 -45 -18.5 -71t-52.5 -52q-23 -17 -34 -30t-11 -32v-13q0 -5 -3.5 -8.5t-8.5 -3.5h-76q-5 0 -8.5 3.5zM170.5 105q-15.5 16 -15.5 40q0 25 15.5 41t40.5 16t40.5 -16t15.5 -41q0 -24 -16 -40t-40 -16q-25 0 -40.5 16z" />
    <glyph glyph-name="fi" unicode="fi" horiz-adv-x="578" 
d="M313.5 510.5q3.5 -3.5 3.5 -8.5v-85q0 -5 -3.5 -8.5t-8.5 -3.5h-76q-5 0 -5 -5v-388q0 -5 -3.5 -8.5t-8.5 -3.5h-117q-5 0 -8.5 3.5t-3.5 8.5v388q0 5 -5 5h-44q-5 0 -8.5 3.5t-3.5 8.5v85q0 5 3.5 8.5t8.5 3.5h44q5 0 5 5v25q0 61 20 96t62.5 49t112.5 12h20
q5 0 8.5 -3.5t3.5 -8.5v-80q0 -5 -3.5 -8.5t-8.5 -3.5h-18q-30 -1 -43 -15.5t-13 -47.5v-15q0 -5 5 -5h76q5 0 8.5 -3.5zM404 594.5q-22 22.5 -22 56.5q0 35 21.5 57t56.5 22t57 -22t22 -57q0 -34 -22.5 -56.5t-56.5 -22.5t-56 22.5zM393.5 3.5q-3.5 3.5 -3.5 8.5v490
q0 5 3.5 8.5t8.5 3.5h117q5 0 8.5 -3.5t3.5 -8.5v-490q0 -5 -3.5 -8.5t-8.5 -3.5h-117q-5 0 -8.5 3.5z" />
    <glyph glyph-name="fl" unicode="fl" horiz-adv-x="569" 
d="M313.5 510.5q3.5 -3.5 3.5 -8.5v-85q0 -5 -3.5 -8.5t-8.5 -3.5h-76q-5 0 -5 -5v-388q0 -5 -3.5 -8.5t-8.5 -3.5h-117q-5 0 -8.5 3.5t-3.5 8.5v388q0 5 -5 5h-44q-5 0 -8.5 3.5t-3.5 8.5v85q0 5 3.5 8.5t8.5 3.5h44q5 0 5 5v25q0 61 20 96t62.5 49t112.5 12h20
q5 0 8.5 -3.5t3.5 -8.5v-80q0 -5 -3.5 -8.5t-8.5 -3.5h-18q-30 -1 -43 -15.5t-13 -47.5v-15q0 -5 5 -5h76q5 0 8.5 -3.5zM388.5 3.5q-3.5 3.5 -3.5 8.5v676q0 5 3.5 8.5t8.5 3.5h117q5 0 8.5 -3.5t3.5 -8.5v-676q0 -5 -3.5 -8.5t-8.5 -3.5h-117q-5 0 -8.5 3.5z" />
    <glyph glyph-name="I_J.liga" unicode="IJ" horiz-adv-x="764" 
d="M56.5 3.5q-3.5 3.5 -3.5 8.5v676q0 5 3.5 8.5t8.5 3.5h117q5 0 8.5 -3.5t3.5 -8.5v-676q0 -5 -3.5 -8.5t-8.5 -3.5h-117q-5 0 -8.5 3.5zM368.5 18q-50.5 26 -78.5 73t-28 109v66q0 5 3.5 8.5t8.5 3.5h117q5 0 8.5 -3.5t3.5 -8.5v-67q0 -39 22.5 -62.5t60.5 -23.5
q37 0 60.5 24t23.5 62v489q0 5 3.5 8.5t8.5 3.5h117q5 0 8.5 -3.5t3.5 -8.5v-488q0 -62 -28 -109t-79.5 -73t-117.5 -26q-67 0 -117.5 26z" />
    <glyph glyph-name="f_f_i.liga" unicode="ffi" horiz-adv-x="878" 
d="M703.5 594.5q-22.5 22.5 -22.5 56.5q0 35 22 57t57 22t57 -22t22 -57q0 -34 -22.5 -56.5t-56.5 -22.5t-56.5 22.5zM523 519q0 -5 5 -5h77q5 0 8.5 -3.5t3.5 -8.5v-82q0 -5 -3.5 -8.5t-8.5 -3.5h-77q-5 0 -5 -5v-391q0 -5 -3.5 -8.5t-8.5 -3.5h-117q-5 0 -8.5 3.5
t-3.5 8.5v391q0 5 -5 5h-149q-5 0 -5 -5v-391q0 -5 -3.5 -8.5t-8.5 -3.5h-117q-5 0 -8.5 3.5t-3.5 8.5v391q0 5 -5 5h-43q-5 0 -8.5 3.5t-3.5 8.5v82q0 5 3.5 8.5t8.5 3.5h43q5 0 5 5v34q0 85 46 119t149 29h19q5 0 8.5 -3.5t3.5 -8.5v-71q0 -5 -3.5 -8.5t-8.5 -3.5h-19
q-30 -1 -42 -17.5t-12 -47.5v-22q0 -5 5 -5h149q5 0 5 5v34q0 84 46.5 118.5t149.5 29.5h19q5 0 8.5 -3.5t3.5 -8.5v-71q0 -5 -3.5 -8.5t-8.5 -3.5h-19q-30 -1 -42.5 -17.5t-12.5 -47.5v-22zM692.5 3.5q-3.5 3.5 -3.5 8.5v490q0 5 3.5 8.5t8.5 3.5h117q5 0 8.5 -3.5
t3.5 -8.5v-490q0 -5 -3.5 -8.5t-8.5 -3.5h-117q-5 0 -8.5 3.5z" />
    <glyph glyph-name="f_f_l.liga" unicode="ffl" horiz-adv-x="868" 
d="M526 519q0 -5 5 -5h77q5 0 8.5 -3.5t3.5 -8.5v-82q0 -5 -3.5 -8.5t-8.5 -3.5h-77q-5 0 -5 -5v-391q0 -5 -3.5 -8.5t-8.5 -3.5h-117q-5 0 -8.5 3.5t-3.5 8.5v391q0 5 -5 5h-152q-5 0 -5 -5v-391q0 -5 -3.5 -8.5t-8.5 -3.5h-117q-5 0 -8.5 3.5t-3.5 8.5v391q0 5 -5 5h-43
q-5 0 -8.5 3.5t-3.5 8.5v82q0 5 3.5 8.5t8.5 3.5h43q5 0 5 5v34q0 85 46 119t149 29h19q5 0 8.5 -3.5t3.5 -8.5v-71q0 -5 -3.5 -8.5t-8.5 -3.5h-19q-30 -1 -42 -17.5t-12 -47.5v-22q0 -5 5 -5h152q5 0 5 5v34q0 85 46 119t149 29h19q5 0 8.5 -3.5t3.5 -8.5v-71
q0 -5 -3.5 -8.5t-8.5 -3.5h-19q-29 -1 -41.5 -17.5t-12.5 -47.5v-22zM687.5 696.5q3.5 3.5 8.5 3.5h117q5 0 8.5 -3.5t3.5 -8.5v-676q0 -5 -3.5 -8.5t-8.5 -3.5h-117q-5 0 -8.5 3.5t-3.5 8.5v676q0 5 3.5 8.5z" />
    <glyph glyph-name="g_j.liga" unicode="gj" horiz-adv-x="731" 
d="M556.5 594.5q-22.5 22.5 -22.5 56.5q0 35 22 57t57 22t56.5 -22t21.5 -57q0 -34 -22 -56.5t-56 -22.5t-56.5 22.5zM314 475q2 1 2 4v23q0 5 3.5 8.5t8.5 3.5h117q5 0 8.5 -3.5t3.5 -8.5v-467q0 -120 -66.5 -178.5t-190.5 -58.5q-27 0 -57 3q-12 1 -12 13l3 101
q0 11 13 11q15 -2 42 -2q67 0 97 28.5t30 90.5v0q0 3 -2 4t-4 -2q-37 -43 -102 -43t-110 38t-57 113q-7 26 -7 106t9 112q11 71 53 111t109 40q66 0 105 -45q2 -3 4 -2zM542 502q0 5 3.5 8.5t8.5 3.5h117q5 0 8.5 -3.5t3.5 -8.5v-502q0 -75 -17.5 -119t-63 -65t-129.5 -20
q-12 0 -12 12l4 96q0 11 14 11q34 0 48.5 21t14.5 63v503zM316 259q0 51 -4 83q-5 27 -22 43t-43 16q-25 0 -42.5 -16.5t-22.5 -42.5q-6 -36 -6 -83q0 -44 5 -81q5 -27 22.5 -43t44.5 -16q26 0 43 16t21 42q4 32 4 82z" />
    <glyph glyph-name="i_j.liga" unicode="ij" horiz-adv-x="468" 
d="M61.5 594.5q-22.5 22.5 -22.5 56.5q0 35 22 57t57 22t57 -22t22 -57q0 -34 -22.5 -56.5t-56.5 -22.5t-56.5 22.5zM292 594.5q-22 22.5 -22 56.5q0 35 21.5 57t56.5 22t57 -22t22 -57q0 -34 -22.5 -56.5t-56.5 -22.5t-56 22.5zM53.5 3.5q-3.5 3.5 -3.5 8.5v490
q0 5 3.5 8.5t8.5 3.5h117q5 0 8.5 -3.5t3.5 -8.5v-490q0 -5 -3.5 -8.5t-8.5 -3.5h-117q-5 0 -8.5 3.5zM174 -192v96q0 13 13 11q52 -1 72.5 19t20.5 65v503q0 5 3.5 8.5t8.5 3.5h117q5 0 8.5 -3.5t3.5 -8.5v-502q0 -77 -18 -120.5t-68.5 -64t-148.5 -19.5q-12 0 -12 12z" />
    <glyph glyph-name="hyphen_hyphen.liga" unicode="&#x2d;&#x2d;" horiz-adv-x="626" 
d="M29.5 235.5q-3.5 3.5 -3.5 8.5v97q0 5 3.5 8.5t8.5 3.5h550q5 0 8.5 -3.5t3.5 -8.5v-97q0 -5 -3.5 -8.5t-8.5 -3.5h-550q-5 0 -8.5 3.5z" />
    <glyph glyph-name=".notdef" horiz-adv-x="439" 
d="M5 0h429q5 0 5 5v690q0 5 -5 5h-429q-5 0 -5 -5v-690q0 -5 5 -5zM165.5 252.5q-3.5 3.5 -3.5 8.5v20q0 36 16 57.5t48 46.5q26 20 38 34.5t12 35.5q0 23 -14.5 37t-37.5 14q-25 0 -40 -15t-15 -39v-8q0 -11 -12 -11l-77 3q-5 0 -8.5 4t-3.5 9v3q0 65 44 105.5t115 40.5
q69 0 110 -38t41 -101q0 -45 -18.5 -71t-52.5 -52q-23 -17 -34 -30t-11 -32v-13q0 -5 -3.5 -8.5t-8.5 -3.5h-76q-5 0 -8.5 3.5zM170.5 105q-15.5 16 -15.5 40q0 25 15.5 41t40.5 16t40.5 -16t15.5 -41q0 -24 -16 -40t-40 -16q-25 0 -40.5 16z" />
    <glyph glyph-name=".null" 
 />
    <glyph glyph-name="nonmarkingreturn" unicode="&#xd;" horiz-adv-x="200" 
 />
    <glyph glyph-name="NULL" 
 />
    <glyph glyph-name="NULL" 
 />
    <glyph glyph-name="space" unicode=" " horiz-adv-x="200" 
 />
    <glyph glyph-name="exclam" unicode="!" horiz-adv-x="311" 
d="M102.5 243.5q-3.5 3.5 -3.5 8.5l-14 436q0 5 3.5 8.5t8.5 3.5h117q5 0 8.5 -3.5t3.5 -8.5l-14 -436q0 -5 -3.5 -8.5t-8.5 -3.5h-89q-5 0 -8.5 3.5zM97 23.5q-22 22.5 -22 56.5q0 35 21.5 57t56.5 22t57 -22t22 -57q0 -34 -22.5 -56.5t-56.5 -22.5t-56 22.5z" />
    <glyph glyph-name="quotedbl" unicode="&#x22;" horiz-adv-x="352" 
d="M32 474.5q-4 3.5 -4 8.5l-13 203q0 12 11 12h111q13 0 11 -12l-13 -203q0 -6 -3.5 -9t-9.5 -3h-81q-5 0 -9 3.5zM222 474.5q-4 3.5 -4 8.5l-13 203q0 12 11 12h111q13 0 11 -12l-13 -203q0 -6 -3.5 -9t-9.5 -3h-81q-5 0 -9 3.5z" />
    <glyph glyph-name="numbersign" unicode="#" horiz-adv-x="651" 
d="M607.5 407.5q-3.5 -3.5 -8.5 -3.5h-68q-6 0 -6 -5l-15 -99q0 -5 4 -5h49q5 0 8.5 -3.5t3.5 -8.5v-96q0 -5 -3.5 -8.5t-8.5 -3.5h-67q-6 0 -6 -5l-19 -132q-1 -11 -13 -11h-117q-12 0 -11 13l19 130q0 5 -4 5h-92q-6 0 -6 -5l-19 -132q-1 -11 -13 -11h-117q-12 0 -11 13
l19 130q0 5 -4 5h-49q-5 0 -8.5 3.5t-3.5 8.5v96q0 5 3.5 8.5t8.5 3.5h68q6 0 6 5l14 99q0 5 -4 5h-49q-5 0 -8.5 3.5t-3.5 8.5v97q0 5 3.5 8.5t8.5 3.5h68q6 0 6 5l19 132q1 11 13 11h117q12 0 11 -13l-19 -130q0 -5 4 -5h91q6 0 6 5l19 132q1 11 13 11h117q12 0 11 -13
l-19 -130q0 -5 4 -5h50q5 0 8.5 -3.5t3.5 -8.5v-97q0 -5 -3.5 -8.5zM369 300l15 99q0 5 -4 5h-92q-6 0 -6 -5l-14 -99q0 -5 4 -5h91q6 0 6 5z" />
    <glyph glyph-name="dollar" unicode="$" horiz-adv-x="508" 
d="M434 62.5q-44 -51.5 -120 -65.5q-5 -2 -5 -6l1 -60q0 -5 -3.5 -8.5t-8.5 -3.5h-91q-5 0 -8.5 3.5t-3.5 8.5l1 62q0 4 -5 6q-74 16 -116 66t-42 123v26q0 5 3.5 8.5t8.5 3.5h112q5 0 8.5 -3.5t3.5 -8.5v-19q0 -35 25.5 -58.5t68.5 -23.5q37 0 57.5 20t20.5 51
q0 23 -12.5 39.5t-35.5 31t-71 39.5q-59 30 -96 56t-63.5 67t-26.5 99q0 73 41.5 122.5t112.5 63.5q5 2 5 6l-1 69q0 5 3.5 8.5t8.5 3.5h90q5 0 8.5 -3.5t3.5 -8.5l-1 -69q0 -5 4 -6q74 -17 118 -69.5t44 -127.5v-20q0 -5 -3.5 -8.5t-8.5 -3.5h-111q-5 0 -8.5 3.5t-3.5 8.5
v18q0 36 -24.5 60t-66.5 24q-35 0 -55 -18.5t-20 -51.5q0 -23 11.5 -40t36.5 -32.5t74 -40.5q17 -10 20 -11q57 -33 89 -56.5t53.5 -59.5t21.5 -87q0 -76 -44 -127.5z" />
    <glyph glyph-name="percent" unicode="%" horiz-adv-x="795" 
d="M131 414q-36 21 -57 57.5t-21 79.5t21 79t57 57.5t79 21.5t79 -21.5t57 -57.5t21 -79t-21 -79.5t-57 -57.5t-79 -21t-79 21zM161 4q-2 4 1 10l370 678q5 8 15 8h75q7 0 9 -4t-1 -10l-370 -678q-5 -8 -15 -8h-75q-7 0 -9 4zM264.5 494q22.5 23 22.5 57q0 33 -22.5 56.5
t-54.5 23.5t-55 -23.5t-23 -56.5q0 -34 23 -57t55 -23t54.5 23zM510 12.5q-36 21.5 -57 58t-21 79.5t21 79t57 57t79 21t79 -21t57 -57t21 -79t-21 -79.5t-57 -58t-79 -21.5t-79 21.5zM643.5 92.5q22.5 23.5 22.5 57.5q0 33 -22.5 56t-54.5 23t-54.5 -23t-22.5 -56
q0 -34 22.5 -57.5t54.5 -23.5t54.5 23.5z" />
    <glyph glyph-name="ampersand" unicode="&#x26;" horiz-adv-x="654" 
d="M614 7q0 -7 -11 -7h-129q-8 0 -15 7l-32 36q-3 4 -7 1q-82 -53 -182 -53q-92 0 -149 45t-57 132q0 66 32 111.5t88 83.5q4 4 1 7q-48 61 -63 93.5t-15 69.5q0 50 24.5 90t68.5 62.5t101 22.5q59 0 105 -23t72 -64.5t26 -95.5q0 -61 -32.5 -105.5t-88.5 -82.5q-3 -3 -1 -7
l83 -98q2 -3 7 0q29 35 52 75q3 5 7.5 6.5t9.5 -1.5l86 -49q10 -7 4 -16q-32 -59 -78 -115q-3 -3 0 -6l89 -111q4 -6 4 -8zM231.5 564.5q-15.5 -15.5 -15.5 -41.5q0 -16 8.5 -32t37.5 -54q3 -4 7 -1q30 21 46 41.5t16 45.5q0 26 -16 41.5t-42 15.5t-41.5 -15.5zM337 140
q5 4 2 7l-41 48l-26 30l-31 37q-3 4 -7 1q-29 -21 -44.5 -42t-15.5 -46q0 -29 20 -47t54 -18q39 0 89 30z" />
    <glyph glyph-name="quotesingle" unicode="'" horiz-adv-x="169" 
d="M32 476.5q-4 3.5 -4 8.5l-13 202q0 12 11 12h118q13 0 11 -12l-13 -202q0 -6 -3.5 -9t-9.5 -3h-88q-5 0 -9 3.5z" />
    <glyph glyph-name="parenleft" unicode="(" horiz-adv-x="329" 
d="M120 -84q-54 76 -87 181t-33 235q0 131 33 237.5t88 182.5q4 7 14 7h114q7 0 9.5 -4t-0.5 -10q-100 -192 -100 -412q0 -218 99 -410q2 -4 2 -7q0 -7 -10 -7h-115q-10 0 -14 7z" />
    <glyph glyph-name="parenright" unicode=")" horiz-adv-x="329" 
d="M209 752q54 -76 87 -181.5t33 -235.5q0 -131 -33 -237t-88 -182q-4 -7 -14 -7h-114q-7 0 -9.5 4t1.5 10q99 192 99 412q0 218 -100 410q-2 4 -2 6q0 8 11 8h115q10 0 14 -7z" />
    <glyph glyph-name="asterisk" unicode="*" horiz-adv-x="380" 
d="M153.5 397.5q-3.5 3.5 -3.5 8.5l1 87q0 3 -2 4t-4 -1l-78 -46q-4 -2 -6 -2q-7 0 -11 7l-28 51q-2 4 -2 7q0 6 6 10l82 45q5 3 0 6l-81 43q-5 2 -6.5 7t1.5 10l28 52q3 5 7.5 6.5t9.5 -1.5l78 -46q2 -2 4 -1t2 4l-1 86q0 5 3.5 8.5t8.5 3.5h56q5 0 8.5 -3.5t3.5 -8.5v-86
q0 -3 2 -4t4 1l77 46q4 2 6 2q7 0 11 -7l28 -52q2 -4 2 -7q0 -7 -7 -10l-81 -43q-5 -3 0 -6l82 -45q5 -3 6 -8t-2 -9l-28 -52q-3 -5 -7.5 -6.5t-9.5 1.5l-77 47q-2 2 -4 1t-2 -4v-87q0 -5 -3.5 -8.5t-8.5 -3.5h-56q-5 0 -8.5 3.5z" />
    <glyph glyph-name="plus" unicode="+" horiz-adv-x="462" 
d="M432.5 358.5q3.5 -3.5 3.5 -8.5v-89q0 -5 -3.5 -8.5t-8.5 -3.5h-131q-5 0 -5 -5v-130q0 -5 -3.5 -8.5t-8.5 -3.5h-90q-5 0 -8.5 3.5t-3.5 8.5v130q0 5 -5 5h-131q-5 0 -8.5 3.5t-3.5 8.5v89q0 5 3.5 8.5t8.5 3.5h131q5 0 5 5v132q0 5 3.5 8.5t8.5 3.5h90q5 0 8.5 -3.5
t3.5 -8.5v-132q0 -5 5 -5h131q5 0 8.5 -3.5z" />
    <glyph glyph-name="comma" unicode="," horiz-adv-x="238" 
d="M36 -85l28 232q1 11 12 11h101q14 0 11 -13l-57 -233q-3 -10 -14 -10h-70q-13 0 -11 13z" />
    <glyph glyph-name="hyphen" unicode="-" horiz-adv-x="370" 
d="M29.5 238.5q-3.5 3.5 -3.5 8.5v97q0 5 3.5 8.5t8.5 3.5h294q5 0 8.5 -3.5t3.5 -8.5v-97q0 -5 -3.5 -8.5t-8.5 -3.5h-294q-5 0 -8.5 3.5z" />
    <glyph glyph-name="period" unicode="." horiz-adv-x="247" 
d="M64.5 18.5q-22.5 22.5 -22.5 56.5q0 35 22 57t57 22t57 -22t22 -57q0 -34 -22.5 -56.5t-56.5 -22.5t-56.5 22.5z" />
    <glyph glyph-name="slash" unicode="/" horiz-adv-x="444" 
d="M22 3.5q-3 3.5 -1 10.5l239 676q3 10 13 10h115q6 0 9 -3.5t1 -10.5l-238 -676q-3 -10 -13 -10h-116q-6 0 -9 3.5z" />
    <glyph glyph-name="zero" unicode="0" horiz-adv-x="511" 
d="M97 47.5q-59 58.5 -59 157.5v290q0 98 59 156.5t158 58.5t158.5 -58.5t59.5 -156.5v-290q0 -99 -59.5 -157.5t-158.5 -58.5t-158 58.5zM311 133.5q21 23.5 21 63.5v305q0 40 -21 63t-56 23t-55.5 -23t-20.5 -63v-305q0 -40 20.5 -63.5t55.5 -23.5t56 23.5z" />
    <glyph glyph-name="one" unicode="1" horiz-adv-x="319" 
d="M140 700h121q5 0 8.5 -3.5t3.5 -8.5v-676q0 -5 -3.5 -8.5t-8.5 -3.5h-117q-5 0 -8.5 3.5t-3.5 8.5v546q0 2 -1.5 4t-3.5 1l-89 -17l-4 -1q-9 0 -9 11l-3 86q0 10 9 14l94 41q8 3 15 3z" />
    <glyph glyph-name="two" unicode="2" horiz-adv-x="499" 
d="M214 123q1 -2 4 -2h240q5 0 8.5 -3.5t3.5 -8.5v-97q0 -5 -3.5 -8.5t-8.5 -3.5h-410q-5 0 -8.5 3.5t-3.5 8.5v97q0 8 6 14q121 139 201 241q72 93 72 147q0 35 -19 55.5t-51 20.5q-31 0 -50.5 -20.5t-19.5 -53.5v-33q0 -5 -3.5 -8.5t-8.5 -3.5h-119q-5 0 -8.5 3.5
t-3.5 8.5v47q5 82 65 131.5t151 49.5q63 0 110.5 -25t73.5 -70t26 -101q0 -47 -19 -92.5t-58 -97.5q-25 -33 -60 -74t-70 -80l-36 -41q-2 -2 -1 -4z" />
    <glyph glyph-name="three" unicode="3" horiz-adv-x="487" 
d="M450 225q0 -71 -24 -122q-24 -53 -70.5 -82t-114.5 -29q-81 0 -136 42t-69 112q-6 27 -8 68q0 12 12 12h118q12 0 12 -12q2 -31 6 -44q5 -27 22 -42t43 -15q24 0 40.5 13.5t23.5 38.5q8 30 8 70q0 44 -10 71q-17 52 -63 52q-18 0 -38 -14q-3 -2 -7 -2q-6 0 -10 4l-59 65
q-4 6 -4 9q0 4 4 8l142 145q2 2 1 4t-4 2h-212q-5 0 -8.5 3.5t-3.5 8.5v97q0 5 3.5 8.5t8.5 3.5h381q5 0 8.5 -3.5t3.5 -8.5v-100q0 -7 -6 -15l-125 -137q-3 -5 2 -6q39 -7 67.5 -30.5t45.5 -61.5q20 -48 20 -113z" />
    <glyph glyph-name="four" unicode="4" horiz-adv-x="544" 
d="M510.5 301.5q3.5 -3.5 3.5 -8.5v-103q0 -5 -3.5 -8.5t-8.5 -3.5h-37q-5 0 -5 -5v-161q0 -5 -3.5 -8.5t-8.5 -3.5h-117q-5 0 -8.5 3.5t-3.5 8.5v161q0 5 -5 5h-279q-5 0 -8.5 3.5t-3.5 8.5v81q0 6 3 15l156 405q3 9 14 9h125q15 0 10 -14l-144 -375q-1 -6 4 -6h123
q5 0 5 5v114q0 5 3.5 8.5t8.5 3.5h117q5 0 8.5 -3.5t3.5 -8.5v-114q0 -5 5 -5h37q5 0 8.5 -3.5z" />
    <glyph glyph-name="five" unicode="5" horiz-adv-x="488" 
d="M461 221q0 -47 -12 -89q-19 -67 -71 -103t-130 -36t-131 38t-71 109q-7 21 -8 43v2q0 10 11 10h119q12 0 13 -12q2 -12 4 -16q7 -26 23 -39.5t40 -13.5t41 14.5t22 39.5q7 21 7 52q0 32 -7 56t-23 36t-40 12q-47 0 -64 -39q-3 -10 -13 -10h-121q-5 0 -8.5 3.5t-3.5 8.5
v401q0 5 3.5 8.5t8.5 3.5h382q5 0 8.5 -3.5t3.5 -8.5v-97q0 -5 -3.5 -8.5t-8.5 -3.5h-248q-5 0 -5 -5l-1 -156q0 -4 2 -4.5t4 1.5q40 31 96 31q60 0 101.5 -28t60.5 -80q19 -51 19 -117z" />
    <glyph glyph-name="six" unicode="6" horiz-adv-x="488" 
d="M461 221q0 -51 -14 -93q-19 -65 -70 -100t-128 -35q-65 0 -112 27.5t-70 79.5q0 1 -0.5 2.5t-2.5 3.5q-26 44 -26 109l-1 313q0 82 57 131t151 49q90 0 146 -49t56 -130v-29q0 -5 -3.5 -8.5t-8.5 -3.5h-117q-5 0 -8.5 3.5t-3.5 8.5v15q0 31 -17.5 50.5t-43.5 19.5
q-29 0 -47.5 -20t-18.5 -51v-96q0 -3 2 -4t4 1q37 32 90 32q60 0 103 -31.5t63 -86.5q20 -48 20 -108zM318 224q0 40 -10 67q-16 42 -60 42q-43 0 -59 -42q-10 -25 -10 -68q0 -34 7 -59q14 -50 62 -50q47 0 63 51q7 27 7 59z" />
    <glyph glyph-name="seven" unicode="7" horiz-adv-x="451" 
d="M99.5 3.5q-2.5 3.5 -0.5 10.5l190 559q2 6 -4 6h-149q-5 0 -5 -5v-40q0 -5 -3.5 -8.5t-8.5 -3.5h-91q-5 0 -8.5 3.5t-3.5 8.5l1 154q0 5 3.5 8.5t8.5 3.5h398q5 0 8.5 -3.5t3.5 -8.5v-101q0 -9 -2 -15l-191 -562q-3 -10 -13 -10h-125q-6 0 -8.5 3.5z" />
    <glyph glyph-name="eight" unicode="8" horiz-adv-x="490" 
d="M456 204q0 -55 -20 -98q-24 -53 -73.5 -83.5t-116.5 -30.5q-66 0 -117 29.5t-76 84.5q-19 44 -19 98q0 58 20 100q16 37 51 59q4 3 0 7q-30 22 -46 54q-21 41 -21 92q0 61 29 105q25 43 72 67.5t106 24.5q60 0 106 -23.5t72 -67.5q29 -46 29 -107q0 -50 -22 -92
q-19 -33 -47 -52q-4 -4 0 -7q35 -21 52 -59q21 -44 21 -101zM177 506q0 -26 10 -48q17 -40 58 -40q42 0 59 41q9 20 9 48q0 21 -8 42q-7 19 -23 31t-37 12t-37 -11.5t-23 -32.5q-8 -21 -8 -42zM316 214q0 32 -10 57q-8 21 -23.5 33t-37.5 12q-44 0 -60 -45q-10 -21 -10 -56
q0 -30 10 -57q8 -21 23.5 -33t36.5 -12t36.5 11.5t23.5 32.5q11 24 11 57z" />
    <glyph glyph-name="nine" unicode="9" horiz-adv-x="482" 
d="M445 172q0 -82 -57 -131t-151 -49q-90 0 -146 49t-56 130v29q0 5 3.5 8.5t8.5 3.5h117q5 0 8.5 -3.5t3.5 -8.5v-15q0 -31 17.5 -50.5t43.5 -19.5q29 0 47.5 20t18.5 51v96q0 3 -2 3.5t-4 -1.5q-35 -31 -89 -31q-61 0 -104 31.5t-62 86.5q-21 47 -21 108q0 51 14 93
q19 65 70 100t128 35q65 0 112 -27.5t70 -79.5l2 -5q27 -45 27 -110zM293 409q10 25 10 68q0 34 -7 59q-14 50 -62 50q-47 0 -63 -51q-7 -27 -7 -59q0 -40 10 -67q17 -42 60 -42t59 42z" />
    <glyph glyph-name="colon" unicode=":" horiz-adv-x="319" 
d="M102.5 353.5q-22.5 22.5 -22.5 56.5q0 35 22 57t57 22t57 -22t22 -57q0 -34 -22.5 -56.5t-56.5 -22.5t-56.5 22.5zM102.5 25.5q-22.5 22.5 -22.5 56.5q0 35 22 57t57 22t57 -22t22 -57q0 -34 -22.5 -56.5t-56.5 -22.5t-56.5 22.5z" />
    <glyph glyph-name="semicolon" unicode=";" horiz-adv-x="274" 
d="M75 338q-25 25 -25 62q0 35 27 60.5t61 25.5t61 -25.5t27 -60.5q0 -36 -25 -61.5t-63 -25.5t-63 25zM58.5 -93.5q-3.5 3.5 -2.5 9.5l21 229q2 11 12 11h102q14 0 11 -13l-51 -229q-2 -11 -13 -11h-70q-6 0 -9.5 3.5z" />
    <glyph glyph-name="less" unicode="&#x3c;" horiz-adv-x="462" 
d="M432 41.5q-4 -2.5 -10 0.5l-387 175q-9 5 -9 14v101q0 10 9 14l387 175q4 2 6 2q8 0 8 -11v-110q0 -9 -9 -14l-254 -104q-6 -3 0 -6l254 -103q9 -4 9 -14v-110q0 -7 -4 -9.5z" />
    <glyph glyph-name="equal" unicode="=" horiz-adv-x="462" 
d="M29.5 346.5q-3.5 3.5 -3.5 8.5v89q0 5 3.5 8.5t8.5 3.5h386q5 0 8.5 -3.5t3.5 -8.5v-89q0 -5 -3.5 -8.5t-8.5 -3.5h-386q-5 0 -8.5 3.5zM29.5 158.5q-3.5 3.5 -3.5 8.5v89q0 5 3.5 8.5t8.5 3.5h386q5 0 8.5 -3.5t3.5 -8.5v-89q0 -5 -3.5 -8.5t-8.5 -3.5h-386
q-5 0 -8.5 3.5z" />
    <glyph glyph-name="greater" unicode="&#x3e;" horiz-adv-x="462" 
d="M34 40q-8 0 -8 11v110q0 10 9 14l254 103q6 3 0 6l-254 104q-9 5 -9 14v110q0 7 4 9.5t10 -0.5l387 -175q9 -4 9 -14v-101q0 -9 -9 -14l-387 -175q-4 -2 -6 -2z" />
    <glyph glyph-name="question" unicode="?" horiz-adv-x="479" 
d="M157.5 225.5q-3.5 3.5 -3.5 8.5v32q0 50 23 81t67 64q35 27 52 48t17 51q0 32 -19.5 51.5t-52.5 19.5q-35 0 -56 -20.5t-21 -54.5v-16q0 -11 -12 -11l-117 5q-5 0 -8.5 3.5t-3.5 8.5v10q0 60 28 106.5t78.5 72t115.5 25.5q96 0 153.5 -53.5t57.5 -141.5q0 -44 -14 -75.5
t-34 -51.5t-51 -44q-33 -25 -48 -43t-15 -44v-23q0 -5 -3.5 -8.5t-8.5 -3.5h-116q-5 0 -8.5 3.5zM165.5 20.5q-22.5 22.5 -22.5 56.5t22 56t57 22t57 -22t22 -56t-22.5 -56.5t-56.5 -22.5t-56.5 22.5z" />
    <glyph glyph-name="at" unicode="@" horiz-adv-x="786" 
d="M600.5 619q71.5 -37 111 -104.5t39.5 -156.5q0 -26 -3 -53q-13 -99 -63 -153.5t-129 -54.5q-70 0 -105 40q-4 3 -7 0q-35 -40 -103 -40q-49 0 -80 28.5t-33 78.5q-1 5 -1 17q0 14 2 34.5t3 29.5q7 49 15 71q13 53 46 81.5t80 28.5q43 0 68 -24q5 -3 6 2l1 6q1 11 12 11
h71q12 0 11 -13l-24 -179q-1 -7 -1 -19q0 -30 13.5 -47t36.5 -17q32 0 53 32t28 86q3 24 3 46q0 104 -60 161.5t-162 57.5q-74 0 -138.5 -36.5t-106.5 -102.5t-51 -151q-3 -22 -3 -43q0 -71 29 -123t78 -79t109 -27q44 0 80.5 11.5t60.5 28.5q4 3 8 3q6 0 9 -6l34 -50
q3 -5 3 -8q0 -6 -5 -9q-37 -27 -91 -43.5t-114 -16.5q-85 0 -152 39.5t-105.5 111t-38.5 164.5q0 26 3 53q13 110 70 194.5t143.5 130.5t184.5 46q93 0 164.5 -37zM394 188.5q13 11.5 19 30.5q1 4 5.5 21.5t6.5 40.5l4 62q0 19 -11 30t-29 11t-32 -11.5t-19 -29.5
q-10 -31 -12 -64q-6 -39 -4 -60q1 -20 11.5 -31t29.5 -11q18 0 31 11.5z" />
    <glyph glyph-name="A" unicode="A" horiz-adv-x="577" 
d="M409 10l-23 98q-1 4 -5 4h-187q-4 0 -5 -4l-23 -98q-3 -10 -13 -10h-121q-13 0 -10 13l180 677q3 10 14 10h145q11 0 14 -10l180 -677l1 -4q0 -9 -11 -9h-122q-11 0 -14 10zM217 222.5q2 -1.5 4 -1.5h132q2 0 4 1.5t1 4.5l-69 290q-1 4 -3 4t-3 -4l-67 -290q-1 -3 1 -4.5
z" />
    <glyph glyph-name="B" unicode="B" horiz-adv-x="545" 
d="M447.5 49.5q-61.5 -49.5 -158.5 -49.5h-224q-5 0 -8.5 3.5t-3.5 8.5v676q0 5 3.5 8.5t8.5 3.5h209q107 0 166 -47.5t59 -144.5q0 -99 -77 -143q-5 -3 -1 -6q88 -50 88 -165q0 -95 -61.5 -144.5zM194 574v-157q0 -5 5 -5h76q40 0 63 22t23 61q0 40 -22.5 62t-63.5 22h-76
q-5 0 -5 -5zM345.5 145.5q22.5 23.5 22.5 66.5t-22.5 67.5t-62.5 24.5h-84q-5 0 -5 -5v-172q0 -5 5 -5h84q40 0 62.5 23.5z" />
    <glyph glyph-name="C" unicode="C" horiz-adv-x="536" 
d="M150 19q-52 27 -80.5 77t-28.5 116v278q0 65 28.5 114.5t80.5 76.5t120 27t120 -26.5t80.5 -74.5t28.5 -112v-5q0 -5 -3.5 -9t-8.5 -4l-117 -5q-12 0 -12 11v13q0 41 -24 66t-64 25t-64 -25t-24 -66v-293q0 -41 24 -65.5t64 -24.5t64 24.5t24 65.5v13q0 11 12 11l117 -5
q5 0 8.5 -3.5t3.5 -8.5v-3q0 -64 -28.5 -113t-80.5 -75.5t-120 -26.5t-120 27z" />
    <glyph glyph-name="D" unicode="D" horiz-adv-x="547" 
d="M56.5 3.5q-3.5 3.5 -3.5 8.5v676q0 5 3.5 8.5t8.5 3.5h215q67 0 118.5 -25t79.5 -71t28 -107v-294q0 -61 -28 -107t-79.5 -71t-118.5 -25h-215q-5 0 -8.5 3.5zM199 121l82 1q37 0 60 26.5t24 70.5v262q0 45 -23 71.5t-61 26.5h-82q-5 0 -5 -5v-448q0 -5 5 -5z" />
    <glyph glyph-name="E" unicode="E" horiz-adv-x="511" 
d="M475.5 582.5q-3.5 -3.5 -8.5 -3.5h-268q-5 0 -5 -5v-156q0 -5 5 -5h167q5 0 8.5 -3.5t3.5 -8.5v-97q0 -5 -3.5 -8.5t-8.5 -3.5h-167q-5 0 -5 -5v-161q0 -5 5 -5h268q5 0 8.5 -3.5t3.5 -8.5v-97q0 -5 -3.5 -8.5t-8.5 -3.5h-402q-5 0 -8.5 3.5t-3.5 8.5v676q0 5 3.5 8.5
t8.5 3.5h402q5 0 8.5 -3.5t3.5 -8.5v-97q0 -5 -3.5 -8.5z" />
    <glyph glyph-name="F" unicode="F" horiz-adv-x="490" 
d="M474.5 582.5q-3.5 -3.5 -8.5 -3.5h-267q-5 0 -5 -5v-156q0 -5 5 -5h166q5 0 8.5 -3.5t3.5 -8.5v-97q0 -5 -3.5 -8.5t-8.5 -3.5h-166q-5 0 -5 -5v-275q0 -5 -3.5 -8.5t-8.5 -3.5h-117q-5 0 -8.5 3.5t-3.5 8.5v676q0 5 3.5 8.5t8.5 3.5h401q5 0 8.5 -3.5t3.5 -8.5v-97
q0 -5 -3.5 -8.5z" />
    <glyph glyph-name="G" unicode="G" horiz-adv-x="540" 
d="M150 19q-52 27 -80.5 76.5t-28.5 114.5v281q0 65 28.5 114t80.5 76t120 27q67 0 119.5 -26.5t81 -74t28.5 -107.5v-22q0 -5 -3.5 -8.5t-8.5 -3.5h-117q-5 0 -8.5 3.5t-3.5 8.5v21q0 38 -24 63t-64 25t-64.5 -26t-24.5 -68v-286q0 -42 25.5 -68t66.5 -26q39 0 62.5 23
t23.5 63v62q0 5 -5 5h-78q-5 0 -8.5 3.5t-3.5 8.5v91q0 5 3.5 8.5t8.5 3.5h211q5 0 8.5 -3.5t3.5 -8.5v-159q0 -100 -62.5 -159t-166.5 -59q-68 0 -120 27z" />
    <glyph glyph-name="H" unicode="H" horiz-adv-x="554" 
d="M367.5 696.5q3.5 3.5 8.5 3.5h117q5 0 8.5 -3.5t3.5 -8.5v-676q0 -5 -3.5 -8.5t-8.5 -3.5h-117q-5 0 -8.5 3.5t-3.5 8.5v274q0 5 -5 5h-160q-5 0 -5 -5v-274q0 -5 -3.5 -8.5t-8.5 -3.5h-117q-5 0 -8.5 3.5t-3.5 8.5v676q0 5 3.5 8.5t8.5 3.5h117q5 0 8.5 -3.5t3.5 -8.5
v-270q0 -5 5 -5h160q5 0 5 5v270q0 5 3.5 8.5z" />
    <glyph glyph-name="I" unicode="I" horiz-adv-x="246" 
d="M56.5 3.5q-3.5 3.5 -3.5 8.5v676q0 5 3.5 8.5t8.5 3.5h117q5 0 8.5 -3.5t3.5 -8.5v-676q0 -5 -3.5 -8.5t-8.5 -3.5h-117q-5 0 -8.5 3.5z" />
    <glyph glyph-name="J" unicode="J" horiz-adv-x="518" 
d="M122.5 18q-50.5 26 -78.5 73t-28 109v66q0 5 3.5 8.5t8.5 3.5h117q5 0 8.5 -3.5t3.5 -8.5v-67q0 -39 22.5 -62.5t60.5 -23.5q37 0 60.5 24t23.5 62v489q0 5 3.5 8.5t8.5 3.5h117q5 0 8.5 -3.5t3.5 -8.5v-488q0 -62 -28 -109t-79.5 -73t-117.5 -26q-67 0 -117.5 26z" />
    <glyph glyph-name="K" unicode="K" horiz-adv-x="558" 
d="M56.5 3.5q-3.5 3.5 -3.5 8.5v676q0 5 3.5 8.5t8.5 3.5h117q5 0 8.5 -3.5t3.5 -8.5v-266q0 -3 2.5 -4t3.5 2l179 272q5 8 14 8h129q7 0 9.5 -4t-1.5 -10l-185 -287q-1 -3 0 -7l196 -378q2 -4 2 -6q0 -8 -11 -8h-128q-9 0 -14 9l-142 274q-1 3 -3 3t-4 -3l-45 -65
q-2 -4 -2 -6v-200q0 -5 -3.5 -8.5t-8.5 -3.5h-117q-5 0 -8.5 3.5z" />
    <glyph glyph-name="L" unicode="L" horiz-adv-x="499" 
d="M56.5 3.5q-3.5 3.5 -3.5 8.5v676q0 5 3.5 8.5t8.5 3.5h117q5 0 8.5 -3.5t3.5 -8.5v-562q0 -5 5 -5h268q5 0 8.5 -3.5t3.5 -8.5v-97q0 -5 -3.5 -8.5t-8.5 -3.5h-402q-5 0 -8.5 3.5z" />
    <glyph glyph-name="M" unicode="M" horiz-adv-x="631" 
d="M452 700h116q5 0 8.5 -3.5t3.5 -8.5v-676q0 -5 -3.5 -8.5t-8.5 -3.5h-117q-5 0 -8.5 3.5t-3.5 8.5v444q0 4 -2 4.5t-4 -2.5l-92 -152q-4 -8 -14 -8h-23q-10 0 -14 8l-92 152q-2 3 -4 2.5t-2 -4.5v-444q0 -5 -3.5 -8.5t-8.5 -3.5h-117q-5 0 -8.5 3.5t-3.5 8.5v676
q0 5 3.5 8.5t8.5 3.5h116q10 0 14 -8l120 -197q3 -6 6 0l119 197q4 8 14 8z" />
    <glyph glyph-name="N" unicode="N" horiz-adv-x="590" 
d="M400.5 696.5q3.5 3.5 8.5 3.5h116q5 0 8.5 -3.5t3.5 -8.5v-676q0 -5 -3.5 -8.5t-8.5 -3.5h-122q-10 0 -14 9l-191 407q-2 3 -4 3t-2 -4l1 -403q0 -5 -3.5 -8.5t-8.5 -3.5h-116q-5 0 -8.5 3.5t-3.5 8.5v676q0 5 3.5 8.5t8.5 3.5h121q10 0 14 -9l191 -407q2 -3 4 -3t2 4
v403q0 5 3.5 8.5z" />
    <glyph glyph-name="O" unicode="O" horiz-adv-x="547" 
d="M151.5 19q-52.5 28 -81.5 79t-29 119v266q0 67 29 118t81.5 79t121.5 28t122 -28t82 -79t29 -118v-266q0 -68 -29 -119t-82 -79t-122 -28t-121.5 28zM340 139.5q25 27.5 25 71.5v276q0 45 -25 72.5t-67 27.5q-41 0 -66 -27.5t-25 -72.5v-276q0 -44 25 -71.5t66 -27.5
q42 0 67 27.5z" />
    <glyph glyph-name="P" unicode="P" horiz-adv-x="531" 
d="M410.5 674q46.5 -27 72 -76t25.5 -112q0 -62 -25.5 -109.5t-72 -73.5t-106.5 -26h-108q-5 0 -5 -5v-260q0 -5 -3.5 -8.5t-8.5 -3.5h-117q-5 0 -8.5 3.5t-3.5 8.5v677q0 5 3.5 8.5t8.5 3.5h242q60 0 106.5 -27zM343.5 414.5q23.5 25.5 23.5 68.5q0 44 -23.5 70t-62.5 26
h-85q-5 0 -5 -5v-180q0 -5 5 -5h85q39 0 62.5 25.5z" />
    <glyph glyph-name="Q" unicode="Q" horiz-adv-x="527" 
d="M381.5 679.5q51.5 -28.5 80 -80t28.5 -119.5v-265q0 -80 -40.5 -136.5t-111.5 -76.5q-4 -1 -4 -5v-83q0 -5 -3.5 -8.5t-8.5 -3.5h-117q-5 0 -8.5 3.5t-3.5 8.5v83q0 4 -4 5q-70 20 -110.5 76.5t-40.5 136.5v265q0 68 28 119.5t79 80t118 28.5t118.5 -28.5zM349 491
q0 43 -23.5 69.5t-62.5 26.5q-37 0 -60.5 -26.5t-23.5 -69.5v-282q0 -43 23.5 -69.5t60.5 -26.5q39 0 62.5 26.5t23.5 69.5v282z" />
    <glyph glyph-name="R" unicode="R" horiz-adv-x="543" 
d="M368 10l-101 276q-2 4 -5 4h-63q-5 0 -5 -5v-273q0 -5 -3.5 -8.5t-8.5 -3.5h-117q-5 0 -8.5 3.5t-3.5 8.5v676q0 5 3.5 8.5t8.5 3.5h244q59 0 105 -26.5t71 -74.5t25 -110q0 -64 -28 -111t-79 -70q-5 -2 -3 -7l114 -287q1 -2 1 -5q0 -9 -11 -9h-122q-11 0 -14 10z
M194 574v-171q0 -5 5 -5h87q37 0 60 24.5t23 65.5q0 42 -23 66.5t-60 24.5h-87q-5 0 -5 -5z" />
    <glyph glyph-name="S" unicode="S" horiz-adv-x="520" 
d="M142 16.5q-52 24.5 -80.5 69t-28.5 102.5v26q0 5 3.5 8.5t8.5 3.5h115q5 0 8.5 -3.5t3.5 -8.5v-19q0 -35 26 -58.5t70 -23.5q39 0 59.5 20t20.5 51q0 23 -13 39.5t-36.5 31t-72.5 39.5q-60 30 -98 56t-65 67t-27 99t27.5 101.5t77.5 67t114 23.5q67 0 119 -25.5t81 -71.5
t29 -106v-20q0 -5 -3.5 -8.5t-8.5 -3.5h-115q-5 0 -8.5 3.5t-3.5 8.5v18q0 36 -25 60t-68 24q-36 0 -56.5 -18.5t-20.5 -51.5q0 -23 12 -40t37 -32.5t76 -40.5l21 -12q58 -32 90.5 -55.5t54.5 -59.5t22 -87q0 -91 -61.5 -144.5t-163.5 -53.5q-69 0 -121 24.5z" />
    <glyph glyph-name="T" unicode="T" horiz-adv-x="526" 
d="M496.5 696.5q3.5 -3.5 3.5 -8.5v-98q0 -5 -3.5 -8.5t-8.5 -3.5h-152q-5 0 -5 -5v-561q0 -5 -3.5 -8.5t-8.5 -3.5h-117q-5 0 -8.5 3.5t-3.5 8.5v561q0 5 -5 5h-147q-5 0 -8.5 3.5t-3.5 8.5v98q0 5 3.5 8.5t8.5 3.5h450q5 0 8.5 -3.5z" />
    <glyph glyph-name="U" unicode="U" horiz-adv-x="554" 
d="M157 20q-52 28 -80.5 78.5t-28.5 116.5v473q0 5 3.5 8.5t8.5 3.5h117q5 0 8.5 -3.5t3.5 -8.5v-480q0 -43 24 -69t64 -26t64 26t24 69v480q0 5 3.5 8.5t8.5 3.5h117q5 0 8.5 -3.5t3.5 -8.5v-473q0 -66 -28.5 -116.5t-80.5 -78.5t-120 -28t-120 28z" />
    <glyph glyph-name="V" unicode="V" horiz-adv-x="555" 
d="M199 10l-174 677v4q0 9 11 9h127q11 0 13 -11l101 -465q1 -4 3 -4t3 4l100 465q2 11 13 11h123q14 0 11 -13l-176 -677q-3 -10 -14 -10h-127q-11 0 -14 10z" />
    <glyph glyph-name="W" unicode="W" horiz-adv-x="783" 
d="M179 10l-157 677v4q0 9 11 9h123q12 0 13 -11l76 -384q1 -3 3 -3t3 3l73 384q1 11 13 11h111q11 0 13 -11l80 -384q1 -3 3 -3t3 3l72 384q1 11 13 11h118q13 0 10 -13l-146 -676q-2 -11 -13 -11h-113q-11 0 -13 11l-81 402q-1 3 -3 3t-3 -3l-73 -402q-1 -11 -13 -11h-110
q-10 0 -13 10z" />
    <glyph glyph-name="X" unicode="X" horiz-adv-x="553" 
d="M28.5 3.5q-2.5 3.5 0.5 10.5l165 333q1 3 0 6l-165 333q-2 4 -2 6q0 8 11 8h123q10 0 14 -9l99 -211q3 -6 6 0l98 211q4 9 14 9h123q7 0 9.5 -3.5t-0.5 -10.5l-164 -333q-1 -3 0 -6l164 -333q2 -4 2 -6q0 -8 -11 -8h-122q-10 0 -14 9l-99 210q-3 6 -6 0l-99 -210
q-4 -9 -14 -9h-123q-7 0 -9.5 3.5z" />
    <glyph glyph-name="Y" unicode="Y" horiz-adv-x="546" 
d="M205.5 4.5q-3.5 3.5 -3.5 8.5v256l-1 6l-173 411q-1 2 -1 6q0 8 10 8h126q11 0 14 -10l93 -253q1 -3 3 -3t3 3l93 253q3 10 14 10h126q7 0 9 -4t0 -10l-174 -411l-1 -6v-256q0 -5 -3.5 -8.5t-8.5 -3.5h-117q-5 0 -8.5 3.5z" />
    <glyph glyph-name="Z" unicode="Z" horiz-adv-x="485" 
d="M29.5 3.5q-3.5 3.5 -3.5 8.5v105q0 8 4 15l268 441q3 6 -3 6h-257q-5 0 -8.5 3.5t-3.5 8.5v97q0 5 3.5 8.5t8.5 3.5h404q5 0 8.5 -3.5t3.5 -8.5v-105q0 -8 -4 -15l-268 -441q-3 -6 3 -6h257q5 0 8.5 -3.5t3.5 -8.5v-97q0 -5 -3.5 -8.5t-8.5 -3.5h-404q-5 0 -8.5 3.5z" />
    <glyph glyph-name="bracketleft" unicode="[" horiz-adv-x="381" 
d="M34.5 -143.5q-3.5 3.5 -3.5 8.5v923q0 5 3.5 8.5t8.5 3.5h221q5 0 8.5 -3.5t3.5 -8.5v-97q0 -5 -3.5 -8.5t-8.5 -3.5h-87q-5 0 -5 -5v-694q0 -5 5 -5h88q5 0 8.5 -3.5t3.5 -8.5v-98q0 -5 -3.5 -8.5t-8.5 -3.5h-222q-5 0 -8.5 3.5z" />
    <glyph glyph-name="backslash" unicode="\" horiz-adv-x="444" 
d="M424 9q0 -9 -11 -9h-116q-10 0 -13 10l-238 676q-1 2 -1 5q0 9 11 9h115q10 0 13 -10l239 -676q1 -2 1 -5z" />
    <glyph glyph-name="bracketright" unicode="]" horiz-adv-x="381" 
d="M345.5 -143.5q-3.5 -3.5 -8.5 -3.5h-221q-5 0 -8.5 3.5t-3.5 8.5v98q0 5 3.5 8.5t8.5 3.5h87q5 0 5 5v694q0 5 -5 5h-87q-5 0 -8.5 3.5t-3.5 8.5v97q0 5 3.5 8.5t8.5 3.5h221q5 0 8.5 -3.5t3.5 -8.5v-923q0 -5 -3.5 -8.5z" />
    <glyph glyph-name="asciicircum" unicode="^" horiz-adv-x="448" 
d="M31.5 301.5q-2.5 3.5 -0.5 10.5l130 378q3 10 13 10h98q10 0 13 -10l131 -378q1 -2 1 -5q0 -9 -11 -9h-94q-10 0 -13 10l-72 237q-1 4 -3 4t-3 -4l-72 -237q-3 -10 -13 -10h-96q-6 0 -8.5 3.5z" />
    <glyph glyph-name="underscore" unicode="_" horiz-adv-x="472" 
d="M19.5 3.5q-3.5 3.5 -3.5 8.5v83q0 5 3.5 8.5t8.5 3.5h416q5 0 8.5 -3.5t3.5 -8.5v-83q0 -5 -3.5 -8.5t-8.5 -3.5h-416q-5 0 -8.5 3.5z" />
    <glyph glyph-name="grave" unicode="`" horiz-adv-x="226" 
d="M204 584q0 -8 -10 -8h-80q-9 0 -14 7l-74 102q-3 5 -3 7q0 8 11 8h96q10 0 15 -8l57 -102q2 -4 2 -6z" />
    <glyph glyph-name="a" unicode="a" horiz-adv-x="487" 
d="M348 500.5q47 -21.5 73.5 -60t26.5 -87.5v-341q0 -5 -3.5 -8.5t-8.5 -3.5h-117q-5 0 -8.5 3.5t-3.5 8.5v28q0 3 -2 4t-4 -2q-38 -50 -118 -50q-68 0 -113.5 35t-45.5 117q0 163 204 163h74q5 0 5 5v23q0 30 -17.5 48t-47.5 18q-24 0 -40 -11t-20 -30q-3 -10 -14 -10
l-121 7q-5 0 -8.5 3t-2.5 8q6 69 62.5 111.5t142.5 42.5q60 0 107 -21.5zM283 118q24 19 24 50v42q0 5 -5 5h-56q-37 0 -58 -16t-21 -46q0 -26 16 -40t42 -14q34 0 58 19z" />
    <glyph glyph-name="b" unicode="b" horiz-adv-x="505" 
d="M465 262q0 -67 -10 -111q-33 -159 -156 -159q-69 0 -106 43q-2 3 -4 2t-2 -4v-21q0 -5 -3.5 -8.5t-8.5 -3.5h-117q-5 0 -8.5 3.5t-3.5 8.5v676q0 5 3.5 8.5t8.5 3.5h117q5 0 8.5 -3.5t3.5 -8.5v-205q0 -3 2 -4t4 2q19 22 44.5 31.5t59.5 9.5q65 0 105 -40t54 -115
q9 -44 9 -105zM324 258q0 60 -9 89q-16 54 -61 54q-46 0 -59 -55q-8 -35 -8 -88q0 -58 8 -87q13 -58 59 -58q49 0 62 59q8 33 8 86z" />
    <glyph glyph-name="c" unicode="c" horiz-adv-x="486" 
d="M110.5 34.5q-54.5 42.5 -67.5 116.5q-8 41 -8 108q0 50 8 106q13 72 68 114.5t138 42.5q81 0 136.5 -41t68.5 -108q2 -9 4 -29q0 -11 -12 -13l-115 -11h-2q-9 0 -11 11q0 7 -1 10q-2 8 -4 14q-6 20 -23 33t-42 13q-27 0 -44 -16t-22 -44q-6 -33 -6 -83q0 -55 7 -86
q5 -27 21.5 -43t43.5 -16q29 0 46.5 16t20.5 40l2 12q1 5 4.5 8.5t8.5 2.5l116 -10q11 -2 11 -13q0 -6 -2 -20q-10 -73 -65.5 -115t-140.5 -42q-84 0 -138.5 42.5z" />
    <glyph glyph-name="d" unicode="d" horiz-adv-x="505" 
d="M322.5 696.5q3.5 3.5 8.5 3.5h117q5 0 8.5 -3.5t3.5 -8.5v-676q0 -5 -3.5 -8.5t-8.5 -3.5h-117q-5 0 -8.5 3.5t-3.5 8.5v22q0 3 -2 4t-4 -2q-37 -44 -106 -44q-122 0 -157 159q-10 50 -10 111q0 54 9 105q31 155 160 155q35 0 60 -9.5t44 -32.5q2 -3 4 -2t2 4v206
q0 5 3.5 8.5zM318 258q0 53 -8 88q-13 55 -59 55q-23 0 -38 -14t-22 -40q-9 -29 -9 -89q0 -57 7 -86q13 -59 62 -59q45 0 60 58q7 29 7 87z" />
    <glyph glyph-name="e" unicode="e" horiz-adv-x="492" 
d="M461 262l-1 -39q0 -12 -12 -12h-265q-5 0 -5 -5q2 -23 4 -34q5 -28 24.5 -44t48.5 -16q49 1 68 45q5 10 15 8l106 -21q12 -3 8 -15q-22 -66 -72.5 -101.5t-124.5 -35.5q-89 0 -141.5 40.5t-68.5 116.5q-9 41 -9 125q0 48 6 81q11 76 66 121.5t139 45.5q91 0 148 -51.5
t63 -135.5q3 -33 3 -73zM203.5 385q-17.5 -16 -22.5 -44q-3 -18 -3 -38q0 -5 5 -5h130q5 0 5 5q0 20 -3 38q-4 27 -22 43.5t-45 16.5t-44.5 -16z" />
    <glyph glyph-name="f" unicode="f" horiz-adv-x="342" 
d="M313.5 510.5q3.5 -3.5 3.5 -8.5v-85q0 -5 -3.5 -8.5t-8.5 -3.5h-76q-5 0 -5 -5v-388q0 -5 -3.5 -8.5t-8.5 -3.5h-117q-5 0 -8.5 3.5t-3.5 8.5v388q0 5 -5 5h-44q-5 0 -8.5 3.5t-3.5 8.5v85q0 5 3.5 8.5t8.5 3.5h44q5 0 5 5v25q0 61 20 96t62.5 49t112.5 12h20
q5 0 8.5 -3.5t3.5 -8.5v-80q0 -5 -3.5 -8.5t-8.5 -3.5h-18q-30 -1 -43 -15.5t-13 -47.5v-15q0 -5 5 -5h76q5 0 8.5 -3.5z" />
    <glyph glyph-name="g" unicode="g" horiz-adv-x="498" 
d="M319.5 510.5q3.5 3.5 8.5 3.5h117q5 0 8.5 -3.5t3.5 -8.5v-467q0 -120 -66.5 -178.5t-190.5 -58.5q-27 0 -57 3q-12 1 -12 13l3 101q0 11 13 11q15 -2 42 -2q67 0 97 28.5t30 90.5v0q0 3 -2 4t-4 -2q-37 -43 -102 -43t-110 38t-57 113q-7 26 -7 106t9 112q11 71 53 111
t109 40q66 0 105 -45q2 -3 4 -2t2 4v23q0 5 3.5 8.5zM316 259q0 51 -4 83q-5 27 -22 43t-43 16q-25 0 -42.5 -16.5t-22.5 -42.5q-6 -36 -6 -83q0 -44 5 -81q5 -27 22.5 -43t44.5 -16q26 0 43 16t21 42q4 32 4 82z" />
    <glyph glyph-name="h" unicode="h" horiz-adv-x="497" 
d="M413.5 475.5q41.5 -46.5 41.5 -129.5v-334q0 -5 -3.5 -8.5t-8.5 -3.5h-117q-5 0 -8.5 3.5t-3.5 8.5v314q0 35 -17 55t-46 20q-30 0 -47.5 -20.5t-17.5 -55.5v-313q0 -5 -3.5 -8.5t-8.5 -3.5h-117q-5 0 -8.5 3.5t-3.5 8.5v676q0 5 3.5 8.5t8.5 3.5h117q5 0 8.5 -3.5
t3.5 -8.5v-214q0 -3 2 -3.5t5 3.5q36 48 106 48q73 0 114.5 -46.5z" />
    <glyph glyph-name="i" unicode="i" horiz-adv-x="237" 
d="M62 594.5q-22 22.5 -22 56.5q0 35 21.5 57t56.5 22t57 -22t22 -57q0 -34 -22.5 -56.5t-56.5 -22.5t-56 22.5zM51.5 3.5q-3.5 3.5 -3.5 8.5v490q0 5 3.5 8.5t8.5 3.5h117q5 0 8.5 -3.5t3.5 -8.5v-490q0 -5 -3.5 -8.5t-8.5 -3.5h-117q-5 0 -8.5 3.5z" />
    <glyph glyph-name="j" unicode="j" horiz-adv-x="235" 
d="M61.5 594.5q-22.5 22.5 -22.5 56.5q0 35 22 57t57 22t56.5 -22t21.5 -57q0 -34 -22 -56.5t-56 -22.5t-56.5 22.5zM-58 -192v96q0 13 13 11q52 -1 72.5 19t20.5 65l-1 503q0 5 3.5 8.5t8.5 3.5h117q5 0 8.5 -3.5t3.5 -8.5v-502q0 -77 -17.5 -120.5t-68 -64t-148.5 -19.5
q-12 0 -12 12z" />
    <glyph glyph-name="k" unicode="k" horiz-adv-x="491" 
d="M48.5 3.5q-3.5 3.5 -3.5 8.5v676q0 5 3.5 8.5t8.5 3.5h117q5 0 8.5 -3.5t3.5 -8.5v-334q0 -3 2 -4t4 2l112 155q5 7 14 7h127q10 0 10 -7q0 -3 -3 -8l-118 -164q-2 -3 0 -7l136 -314q1 -2 1 -6q0 -8 -10 -8h-123q-11 0 -14 10l-81 215q-1 3 -3 3t-4 -2l-48 -66
q-2 -4 -2 -6v-142q0 -5 -3.5 -8.5t-8.5 -3.5h-117q-5 0 -8.5 3.5z" />
    <glyph glyph-name="l" unicode="l" horiz-adv-x="227" 
d="M46.5 3.5q-3.5 3.5 -3.5 8.5v676q0 5 3.5 8.5t8.5 3.5h117q5 0 8.5 -3.5t3.5 -8.5v-676q0 -5 -3.5 -8.5t-8.5 -3.5h-117q-5 0 -8.5 3.5z" />
    <glyph glyph-name="m" unicode="m" horiz-adv-x="755" 
d="M675.5 475.5q38.5 -46.5 38.5 -130.5v-333q0 -5 -3.5 -8.5t-8.5 -3.5h-116q-5 0 -8.5 3.5t-3.5 8.5v313q0 35 -16.5 55.5t-44.5 20.5q-29 0 -46 -20.5t-17 -54.5v-314q0 -5 -3.5 -8.5t-8.5 -3.5h-116q-5 0 -8.5 3.5t-3.5 8.5v313q0 35 -17 55.5t-45 20.5q-29 0 -46 -20.5
t-17 -54.5v-314q0 -5 -3.5 -8.5t-8.5 -3.5h-116q-5 0 -8.5 3.5t-3.5 8.5v490q0 5 3.5 8.5t8.5 3.5h116q5 0 8.5 -3.5t3.5 -8.5v-26q0 -3 2 -4t4 2q21 25 49 36.5t60 11.5q45 0 77.5 -18.5t50.5 -53.5q1 -2 3 -1.5t4 3.5q22 37 56 53.5t73 16.5q73 0 111.5 -46.5z" />
    <glyph glyph-name="n" unicode="n" horiz-adv-x="497" 
d="M413.5 475.5q41.5 -46.5 41.5 -129.5v-334q0 -5 -3.5 -8.5t-8.5 -3.5h-117q-5 0 -8.5 3.5t-3.5 8.5v314q0 35 -17 55t-46 20q-30 0 -47.5 -20.5t-17.5 -55.5v-313q0 -5 -3.5 -8.5t-8.5 -3.5h-117q-5 0 -8.5 3.5t-3.5 8.5v490q0 5 3.5 8.5t8.5 3.5h117q5 0 8.5 -3.5
t3.5 -8.5v-28q0 -3 2 -3.5t5 3.5q36 48 106 48q73 0 114.5 -46.5z" />
    <glyph glyph-name="o" unicode="o" horiz-adv-x="503" 
d="M109.5 35.5q-55.5 43.5 -66.5 119.5q-8 46 -8 103q0 58 8 103q11 74 66.5 117.5t142.5 43.5q86 0 140.5 -43.5t66.5 -117.5q8 -45 8 -103q0 -56 -8 -102q-11 -77 -65.5 -120.5t-141.5 -43.5t-142.5 43.5zM296.5 130q18.5 17 24.5 46q5 42 5 82q0 41 -5 81
q-5 29 -23.5 45.5t-46.5 16.5q-27 0 -45.5 -16.5t-23.5 -45.5q-5 -30 -5 -81q0 -50 4 -82q6 -29 25 -46t46 -17q26 0 44.5 17z" />
    <glyph glyph-name="p" unicode="p" horiz-adv-x="508" 
d="M468 252q0 -62 -9 -104q-15 -76 -54.5 -116t-105.5 -40q-34 0 -59 9.5t-44 31.5q-2 3 -4 2t-2 -4v-205q0 -5 -3.5 -8.5t-8.5 -3.5h-117q-5 0 -8.5 3.5t-3.5 8.5v676q0 5 3.5 8.5t8.5 3.5h117q5 0 8.5 -3.5t3.5 -8.5v-20q0 -3 2 -4t4 1q37 43 106 43q121 0 156 -158
q10 -45 10 -112zM327 257q0 51 -8 86q-6 27 -21.5 42.5t-40.5 15.5q-46 0 -59 -58q-8 -29 -8 -86q0 -54 8 -89q13 -55 59 -55q45 0 61 54q9 33 9 90z" />
    <glyph glyph-name="q" unicode="q" horiz-adv-x="508" 
d="M322.5 510.5q3.5 3.5 8.5 3.5h117q5 0 8.5 -3.5t3.5 -8.5v-676q0 -5 -3.5 -8.5t-8.5 -3.5h-117q-5 0 -8.5 3.5t-3.5 8.5v206q0 3 -2 4t-4 -2q-19 -23 -44 -32.5t-60 -9.5q-128 0 -160 156q-9 50 -9 104q0 61 10 112q35 158 157 158q69 0 106 -43q2 -3 4 -2t2 4v21
q0 5 3.5 8.5zM318 257q0 57 -7 86q-15 58 -60 58q-25 0 -40.5 -15.5t-21.5 -42.5q-7 -30 -7 -86q0 -61 9 -90q7 -26 22 -40t38 -14q46 0 59 55q8 35 8 89z" />
    <glyph glyph-name="r" unicode="r" horiz-adv-x="354" 
d="M338 509q8 -5 6 -16l-20 -115q-1 -12 -14 -7q-16 4 -29 4q-12 0 -26 -3q-29 -4 -49 -28t-20 -58v-274q0 -5 -3.5 -8.5t-8.5 -3.5h-117q-5 0 -8.5 3.5t-3.5 8.5v490q0 5 3.5 8.5t8.5 3.5h117q5 0 8.5 -3.5t3.5 -8.5v-40q0 -4 1.5 -4.5t3.5 2.5q35 61 98 61q27 0 49 -12z
" />
    <glyph glyph-name="s" unicode="s" horiz-adv-x="457" 
d="M85 34q-55 41 -55 108v8q0 5 3.5 8.5t8.5 3.5h110q5 0 8.5 -3.5t3.5 -8.5v-2q0 -22 20 -36t49 -14q27 0 43 12.5t16 31.5t-17.5 29t-56.5 23q-16 4 -48 16q-60 20 -97.5 54t-37.5 98q0 73 53 116t140 43q90 0 143.5 -44.5t53.5 -118.5q0 -11 -12 -11h-108q-5 0 -8.5 3.5
t-3.5 8.5v3q0 21 -17 35t-46 14q-27 0 -43.5 -13t-16.5 -32q0 -21 20 -32.5t61 -23.5q9 -3 17.5 -5.5t15.5 -5.5q68 -23 109 -55.5t41 -96.5q0 -72 -54.5 -113t-146.5 -41q-93 0 -148 41z" />
    <glyph glyph-name="t" unicode="t" horiz-adv-x="335" 
d="M306.5 411.5q-3.5 -3.5 -8.5 -3.5h-77q-5 0 -5 -5v-225q0 -31 12.5 -44.5t38.5 -12.5h20q5 0 8.5 -3.5t3.5 -8.5v-97q0 -12 -12 -12q-17 -1 -50 -1q-79 0 -117.5 26t-38.5 98v280q0 5 -5 5h-46q-5 0 -8.5 3.5t-3.5 8.5v82q0 5 3.5 8.5t8.5 3.5h46q5 0 5 5v115
q0 5 3.5 8.5t8.5 3.5h111q5 0 8.5 -3.5t3.5 -8.5v-115q0 -5 5 -5h77q5 0 8.5 -3.5t3.5 -8.5v-82q0 -5 -3.5 -8.5z" />
    <glyph glyph-name="u" unicode="u" horiz-adv-x="496" 
d="M313.5 510.5q3.5 3.5 8.5 3.5h117q5 0 8.5 -3.5t3.5 -8.5v-490q0 -5 -3.5 -8.5t-8.5 -3.5h-117q-5 0 -8.5 3.5t-3.5 8.5v25q0 3 -2 3.5t-4 -1.5q-34 -46 -107 -46q-68 0 -112 41t-44 121v347q0 5 3.5 8.5t8.5 3.5h117q5 0 8.5 -3.5t3.5 -8.5v-314q0 -35 16.5 -55
t46.5 -20t47.5 21t17.5 56v312q0 5 3.5 8.5z" />
    <glyph glyph-name="v" unicode="v" horiz-adv-x="478" 
d="M160 10l-140 492l-1 4q0 9 11 9h128q11 0 13 -11l65 -299q1 -4 3 -4t3 4l64 299q2 11 13 11l128 -2q13 0 10 -13l-138 -490q-3 -10 -14 -10h-131q-11 0 -14 10z" />
    <glyph glyph-name="w" unicode="w" horiz-adv-x="698" 
d="M144 10l-125 492v4q0 9 11 9h115q11 0 13 -11l59 -279q1 -4 3 -4t3 4l59 279q2 11 13 11h103q11 0 13 -11l63 -278q1 -4 3 -4t3 4l60 278q2 11 13 11l115 -2q14 0 11 -13l-126 -490q-3 -10 -14 -10h-117q-10 0 -13 10l-61 262q-1 4 -3 4t-3 -4l-56 -261q-2 -11 -13 -11
h-115q-11 0 -14 10z" />
    <glyph glyph-name="x" unicode="x" horiz-adv-x="488" 
d="M19 4q-3 4 1 10l138 240q2 3 0 6l-138 240l-2 6q0 8 11 8h126q10 0 15 -8l69 -126q3 -4 6 0l69 126q5 8 15 8h130q7 0 10 -4t-1 -10l-138 -240q-1 -3 0 -6l138 -240l2 -6q0 -8 -11 -8h-125q-10 0 -15 8l-70 128q-3 5 -6 0l-69 -128q-4 -8 -15 -8h-130q-7 0 -10 4z" />
    <glyph glyph-name="y" unicode="y" horiz-adv-x="464" 
d="M39 -195.5q-2 3.5 -2 8.5v92q0 12 11 12q57 1 81.5 16.5t31.5 63.5l-1 6l-144 498l-1 4q0 10 11 10h126q11 0 13 -11l65 -311q1 -4 3 -4t3 4l65 311q2 11 13 11l124 -1q6 0 8.5 -3.5t1.5 -9.5l-153 -520q-22 -73 -46.5 -109.5t-69.5 -53.5t-129 -17h-6q-3 0 -5 3.5z" />
    <glyph glyph-name="z" unicode="z" horiz-adv-x="416" 
d="M24.5 3.5q-3.5 3.5 -3.5 8.5v108q0 8 5 15l190 246q2 2 1 4t-4 2h-174q-5 0 -8.5 3.5t-3.5 8.5v103q0 5 3.5 8.5t8.5 3.5h338q5 0 8.5 -3.5t3.5 -8.5v-107q0 -8 -5 -15l-197 -246q-2 -2 -1 -4t4 -2h192q5 0 8.5 -3.5t3.5 -8.5v-104q0 -5 -3.5 -8.5t-8.5 -3.5h-349
q-5 0 -8.5 3.5z" />
    <glyph glyph-name="braceleft" unicode="{" horiz-adv-x="360" 
d="M135 -115q-33 32 -33 92v207q0 82 -59 89q-12 2 -12 13v87q0 12 12 13q30 4 44.5 25.5t14.5 62.5v203q0 60 32.5 91.5t94.5 31.5h88q5 0 8.5 -3.5t3.5 -8.5v-97q0 -5 -3.5 -8.5t-8.5 -3.5h-23q-23 0 -37 -17t-14 -46v-161q0 -48 -13.5 -78t-42.5 -44q-6 -3 -1 -6
q29 -15 43 -45.5t14 -78.5v-165q0 -29 14 -46t37 -17h23q5 0 8.5 -3.5t3.5 -8.5v-98q0 -5 -3.5 -8.5t-8.5 -3.5h-88q-61 0 -94 32z" />
    <glyph glyph-name="bar" unicode="|" horiz-adv-x="194" 
d="M30.5 -76.5q-3.5 3.5 -3.5 8.5v816q0 5 3.5 8.5t8.5 3.5h117q5 0 8.5 -3.5t3.5 -8.5v-816q0 -5 -3.5 -8.5t-8.5 -3.5h-117q-5 0 -8.5 3.5z" />
    <glyph glyph-name="braceright" unicode="}" horiz-adv-x="360" 
d="M43 -147q-5 0 -8.5 3.5t-3.5 8.5v98q0 5 3.5 8.5t8.5 3.5h23q23 0 37 17t14 46v165q0 48 14 78.5t43 45.5q5 3 -1 6q-29 14 -42.5 44t-13.5 78v161q0 29 -14 46t-37 17h-23q-5 0 -8.5 3.5t-3.5 8.5v97q0 5 3.5 8.5t8.5 3.5h88q62 0 94.5 -31.5t32.5 -91.5v-203
q0 -41 14.5 -62.5t44.5 -25.5q12 -1 12 -13v-87q0 -11 -12 -13q-59 -7 -59 -89v-207q0 -60 -33 -92t-94 -32h-88z" />
    <glyph glyph-name="asciitilde" unicode="~" horiz-adv-x="512" 
d="M299.5 208q-18.5 7 -42.5 21q-4 3 -19.5 11.5t-30 13.5t-27.5 5q-38 0 -64 -36q-7 -10 -16 -4l-65 41q-9 6 -6 16q17 45 56.5 74.5t86.5 29.5q23 0 41.5 -6.5t39.5 -18.5q7 -4 23 -13t29.5 -14t26.5 -5q32 0 56 35q7 10 17 4l71 -44q9 -5 6 -13q0 -2 -2 -6
q-21 -43 -58 -70.5t-80 -27.5q-24 0 -42.5 7z" />
    <glyph glyph-name="uni00A0" unicode="&#xa0;" horiz-adv-x="200" 
 />
    <glyph glyph-name="exclamdown" unicode="&#xa1;" horiz-adv-x="311" 
d="M209.5 685.5q22.5 -22.5 22.5 -56.5t-22 -56t-57 -22q-34 0 -56 22t-22 56q0 35 22 57t56 22t56.5 -22.5zM102.5 465.5q3.5 3.5 8.5 3.5h89q5 0 8.5 -3.5t3.5 -8.5l14 -436q0 -5 -3.5 -8.5t-8.5 -3.5h-117q-5 0 -8.5 3.5t-3.5 8.5l14 436q0 5 3.5 8.5z" />
    <glyph glyph-name="cent" unicode="&#xa2;" horiz-adv-x="486" 
d="M317 271q1 5 4.5 8.5t8.5 2.5l116 -10q11 -2 11 -13q0 -6 -2 -20q-9 -59 -47.5 -98t-98.5 -53q-5 -2 -5 -6l3 -72q0 -5 -3.5 -8.5t-8.5 -3.5h-98q-5 0 -8.5 3.5t-3.5 8.5l3 74q0 5 -4 6q-58 14 -94 53t-47 98q-8 41 -8 108q0 50 8 106q11 56 47 95t92 54q4 1 4 5l-2 74
q0 5 3.5 8.5t8.5 3.5h97q5 0 8.5 -3.5t3.5 -8.5l-2 -71q0 -5 4 -6q59 -14 98 -51.5t49 -91.5q2 -9 4 -29q0 -11 -12 -13l-115 -11h-2q-9 0 -11 11q0 7 -1 10q-2 8 -4 14q-6 20 -23 33t-42 13q-27 0 -44 -16t-22 -44q-6 -33 -6 -83q0 -55 7 -86q5 -27 21.5 -43t43.5 -16
q29 0 46.5 16t20.5 40z" />
    <glyph glyph-name="sterling" unicode="&#xa3;" horiz-adv-x="565" 
d="M238 123q1 -2 4 -2h285q5 0 8.5 -3.5t3.5 -8.5v-97q0 -5 -3.5 -8.5t-8.5 -3.5h-430q-5 0 -8.5 3.5t-3.5 8.5v100q0 8 7 15q20 16 28 39t8 56v60q0 5 -5 5h-58q-5 0 -8.5 3.5t-3.5 8.5v90q0 5 3.5 8.5t8.5 3.5h58q5 0 5 5v84q0 103 56.5 160.5t152.5 57.5q78 0 128 -42
t70 -119l1 -4q0 -8 -10 -10l-111 -16h-3q-8 0 -11 9q-9 32 -25 46.5t-38 14.5q-69 0 -69 -92v-89q0 -5 5 -5h157q5 0 8.5 -3.5t3.5 -8.5v-90q0 -5 -3.5 -8.5t-8.5 -3.5h-157q-5 0 -5 -5v-60q0 -60 -30 -95q-2 -2 -1 -4z" />
    <glyph glyph-name="currency" unicode="&#xa4;" horiz-adv-x="570" 
d="M477 200q-1 -4 1 -7l65 -65q4 -4 4 -9q0 -4 -4 -8l-73 -63q-4 -4 -9 -4q-4 0 -8 4l-61 60q-3 3 -7 1q-48 -25 -103 -25q-53 0 -99 23q-4 2 -7 -1l-59 -58q-4 -4 -8 -4q-5 0 -9 4l-73 63q-4 3 -4 8t4 9l61 61q3 3 1 7q-28 50 -28 107t26 103q2 5 -1 7l-65 65q-4 4 -4 9
q0 4 4 8l73 63q4 4 9 4t8 -4l60 -60q3 -2 7 -1q47 26 104 26q59 0 108 -29q5 -1 7 1l63 63q4 4 9 4t8 -4l72 -63q4 -4 4 -8q0 -5 -4 -9l-69 -69q-2 -2 -1 -7q24 -45 24 -99q0 -56 -26 -103zM211.5 232.5q29.5 -29.5 70.5 -29.5t70.5 29.5t29.5 70.5q0 42 -29.5 71.5
t-70.5 29.5t-70.5 -29.5t-29.5 -71.5q0 -41 29.5 -70.5z" />
    <glyph glyph-name="yen" unicode="&#xa5;" horiz-adv-x="608" 
d="M550 696q2 -4 0 -10l-146 -345q-1 -2 0.5 -4t3.5 -2h92q5 0 8.5 -3.5t3.5 -8.5v-54q0 -5 -3.5 -8.5t-8.5 -3.5h-120q-5 0 -5 -5v-44q0 -5 5 -5h120q5 0 8.5 -3.5t3.5 -8.5v-54q0 -5 -3.5 -8.5t-8.5 -3.5h-120q-5 0 -5 -5v-107q0 -5 -3.5 -8.5t-8.5 -3.5h-117
q-5 0 -8.5 3.5t-3.5 8.5v107q0 5 -5 5h-120q-5 0 -8.5 3.5t-3.5 8.5v54q0 5 3.5 8.5t8.5 3.5h120q5 0 5 5v44q0 5 -5 5h-120q-5 0 -8.5 3.5t-3.5 8.5v54q0 5 3.5 8.5t8.5 3.5h93q2 0 3.5 2t0.5 4l-146 345q-1 2 -1 6q0 8 10 8h126q11 0 14 -10l93 -253q1 -3 3 -3t3 3l93 253
q3 10 14 10h126q7 0 9 -4z" />
    <glyph glyph-name="brokenbar" unicode="&#xa6;" horiz-adv-x="194" 
d="M30.5 397.5q-3.5 3.5 -3.5 8.5v342q0 5 3.5 8.5t8.5 3.5h117q5 0 8.5 -3.5t3.5 -8.5v-342q0 -5 -3.5 -8.5t-8.5 -3.5h-117q-5 0 -8.5 3.5zM30.5 -76.5q-3.5 3.5 -3.5 8.5v341q0 5 3.5 8.5t8.5 3.5h117q5 0 8.5 -3.5t3.5 -8.5v-341q0 -5 -3.5 -8.5t-8.5 -3.5h-117
q-5 0 -8.5 3.5z" />
    <glyph glyph-name="section" unicode="&#xa7;" horiz-adv-x="466" 
d="M91.5 -160q-51.5 45 -53.5 121l-1 27q0 5 3.5 8.5t8.5 3.5h117q5 0 8.5 -3.5t3.5 -8.5v-10q0 -28 15.5 -45.5t40.5 -17.5q24 0 40 16.5t16 40.5q0 31 -27 50t-89 46q-47 21 -75.5 42.5t-45.5 52.5q-19 34 -19 81q0 55 28 95q21 30 57 48q2 2 2 4t-2 3q-85 56 -85 144
q0 47 25.5 86t70.5 61.5t103 22.5q56 0 100.5 -22t69.5 -61t25 -90v-18q0 -5 -3.5 -8.5t-8.5 -3.5h-117q-5 0 -8.5 3.5t-3.5 8.5v7q0 28 -15.5 45.5t-40.5 17.5q-24 0 -39.5 -17t-15.5 -43q0 -31 23.5 -50t75.5 -40q45 -19 74.5 -36t49.5 -41q35 -40 35 -99q0 -52 -24 -91
q-22 -42 -62 -59q-3 -1 -3 -2.5t2 -3.5q42 -27 63 -60.5t21 -80.5q0 -77 -56.5 -123t-144.5 -46q-87 0 -138.5 45zM283 211q10 14 10 40t-13 44q-16 21 -46 21q-16 0 -29 -7.5t-20 -19.5q-10 -16 -10 -39q0 -25 11 -40q7 -12 19.5 -18.5t28.5 -6.5q34 0 49 26z" />
    <glyph glyph-name="dieresis" unicode="&#xa8;" horiz-adv-x="382" 
d="M229.5 597.5q-22.5 22.5 -22.5 56.5q0 35 22 57t57 22t57 -22t22 -57q0 -34 -22.5 -56.5t-56.5 -22.5t-56.5 22.5zM37.5 597.5q-22.5 22.5 -22.5 56.5q0 35 22 57t57 22t57 -22t22 -57q0 -34 -22.5 -56.5t-56.5 -22.5t-56.5 22.5z" />
    <glyph glyph-name="copyright" unicode="&#xa9;" horiz-adv-x="804" 
d="M216.5 39q-82.5 47 -129 129t-46.5 185q0 100 47 181t129 127.5t184 46.5q103 0 185.5 -46.5t129.5 -127.5t47 -181q0 -103 -47 -185t-129.5 -129t-185.5 -47q-102 0 -184.5 47zM541.5 113.5q62.5 35.5 98 98.5t35.5 141q0 76 -35.5 137.5t-98 96.5t-140.5 35
q-77 0 -139.5 -35t-97.5 -96.5t-35 -137.5q0 -78 35 -141t97.5 -98.5t139.5 -35.5q78 0 140.5 35.5zM322.5 205.5q-30.5 28.5 -30.5 76.5v137q0 48 30.5 76t80.5 28q51 0 81.5 -27.5t30.5 -73.5q0 -4 -3.5 -7t-8.5 -3l-50 -2q-12 0 -12 11v2q0 17 -10.5 27t-27.5 10
q-16 0 -26 -10t-10 -27v-146q0 -16 10 -26t26 -10q17 0 27.5 10t10.5 26v2q0 5 3.5 8.5t8.5 3.5l50 -2q12 0 12 -10q0 -46 -31 -74t-81 -28t-80.5 28.5z" />
    <glyph glyph-name="ordfeminine" unicode="&#xaa;" horiz-adv-x="311" 
d="M194 566q5 0 5 5v15q0 22 -12.5 36t-35.5 14q-16 0 -27.5 -7.5t-16.5 -19.5q-3 -11 -13 -10l-61 4q-12 2 -11 13q5 41 40.5 66.5t87.5 25.5q59 0 96 -31t37 -80v-221q0 -5 -3.5 -8.5t-8.5 -3.5h-60q-5 0 -8.5 3.5t-3.5 8.5v3q0 3 -2 4t-4 -1q-24 -23 -69 -23
q-48 0 -79.5 23.5t-31.5 76.5q0 55 36.5 81t100.5 26h44zM182.5 439.5q16.5 13.5 16.5 34.5v22q0 5 -5 5h-39q-27 0 -42 -9.5t-15 -29.5q0 -36 42 -36q26 0 42.5 13.5zM16.5 309.5q3.5 3.5 8.5 3.5h254q5 0 8.5 -3.5t3.5 -8.5v-49q0 -5 -3.5 -8.5t-8.5 -3.5h-254
q-5 0 -8.5 3.5t-3.5 8.5v49q0 5 3.5 8.5z" />
    <glyph glyph-name="guillemotleft" unicode="&#xab;" horiz-adv-x="484" 
d="M262 115q0 -8 -11 -8h-97q-10 0 -15 8l-88 158q-2 6 -2 8q0 4 2 8l88 158q5 8 15 8h97q7 0 10 -4t-1 -10l-91 -157q-1 -3 0 -6l91 -157zM429 115q0 -8 -11 -8h-97q-10 0 -15 8l-88 158q-2 6 -2 8q0 4 2 8l88 158q5 8 15 8h97q7 0 10 -4t-1 -10l-92 -157q-1 -3 0 -6
l92 -157z" />
    <glyph glyph-name="logicalnot" unicode="&#xac;" horiz-adv-x="462" 
d="M432.5 357.5q3.5 -3.5 3.5 -8.5v-94v-7h-1v-90q0 -5 -3.5 -8.5t-8.5 -3.5h-89q-5 0 -8.5 3.5t-3.5 8.5v85q0 5 -5 5h-279q-5 0 -8.5 3.5t-3.5 8.5v89q0 5 3.5 8.5t8.5 3.5h386q5 0 8.5 -3.5z" />
    <glyph glyph-name="uni00AD" unicode="&#xad;" horiz-adv-x="370" 
d="M29.5 238.5q-3.5 3.5 -3.5 8.5v97q0 5 3.5 8.5t8.5 3.5h294q5 0 8.5 -3.5t3.5 -8.5v-97q0 -5 -3.5 -8.5t-8.5 -3.5h-294q-5 0 -8.5 3.5z" />
    <glyph glyph-name="registered" unicode="&#xae;" horiz-adv-x="439" 
d="M323.5 684q46.5 -26 73 -71t26.5 -101q0 -58 -26.5 -105t-73 -73.5t-103.5 -26.5t-104 26.5t-73.5 73.5t-26.5 105q0 56 26.5 101t73.5 71t104 26t103.5 -26zM323 407.5q41 41.5 41 104.5q0 39 -19 71t-52 50.5t-73 18.5t-73 -18.5t-52 -50.5t-19 -71q0 -63 41 -104.5
t103 -41.5t103 41.5zM267 497q-4 -1 -2 -6l20 -59q1 -2 1 -5q0 -9 -11 -9h-24q-10 0 -13 10l-19 56q-2 4 -5 4h-2q-5 0 -5 -5v-53q0 -5 -3.5 -8.5t-8.5 -3.5h-23q-5 0 -8.5 3.5t-3.5 8.5v161q0 5 3.5 8.5t8.5 3.5h60q26 0 42.5 -17t16.5 -42q0 -33 -24 -47zM207 558v-30
q0 -5 5 -5h13q8 0 13.5 6t5.5 14q0 9 -5.5 14.5t-13.5 5.5h-13q-5 0 -5 -5z" />
    <glyph glyph-name="macron" unicode="&#xaf;" horiz-adv-x="315" 
d="M32.5 583.5q-3.5 3.5 -3.5 8.5v71q0 5 3.5 8.5t8.5 3.5h233q5 0 8.5 -3.5t3.5 -8.5v-71q0 -5 -3.5 -8.5t-8.5 -3.5h-233q-5 0 -8.5 3.5z" />
    <glyph glyph-name="degree" unicode="&#xb0;" horiz-adv-x="367" 
d="M99 493.5q-38 22.5 -60.5 61.5t-22.5 85t22.5 84.5t60.5 61t84 22.5t84.5 -22.5t61 -61t22.5 -84.5t-22.5 -85t-61 -61.5t-84.5 -22.5t-84 22.5zM237.5 585.5q22.5 22.5 22.5 54.5q0 34 -22.5 56.5t-54.5 22.5t-54 -22.5t-22 -56.5q0 -32 22 -54.5t54 -22.5t54.5 22.5z
" />
    <glyph glyph-name="plusminus" unicode="&#xb1;" horiz-adv-x="462" 
d="M432.5 444.5q3.5 -3.5 3.5 -8.5v-89q0 -5 -3.5 -8.5t-8.5 -3.5h-131q-5 0 -5 -5v-130q0 -5 -3.5 -8.5t-8.5 -3.5h-90q-5 0 -8.5 3.5t-3.5 8.5v130q0 5 -5 5h-131q-5 0 -8.5 3.5t-3.5 8.5v89q0 5 3.5 8.5t8.5 3.5h131q5 0 5 5v132q0 5 3.5 8.5t8.5 3.5h90q5 0 8.5 -3.5
t3.5 -8.5v-132q0 -5 5 -5h131q5 0 8.5 -3.5zM29.5 8.5q-3.5 3.5 -3.5 8.5v89q0 5 3.5 8.5t8.5 3.5h386q5 0 8.5 -3.5t3.5 -8.5v-89q0 -5 -3.5 -8.5t-8.5 -3.5h-386q-5 0 -8.5 3.5z" />
    <glyph glyph-name="uni00B2" unicode="&#xb2;" horiz-adv-x="305" 
d="M26.5 419.5q-3.5 3.5 -3.5 8.5v57q0 9 6 15q68 76 118 136q43 55 43 85q0 19 -11 30.5t-28 11.5t-28 -11t-11 -30v-15q0 -5 -3.5 -8.5t-8.5 -3.5h-68q-5 0 -8.5 3.5t-3.5 8.5v24q3 51 39.5 80.5t92.5 29.5q59 0 94.5 -32.5t35.5 -89.5q0 -27 -9.5 -52t-29.5 -54
q-25 -34 -93 -113q-2 -2 -1 -4t4 -2h123q5 0 8.5 -3.5t3.5 -8.5v-54q0 -5 -3.5 -8.5t-8.5 -3.5h-241q-5 0 -8.5 3.5z" />
    <glyph glyph-name="uni00B3" unicode="&#xb3;" horiz-adv-x="303" 
d="M283 551q0 -28 -6 -51q-11 -43 -42.5 -66.5t-79.5 -23.5q-49 0 -82.5 25.5t-42.5 68.5q-4 16 -6 36q0 12 12 12h67q12 0 13 -12q0 -10 3 -19q4 -15 13.5 -23.5t22.5 -8.5q25 0 34 25q6 17 6 43q0 30 -7 47q-9 23 -33 23q-11 0 -21 -7q-3 -2 -7 -2q-6 0 -10 4l-32 37
q-4 4 -4 9q0 4 4 8l80 76q2 2 1 4t-4 2h-117q-5 0 -8.5 3.5t-3.5 8.5v53q0 5 3.5 8.5t8.5 3.5h222q5 0 8.5 -3.5t3.5 -8.5v-56q0 -9 -6 -15l-62 -65q-3 -5 1 -6q44 -13 62 -69q9 -27 9 -61z" />
    <glyph glyph-name="acute" unicode="&#xb4;" horiz-adv-x="226" 
d="M23 580q-2 4 1 10l57 102q5 8 15 8h96q8 0 10 -4.5t-2 -10.5l-74 -102q-5 -7 -14 -7h-80q-7 0 -9 4z" />
    <glyph glyph-name="uni00B5" unicode="&#xb5;" horiz-adv-x="501" 
d="M317.5 510.5q3.5 3.5 8.5 3.5h117q5 0 8.5 -3.5t3.5 -8.5v-490q0 -5 -3.5 -8.5t-8.5 -3.5h-117q-5 0 -8.5 3.5t-3.5 8.5v25q0 3 -2 3.5t-4 -1.5q-34 -46 -107 -46h-10q-5 2 -5 -4v-177q0 -5 -3.5 -8.5t-8.5 -3.5h-117q-5 0 -8.5 3.5t-3.5 8.5v690q0 5 3.5 8.5t8.5 3.5
h117q5 0 8.5 -3.5t3.5 -8.5v-314q0 -35 16.5 -55t46.5 -20t47.5 21t17.5 56v312q0 5 3.5 8.5z" />
    <glyph glyph-name="paragraph" unicode="&#xb6;" horiz-adv-x="569" 
d="M508 700q5 0 8.5 -3.5t3.5 -8.5v-876q0 -5 -3.5 -8.5t-8.5 -3.5h-86q-5 0 -8.5 3.5t-3.5 8.5v776q0 5 -5 5h-72q-5 0 -5 -5v-776q0 -5 -3.5 -8.5t-8.5 -3.5h-87q-5 0 -8.5 3.5t-3.5 8.5v434q0 4 -5 6q-86 11 -137.5 71.5t-51.5 151.5q0 65 27 116t77 80t117 29h264z" />
    <glyph glyph-name="periodcentered" unicode="&#xb7;" horiz-adv-x="230" 
d="M58.5 233.5q-22.5 22.5 -22.5 56.5q0 35 22 57t57 22t57 -22t22 -57q0 -34 -22.5 -56.5t-56.5 -22.5t-56.5 22.5z" />
    <glyph glyph-name="cedilla" unicode="&#xb8;" horiz-adv-x="160" 
d="M4 -168l7 48q1 11 14 8q8 -2 13 -2q13 0 22 8.5t9 23.5q0 30 -43 67q-5 5 -5 9q0 6 10 6h64q8 0 12 -4q3 -1 4 -4q49 -45 49 -96q0 -13 -3 -25q-8 -34 -32.5 -48.5t-56.5 -14.5q-30 0 -55 9q-10 3 -9 15z" />
    <glyph glyph-name="uni00B9" unicode="&#xb9;" horiz-adv-x="175" 
d="M68 836h71q5 0 8.5 -3.5t3.5 -8.5v-396q0 -5 -3.5 -8.5t-8.5 -3.5h-67q-5 0 -8.5 3.5t-3.5 8.5v323q0 4 -5 4l-24 -2h-2q-11 0 -11 12v43q0 10 9 14l26 11q7 3 15 3z" />
    <glyph glyph-name="ordmasculine" unicode="&#xba;" horiz-adv-x="326" 
d="M74 387.5q-35 27.5 -44 76.5q-7 28 -7 70q0 43 6 71q8 48 43.5 75.5t90.5 27.5q52 0 87 -27.5t44 -74.5q7 -37 7 -71t-7 -71q-9 -49 -43.5 -76.5t-87.5 -27.5q-54 0 -89 27.5zM190.5 448.5q11.5 10.5 15.5 29.5q4 23 4 56t-4 56q-4 19 -16 30t-28 11t-28 -11t-16 -30
q-4 -23 -4 -56t4 -56q3 -19 15.5 -29.5t29.5 -10.5q16 0 27.5 10.5zM24.5 243.5q-3.5 3.5 -3.5 8.5v50q0 5 3.5 8.5t8.5 3.5h261q5 0 8.5 -3.5t3.5 -8.5v-50q0 -5 -3.5 -8.5t-8.5 -3.5h-261q-5 0 -8.5 3.5z" />
    <glyph glyph-name="guillemotright" unicode="&#xbb;" horiz-adv-x="484" 
d="M60 111q-3 4 1 10l91 157q2 3 0 6l-91 157l-2 6q0 8 11 8h96q10 0 15 -8l88 -158q2 -2 2 -8q0 -5 -2 -8l-88 -158q-5 -8 -15 -8h-96q-7 0 -10 4zM227 111q-3 4 1 10l91 157q2 3 0 6l-91 157l-2 6q0 8 11 8h96q10 0 15 -8l88 -158q2 -2 2 -8q0 -5 -2 -8l-88 -158
q-5 -8 -15 -8h-96q-7 0 -10 4z" />
    <glyph glyph-name="onequarter" unicode="&#xbc;" horiz-adv-x="771" 
d="M68 700h71q5 0 8.5 -3.5t3.5 -8.5v-396q0 -5 -3.5 -8.5t-8.5 -3.5h-67q-5 0 -8.5 3.5t-3.5 8.5v323q0 4 -5 4l-24 -2h-2q-11 0 -11 12v43q0 10 9 14l26 11q7 3 15 3zM83.5 3.5q-2.5 3.5 1.5 10.5l401 678q4 8 14 8h76q7 0 9.5 -3.5t-1.5 -10.5l-401 -678q-4 -8 -14 -8
h-76q-7 0 -9.5 3.5zM748.5 183.5q3.5 -3.5 3.5 -8.5v-58q0 -5 -3.5 -8.5t-8.5 -3.5h-15q-5 0 -5 -5v-88q0 -5 -3.5 -8.5t-8.5 -3.5h-67q-5 0 -8.5 3.5t-3.5 8.5v88q0 5 -5 5h-161q-5 0 -8.5 3.5t-3.5 8.5v46q0 6 3 15l89 233q3 9 14 9h71q15 0 10 -14l-80 -213q-1 -6 4 -6
h62q5 0 5 5v58q0 5 3.5 8.5t8.5 3.5h67q5 0 8.5 -3.5t3.5 -8.5v-58q0 -5 5 -5h15q5 0 8.5 -3.5z" />
    <glyph glyph-name="onehalf" unicode="&#xbd;" horiz-adv-x="747" 
d="M68 700h71q5 0 8.5 -3.5t3.5 -8.5v-396q0 -5 -3.5 -8.5t-8.5 -3.5h-67q-5 0 -8.5 3.5t-3.5 8.5v323q0 4 -5 4l-24 -2h-2q-11 0 -11 12v43q0 10 9 14l26 11q7 3 15 3zM83.5 3.5q-2.5 3.5 1.5 10.5l401 678q4 8 14 8h76q7 0 9.5 -3.5t-1.5 -10.5l-401 -678q-4 -8 -14 -8
h-76q-7 0 -9.5 3.5zM466.5 3.5q-3.5 3.5 -3.5 8.5v57q0 9 6 15q68 76 118 136q43 55 43 85q0 19 -11 30.5t-28 11.5t-28 -11t-11 -30v-15q0 -5 -3.5 -8.5t-8.5 -3.5h-68q-5 0 -8.5 3.5t-3.5 8.5v24q3 51 39.5 80.5t92.5 29.5q59 0 94.5 -32.5t35.5 -89.5q0 -27 -9.5 -52
t-29.5 -54q-25 -34 -93 -113q-2 -2 -1 -4t4 -2h123q5 0 8.5 -3.5t3.5 -8.5v-54q0 -5 -3.5 -8.5t-8.5 -3.5h-241q-5 0 -8.5 3.5z" />
    <glyph glyph-name="threequarters" unicode="&#xbe;" horiz-adv-x="855" 
d="M283 417q0 -28 -6 -51q-11 -43 -42.5 -66.5t-79.5 -23.5q-49 0 -82.5 25.5t-42.5 68.5q-4 16 -6 36q0 12 12 12h67q12 0 13 -12q0 -10 3 -19q4 -15 13.5 -23.5t22.5 -8.5q25 0 34 25q6 17 6 43q0 30 -7 47q-9 23 -33 23q-11 0 -21 -7q-3 -2 -7 -2q-6 0 -10 4l-32 37
q-4 4 -4 9q0 4 4 8l80 76q2 2 1 4t-4 2h-117q-5 0 -8.5 3.5t-3.5 8.5v53q0 5 3.5 8.5t8.5 3.5h222q5 0 8.5 -3.5t3.5 -8.5v-56q0 -9 -6 -15l-62 -65q-3 -5 1 -6q44 -13 62 -69q9 -27 9 -61zM167.5 3.5q-2.5 3.5 1.5 10.5l401 678q4 8 14 8h76q7 0 9.5 -3.5t-1.5 -10.5
l-401 -678q-4 -8 -14 -8h-76q-7 0 -9.5 3.5zM832.5 183.5q3.5 -3.5 3.5 -8.5v-58q0 -5 -3.5 -8.5t-8.5 -3.5h-15q-5 0 -5 -5v-88q0 -5 -3.5 -8.5t-8.5 -3.5h-67q-5 0 -8.5 3.5t-3.5 8.5v88q0 5 -5 5h-161q-5 0 -8.5 3.5t-3.5 8.5v46q0 6 3 15l89 233q3 9 14 9h71
q15 0 10 -14l-80 -213q-1 -6 4 -6h62q5 0 5 5v58q0 5 3.5 8.5t8.5 3.5h67q5 0 8.5 -3.5t3.5 -8.5v-58q0 -5 5 -5h15q5 0 8.5 -3.5z" />
    <glyph glyph-name="questiondown" unicode="&#xbf;" horiz-adv-x="479" 
d="M314 480q22 -22 22 -57q0 -34 -22 -56t-57 -22q-34 0 -56 22t-22 56t22 56.5t56 22.5q35 0 57 -22zM322.5 274.5q3.5 -3.5 3.5 -8.5v-32q0 -50 -23 -81t-67 -64q-36 -28 -53 -48.5t-17 -50.5q0 -32 20 -51.5t52 -19.5q36 0 57 21t21 54v16q0 11 12 11l117 -5
q5 0 8.5 -3.5t3.5 -8.5v-10q0 -60 -28 -106.5t-78.5 -72t-115.5 -25.5q-96 0 -153.5 53.5t-57.5 141.5q0 44 14 75.5t33.5 51.5t50.5 44q33 25 48 43t15 44v23q0 5 3.5 8.5t8.5 3.5h117q5 0 8.5 -3.5z" />
    <glyph glyph-name="Agrave" unicode="&#xc0;" horiz-adv-x="577" 
d="M409 10l-23 98q-1 4 -5 4h-187q-4 0 -5 -4l-23 -98q-3 -10 -13 -10h-121q-13 0 -10 13l180 677q3 10 14 10h145q11 0 14 -10l180 -677l1 -4q0 -9 -11 -9h-122q-11 0 -14 10zM217 222.5q2 -1.5 4 -1.5h132q2 0 4 1.5t1 4.5l-69 290q-1 4 -3 4t-3 -4l-67 -290q-1 -3 1 -4.5
zM337 770q0 -8 -10 -8h-80q-9 0 -14 7l-74 102q-3 5 -3 7q0 8 11 8h96q10 0 15 -8l57 -102q2 -4 2 -6z" />
    <glyph glyph-name="Aacute" unicode="&#xc1;" horiz-adv-x="577" 
d="M409 10l-23 98q-1 4 -5 4h-187q-4 0 -5 -4l-23 -98q-3 -10 -13 -10h-121q-13 0 -10 13l180 677q3 10 14 10h145q11 0 14 -10l180 -677l1 -4q0 -9 -11 -9h-122q-11 0 -14 10zM217 222.5q2 -1.5 4 -1.5h132q2 0 4 1.5t1 4.5l-69 290q-1 4 -3 4t-3 -4l-67 -290q-1 -3 1 -4.5
zM223 766q-2 4 1 10l57 102q5 8 15 8h96q8 0 10 -4.5t-2 -10.5l-74 -102q-5 -7 -14 -7h-80q-7 0 -9 4z" />
    <glyph glyph-name="Acircumflex" unicode="&#xc2;" horiz-adv-x="577" 
d="M409 10l-23 98q-1 4 -5 4h-187q-4 0 -5 -4l-23 -98q-3 -10 -13 -10h-121q-13 0 -10 13l180 677q3 10 14 10h145q11 0 14 -10l180 -677l1 -4q0 -9 -11 -9h-122q-11 0 -14 10zM217 222.5q2 -1.5 4 -1.5h132q2 0 4 1.5t1 4.5l-69 290q-1 4 -3 4t-3 -4l-67 -290q-1 -3 1 -4.5
zM136.5 763.5q-2.5 4.5 1.5 10.5l69 104q5 8 14 8h131q9 0 14 -8l70 -104q2 -4 2 -7q0 -8 -10 -8h-87q-11 0 -15 8l-35 59q-3 6 -6 0l-35 -59q-4 -8 -15 -8h-89q-7 0 -9.5 4.5z" />
    <glyph glyph-name="Atilde" unicode="&#xc3;" horiz-adv-x="577" 
d="M409 10l-23 98q-1 4 -5 4h-187q-4 0 -5 -4l-23 -98q-3 -10 -13 -10h-121q-13 0 -10 13l180 677q3 10 14 10h145q11 0 14 -10l180 -677l1 -4q0 -9 -11 -9h-122q-11 0 -14 10zM217 222.5q2 -1.5 4 -1.5h132q2 0 4 1.5t1 4.5l-69 290q-1 4 -3 4t-3 -4l-67 -290q-1 -3 1 -4.5
zM323.5 770.5q-12.5 4.5 -31.5 13.5q-5 3 -15 8t-17 7t-14 2q-26 0 -44 -22q-6 -6 -10 -6q-3 0 -7 4l-41 36q-8 8 -4 17q15 31 40.5 48t56.5 17q18 0 33 -5.5t36 -16.5q4 -2 13 -7.5t16.5 -8t15.5 -2.5q28 0 42 21q5 7 10 7q3 0 7 -4l39 -35q8 -8 3 -18q-15 -30 -41.5 -45
t-57.5 -15q-17 0 -29.5 4.5z" />
    <glyph glyph-name="Adieresis" unicode="&#xc4;" horiz-adv-x="577" 
d="M409 10l-23 98q-1 4 -5 4h-187q-4 0 -5 -4l-23 -98q-3 -10 -13 -10h-121q-13 0 -10 13l180 677q3 10 14 10h145q11 0 14 -10l180 -677l1 -4q0 -9 -11 -9h-122q-11 0 -14 10zM217 222.5q2 -1.5 4 -1.5h132q2 0 4 1.5t1 4.5l-69 290q-1 4 -3 4t-3 -4l-67 -290q-1 -3 1 -4.5
zM326.5 783.5q-22.5 22.5 -22.5 56.5q0 35 22 57t57 22t57 -22t22 -57q0 -34 -22.5 -56.5t-56.5 -22.5t-56.5 22.5zM134.5 783.5q-22.5 22.5 -22.5 56.5q0 35 22 57t57 22t57 -22t22 -57q0 -34 -22.5 -56.5t-56.5 -22.5t-56.5 22.5z" />
    <glyph glyph-name="Aring" unicode="&#xc5;" horiz-adv-x="577" 
d="M409 10l-23 98q-1 4 -5 4h-187q-4 0 -5 -4l-23 -98q-3 -10 -13 -10h-121q-13 0 -10 13l180 677q3 10 14 10h145q11 0 14 -10l180 -677l1 -4q0 -9 -11 -9h-122q-11 0 -14 10zM217 222.5q2 -1.5 4 -1.5h132q2 0 4 1.5t1 4.5l-69 290q-1 4 -3 4t-3 -4l-67 -290q-1 -3 1 -4.5
zM198.5 785q-35.5 36 -35.5 88q0 53 35.5 88.5t88.5 35.5q52 0 88 -35.5t36 -88.5q0 -52 -36 -88t-88 -36q-53 0 -88.5 36zM322 837.5q15 14.5 15 35.5q0 22 -15 36.5t-35 14.5q-21 0 -35.5 -14.5t-14.5 -36.5q0 -21 15 -35.5t35 -14.5t35 14.5z" />
    <glyph glyph-name="AE" unicode="&#xc6;" horiz-adv-x="858" 
d="M821.5 582.5q-3.5 -3.5 -8.5 -3.5h-263q-5 0 -5 -5v-156q0 -5 5 -5h162q5 0 8.5 -3.5t3.5 -8.5v-97q0 -5 -3.5 -8.5t-8.5 -3.5h-162q-5 0 -5 -5v-161q0 -5 5 -5h263q5 0 8.5 -3.5t3.5 -8.5v-97q0 -5 -3.5 -8.5t-8.5 -3.5h-397q-5 0 -8.5 3.5t-3.5 8.5v95q0 5 -5 5h-176
q-4 0 -6 -4l-44 -99q-4 -9 -14 -9h-125q-7 0 -10 3.5t0 10.5l312 677q4 9 14 9h463q5 0 8.5 -3.5t3.5 -8.5v-97q0 -5 -3.5 -8.5zM270 223q1 -2 3 -2h126q5 0 5 5v291q0 4 -2 4t-4 -3l-128 -291q-1 -2 0 -4z" />
    <glyph glyph-name="Ccedilla" unicode="&#xc7;" horiz-adv-x="536" 
d="M495.5 480q-3.5 -3 -8.5 -3l-117 -5q-12 0 -12 11v13q0 41 -24 66t-64 25t-64 -25t-24 -66v-293q0 -41 24 -65.5t64 -24.5t64 24.5t24 65.5v13q0 11 12 11l117 -5q5 0 8.5 -3.5t3.5 -8.5v-3q0 -87 -50 -143.5t-136 -68.5q-6 -2 -2 -6q40 -43 40 -87q0 -13 -3 -25
q-8 -34 -33 -48t-58 -14q-26 0 -54 8q-10 4 -9 15l7 48q1 11 14 8q8 -2 13 -2q11 0 19 6t11 18q1 3 1 8q0 16 -12.5 35t-35.5 37l-6 3q-76 18 -120 74t-44 139v278q0 65 28.5 114.5t80.5 76.5t120 27t120 -26.5t80.5 -74.5t28.5 -112v-8q0 -4 -3.5 -7z" />
    <glyph glyph-name="Egrave" unicode="&#xc8;" horiz-adv-x="511" 
d="M475.5 582.5q-3.5 -3.5 -8.5 -3.5h-268q-5 0 -5 -5v-156q0 -5 5 -5h167q5 0 8.5 -3.5t3.5 -8.5v-97q0 -5 -3.5 -8.5t-8.5 -3.5h-167q-5 0 -5 -5v-161q0 -5 5 -5h268q5 0 8.5 -3.5t3.5 -8.5v-97q0 -5 -3.5 -8.5t-8.5 -3.5h-402q-5 0 -8.5 3.5t-3.5 8.5v676q0 5 3.5 8.5
t8.5 3.5h402q5 0 8.5 -3.5t3.5 -8.5v-97q0 -5 -3.5 -8.5zM314 770q0 -8 -10 -8h-80q-9 0 -14 7l-74 102q-3 5 -3 7q0 8 11 8h96q10 0 15 -8l57 -102q2 -4 2 -6z" />
    <glyph glyph-name="Eacute" unicode="&#xc9;" horiz-adv-x="511" 
d="M475.5 582.5q-3.5 -3.5 -8.5 -3.5h-268q-5 0 -5 -5v-156q0 -5 5 -5h167q5 0 8.5 -3.5t3.5 -8.5v-97q0 -5 -3.5 -8.5t-8.5 -3.5h-167q-5 0 -5 -5v-161q0 -5 5 -5h268q5 0 8.5 -3.5t3.5 -8.5v-97q0 -5 -3.5 -8.5t-8.5 -3.5h-402q-5 0 -8.5 3.5t-3.5 8.5v676q0 5 3.5 8.5
t8.5 3.5h402q5 0 8.5 -3.5t3.5 -8.5v-97q0 -5 -3.5 -8.5zM200 766q-2 4 1 10l57 102q5 8 15 8h96q8 0 10 -4.5t-2 -10.5l-74 -102q-5 -7 -14 -7h-80q-7 0 -9 4z" />
    <glyph glyph-name="Ecircumflex" unicode="&#xca;" horiz-adv-x="511" 
d="M475.5 582.5q-3.5 -3.5 -8.5 -3.5h-268q-5 0 -5 -5v-156q0 -5 5 -5h167q5 0 8.5 -3.5t3.5 -8.5v-97q0 -5 -3.5 -8.5t-8.5 -3.5h-167q-5 0 -5 -5v-161q0 -5 5 -5h268q5 0 8.5 -3.5t3.5 -8.5v-97q0 -5 -3.5 -8.5t-8.5 -3.5h-402q-5 0 -8.5 3.5t-3.5 8.5v676q0 5 3.5 8.5
t8.5 3.5h402q5 0 8.5 -3.5t3.5 -8.5v-97q0 -5 -3.5 -8.5zM113.5 763.5q-2.5 4.5 1.5 10.5l69 104q5 8 14 8h131q9 0 14 -8l70 -104q2 -4 2 -7q0 -8 -10 -8h-87q-11 0 -15 8l-35 59q-3 6 -6 0l-35 -59q-4 -8 -15 -8h-89q-7 0 -9.5 4.5z" />
    <glyph glyph-name="Edieresis" unicode="&#xcb;" horiz-adv-x="511" 
d="M475.5 582.5q-3.5 -3.5 -8.5 -3.5h-268q-5 0 -5 -5v-156q0 -5 5 -5h167q5 0 8.5 -3.5t3.5 -8.5v-97q0 -5 -3.5 -8.5t-8.5 -3.5h-167q-5 0 -5 -5v-161q0 -5 5 -5h268q5 0 8.5 -3.5t3.5 -8.5v-97q0 -5 -3.5 -8.5t-8.5 -3.5h-402q-5 0 -8.5 3.5t-3.5 8.5v676q0 5 3.5 8.5
t8.5 3.5h402q5 0 8.5 -3.5t3.5 -8.5v-97q0 -5 -3.5 -8.5zM303.5 783.5q-22.5 22.5 -22.5 56.5q0 35 22 57t57 22t57 -22t22 -57q0 -34 -22.5 -56.5t-56.5 -22.5t-56.5 22.5zM111.5 783.5q-22.5 22.5 -22.5 56.5q0 35 22 57t57 22t57 -22t22 -57q0 -34 -22.5 -56.5
t-56.5 -22.5t-56.5 22.5z" />
    <glyph glyph-name="Igrave" unicode="&#xcc;" horiz-adv-x="246" 
d="M56.5 3.5q-3.5 3.5 -3.5 8.5v676q0 5 3.5 8.5t8.5 3.5h117q5 0 8.5 -3.5t3.5 -8.5v-676q0 -5 -3.5 -8.5t-8.5 -3.5h-117q-5 0 -8.5 3.5zM173 770q0 -8 -10 -8h-80q-9 0 -14 7l-74 102q-3 5 -3 7q0 8 11 8h96q10 0 15 -8l57 -102q2 -4 2 -6z" />
    <glyph glyph-name="Iacute" unicode="&#xcd;" horiz-adv-x="246" 
d="M56.5 3.5q-3.5 3.5 -3.5 8.5v676q0 5 3.5 8.5t8.5 3.5h117q5 0 8.5 -3.5t3.5 -8.5v-676q0 -5 -3.5 -8.5t-8.5 -3.5h-117q-5 0 -8.5 3.5zM59 766q-2 4 1 10l57 102q5 8 15 8h96q8 0 10 -4.5t-2 -10.5l-74 -102q-5 -7 -14 -7h-80q-7 0 -9 4z" />
    <glyph glyph-name="Icircumflex" unicode="&#xce;" horiz-adv-x="246" 
d="M56.5 3.5q-3.5 3.5 -3.5 8.5v676q0 5 3.5 8.5t8.5 3.5h117q5 0 8.5 -3.5t3.5 -8.5v-676q0 -5 -3.5 -8.5t-8.5 -3.5h-117q-5 0 -8.5 3.5zM-28.5 763.5q-2.5 4.5 1.5 10.5l69 104q5 8 14 8h131q9 0 14 -8l70 -104q2 -4 2 -7q0 -8 -10 -8h-87q-11 0 -15 8l-35 59q-3 6 -6 0
l-35 -59q-4 -8 -15 -8h-89q-7 0 -9.5 4.5z" />
    <glyph glyph-name="Idieresis" unicode="&#xcf;" horiz-adv-x="246" 
d="M56.5 3.5q-3.5 3.5 -3.5 8.5v676q0 5 3.5 8.5t8.5 3.5h117q5 0 8.5 -3.5t3.5 -8.5v-676q0 -5 -3.5 -8.5t-8.5 -3.5h-117q-5 0 -8.5 3.5zM162.5 783.5q-22.5 22.5 -22.5 56.5q0 35 22 57t57 22t57 -22t22 -57q0 -34 -22.5 -56.5t-56.5 -22.5t-56.5 22.5zM-29.5 783.5
q-22.5 22.5 -22.5 56.5q0 35 22 57t57 22t57 -22t22 -57q0 -34 -22.5 -56.5t-56.5 -22.5t-56.5 22.5z" />
    <glyph glyph-name="Eth" unicode="&#xd0;" horiz-adv-x="588" 
d="M439.5 675q51.5 -25 79.5 -71t28 -107v-294q0 -61 -28 -107t-79.5 -71t-118.5 -25h-215q-5 0 -8.5 3.5t-3.5 8.5v302q0 5 -5 5h-24q-5 0 -8.5 3.5t-3.5 8.5v65q0 5 3.5 8.5t8.5 3.5h24q5 0 5 5v275q0 5 3.5 8.5t8.5 3.5h215q67 0 118.5 -25zM406 481q0 45 -23 71.5
t-61 26.5h-82q-5 0 -5 -5v-161q0 -5 5 -5h58q5 0 8.5 -3.5t3.5 -8.5v-65q0 -5 -3.5 -8.5t-8.5 -3.5h-58q-5 0 -5 -5v-188q0 -5 5 -5l82 1q37 0 60 26.5t24 70.5v262z" />
    <glyph glyph-name="Ntilde" unicode="&#xd1;" horiz-adv-x="590" 
d="M400.5 696.5q3.5 3.5 8.5 3.5h116q5 0 8.5 -3.5t3.5 -8.5v-676q0 -5 -3.5 -8.5t-8.5 -3.5h-122q-10 0 -14 9l-191 407q-2 3 -4 3t-2 -4l1 -403q0 -5 -3.5 -8.5t-8.5 -3.5h-116q-5 0 -8.5 3.5t-3.5 8.5v676q0 5 3.5 8.5t8.5 3.5h121q10 0 14 -9l191 -407q2 -3 4 -3t2 4
v403q0 5 3.5 8.5zM326.5 771.5q-12.5 4.5 -31.5 13.5q-5 3 -15 8t-17 7t-14 2q-26 0 -44 -22q-6 -6 -10 -6q-3 0 -7 4l-41 36q-8 8 -4 17q15 31 40.5 48t56.5 17q18 0 33 -5.5t36 -16.5q4 -2 13 -7.5t16.5 -8t15.5 -2.5q28 0 42 21q5 7 10 7q3 0 7 -4l39 -35q8 -8 3 -18
q-15 -30 -41.5 -45t-57.5 -15q-17 0 -29.5 4.5z" />
    <glyph glyph-name="Ograve" unicode="&#xd2;" horiz-adv-x="547" 
d="M151.5 19q-52.5 28 -81.5 79t-29 119v266q0 67 29 118t81.5 79t121.5 28t122 -28t82 -79t29 -118v-266q0 -68 -29 -119t-82 -79t-122 -28t-121.5 28zM340 139.5q25 27.5 25 71.5v276q0 45 -25 72.5t-67 27.5q-41 0 -66 -27.5t-25 -72.5v-276q0 -44 25 -71.5t66 -27.5
q42 0 67 27.5zM322 770q0 -8 -10 -8h-80q-9 0 -14 7l-74 102q-3 5 -3 7q0 8 11 8h96q10 0 15 -8l57 -102q2 -4 2 -6z" />
    <glyph glyph-name="Oacute" unicode="&#xd3;" horiz-adv-x="547" 
d="M151.5 19q-52.5 28 -81.5 79t-29 119v266q0 67 29 118t81.5 79t121.5 28t122 -28t82 -79t29 -118v-266q0 -68 -29 -119t-82 -79t-122 -28t-121.5 28zM340 139.5q25 27.5 25 71.5v276q0 45 -25 72.5t-67 27.5q-41 0 -66 -27.5t-25 -72.5v-276q0 -44 25 -71.5t66 -27.5
q42 0 67 27.5zM209 766q-2 4 1 10l57 102q5 8 15 8h96q8 0 10 -4.5t-2 -10.5l-74 -102q-5 -7 -14 -7h-80q-7 0 -9 4z" />
    <glyph glyph-name="Ocircumflex" unicode="&#xd4;" horiz-adv-x="547" 
d="M151.5 19q-52.5 28 -81.5 79t-29 119v266q0 67 29 118t81.5 79t121.5 28t122 -28t82 -79t29 -118v-266q0 -68 -29 -119t-82 -79t-122 -28t-121.5 28zM340 139.5q25 27.5 25 71.5v276q0 45 -25 72.5t-67 27.5q-41 0 -66 -27.5t-25 -72.5v-276q0 -44 25 -71.5t66 -27.5
q42 0 67 27.5zM121.5 763.5q-2.5 4.5 1.5 10.5l69 104q5 8 14 8h131q9 0 14 -8l70 -104q2 -4 2 -7q0 -8 -10 -8h-87q-11 0 -15 8l-35 59q-3 6 -6 0l-35 -59q-4 -8 -15 -8h-89q-7 0 -9.5 4.5z" />
    <glyph glyph-name="Otilde" unicode="&#xd5;" horiz-adv-x="547" 
d="M151.5 19q-52.5 28 -81.5 79t-29 119v266q0 67 29 118t81.5 79t121.5 28t122 -28t82 -79t29 -118v-266q0 -68 -29 -119t-82 -79t-122 -28t-121.5 28zM340 139.5q25 27.5 25 71.5v276q0 45 -25 72.5t-67 27.5q-41 0 -66 -27.5t-25 -72.5v-276q0 -44 25 -71.5t66 -27.5
q42 0 67 27.5zM308.5 770.5q-12.5 4.5 -31.5 13.5q-5 3 -15 8t-17 7t-14 2q-26 0 -44 -22q-6 -6 -10 -6q-3 0 -7 4l-41 36q-8 8 -4 17q15 31 40.5 48t56.5 17q18 0 33 -5.5t36 -16.5q4 -2 13 -7.5t16.5 -8t15.5 -2.5q28 0 42 21q5 7 10 7q3 0 7 -4l39 -35q8 -8 3 -18
q-15 -30 -41.5 -45t-57.5 -15q-17 0 -29.5 4.5z" />
    <glyph glyph-name="Odieresis" unicode="&#xd6;" horiz-adv-x="547" 
d="M151.5 19q-52.5 28 -81.5 79t-29 119v266q0 67 29 118t81.5 79t121.5 28t122 -28t82 -79t29 -118v-266q0 -68 -29 -119t-82 -79t-122 -28t-121.5 28zM340 139.5q25 27.5 25 71.5v276q0 45 -25 72.5t-67 27.5q-41 0 -66 -27.5t-25 -72.5v-276q0 -44 25 -71.5t66 -27.5
q42 0 67 27.5zM311.5 783.5q-22.5 22.5 -22.5 56.5q0 35 22 57t57 22t57 -22t22 -57q0 -34 -22.5 -56.5t-56.5 -22.5t-56.5 22.5zM119.5 783.5q-22.5 22.5 -22.5 56.5q0 35 22 57t57 22t57 -22t22 -57q0 -34 -22.5 -56.5t-56.5 -22.5t-56.5 22.5z" />
    <glyph glyph-name="multiply" unicode="&#xd7;" horiz-adv-x="422" 
d="M392 417q0 -5 -4 -9l-92 -92q-2 -2 -2 -4t2 -4l92 -92q4 -3 4 -8q0 -4 -4 -8l-64 -64q-4 -4 -8 -4q-2 0 -8 4l-92 92q-2 2 -4 2t-4 -2l-93 -93q-4 -4 -9 -4q-4 0 -8 4l-64 64q-4 6 -4 8q0 4 4 8l93 93q2 2 2 4t-2 4l-93 93q-4 6 -4 8q0 4 4 8l64 64q4 4 8 4q5 0 8 -4
l93 -93q2 -2 4 -2t4 2l93 93q4 4 8 4q5 0 8 -4l64 -64q4 -3 4 -8z" />
    <glyph glyph-name="Oslash" unicode="&#xd8;" horiz-adv-x="584" 
d="M519 676l-42 -75q-1 -3 0 -6q25 -52 25 -112v-266q0 -68 -29 -119t-82 -79t-122 -28q-67 0 -119 26q-4 1 -6 -2l-31 -54q-6 -11 -16 -4l-73 51q-9 8 -3 17l41 73q2 3 0 6q-25 49 -25 113v266q0 67 29 118t81.5 79t121.5 28q67 0 119 -26q4 -1 6 2l31 55q6 11 16 4l74 -51
q10 -7 4 -16zM361 487q0 45 -25 72.5t-67 27.5q-41 0 -66 -27.5t-25 -72.5v-276q0 -44 25 -71.5t66 -27.5q42 0 67 27.5t25 71.5v276z" />
    <glyph glyph-name="Ugrave" unicode="&#xd9;" horiz-adv-x="554" 
d="M157 20q-52 28 -80.5 78.5t-28.5 116.5v473q0 5 3.5 8.5t8.5 3.5h117q5 0 8.5 -3.5t3.5 -8.5v-480q0 -43 24 -69t64 -26t64 26t24 69v480q0 5 3.5 8.5t8.5 3.5h117q5 0 8.5 -3.5t3.5 -8.5v-473q0 -66 -28.5 -116.5t-80.5 -78.5t-120 -28t-120 28zM327 770q0 -8 -10 -8
h-80q-9 0 -14 7l-74 102q-3 5 -3 7q0 8 11 8h96q10 0 15 -8l57 -102q2 -4 2 -6z" />
    <glyph glyph-name="Uacute" unicode="&#xda;" horiz-adv-x="554" 
d="M157 20q-52 28 -80.5 78.5t-28.5 116.5v473q0 5 3.5 8.5t8.5 3.5h117q5 0 8.5 -3.5t3.5 -8.5v-480q0 -43 24 -69t64 -26t64 26t24 69v480q0 5 3.5 8.5t8.5 3.5h117q5 0 8.5 -3.5t3.5 -8.5v-473q0 -66 -28.5 -116.5t-80.5 -78.5t-120 -28t-120 28zM213 766q-2 4 1 10
l57 102q5 8 15 8h96q8 0 10 -4.5t-2 -10.5l-74 -102q-5 -7 -14 -7h-80q-7 0 -9 4z" />
    <glyph glyph-name="Ucircumflex" unicode="&#xdb;" horiz-adv-x="554" 
d="M157 20q-52 28 -80.5 78.5t-28.5 116.5v473q0 5 3.5 8.5t8.5 3.5h117q5 0 8.5 -3.5t3.5 -8.5v-480q0 -43 24 -69t64 -26t64 26t24 69v480q0 5 3.5 8.5t8.5 3.5h117q5 0 8.5 -3.5t3.5 -8.5v-473q0 -66 -28.5 -116.5t-80.5 -78.5t-120 -28t-120 28zM125.5 763.5
q-2.5 4.5 1.5 10.5l69 104q5 8 14 8h131q9 0 14 -8l70 -104q2 -4 2 -7q0 -8 -10 -8h-87q-11 0 -15 8l-35 59q-3 6 -6 0l-35 -59q-4 -8 -15 -8h-89q-7 0 -9.5 4.5z" />
    <glyph glyph-name="Udieresis" unicode="&#xdc;" horiz-adv-x="554" 
d="M157 20q-52 28 -80.5 78.5t-28.5 116.5v473q0 5 3.5 8.5t8.5 3.5h117q5 0 8.5 -3.5t3.5 -8.5v-480q0 -43 24 -69t64 -26t64 26t24 69v480q0 5 3.5 8.5t8.5 3.5h117q5 0 8.5 -3.5t3.5 -8.5v-473q0 -66 -28.5 -116.5t-80.5 -78.5t-120 -28t-120 28zM316.5 783.5
q-22.5 22.5 -22.5 56.5q0 35 22 57t57 22t57 -22t22 -57q0 -34 -22.5 -56.5t-56.5 -22.5t-56.5 22.5zM124.5 783.5q-22.5 22.5 -22.5 56.5q0 35 22 57t57 22t57 -22t22 -57q0 -34 -22.5 -56.5t-56.5 -22.5t-56.5 22.5z" />
    <glyph glyph-name="Yacute" unicode="&#xdd;" horiz-adv-x="546" 
d="M205.5 4.5q-3.5 3.5 -3.5 8.5v256l-1 6l-173 411q-1 2 -1 6q0 8 10 8h126q11 0 14 -10l93 -253q1 -3 3 -3t3 3l93 253q3 10 14 10h126q7 0 9 -4t0 -10l-174 -411l-1 -6v-256q0 -5 -3.5 -8.5t-8.5 -3.5h-117q-5 0 -8.5 3.5zM208 766q-2 4 1 10l57 102q5 8 15 8h96
q8 0 10 -4.5t-2 -10.5l-74 -102q-5 -7 -14 -7h-80q-7 0 -9 4z" />
    <glyph glyph-name="Thorn" unicode="&#xde;" horiz-adv-x="523" 
d="M401.5 534q46.5 -27 72.5 -75.5t26 -110.5q0 -61 -26 -108.5t-72.5 -73.5t-105.5 -26h-100q-5 0 -5 -5v-123q0 -5 -3.5 -8.5t-8.5 -3.5h-117q-5 0 -8.5 3.5t-3.5 8.5v676q0 5 3.5 8.5t8.5 3.5h117q5 0 8.5 -3.5t3.5 -8.5v-122q0 -5 5 -5h99q60 0 106.5 -27zM335.5 277.5
q23.5 24.5 23.5 67.5q0 44 -23.5 69t-62.5 25h-77q-5 0 -5 -5v-176q0 -5 5 -5h77q39 0 62.5 24.5z" />
    <glyph glyph-name="germandbls" unicode="&#xdf;" horiz-adv-x="518" 
d="M49.5 4.5q-3.5 3.5 -3.5 8.5v471q0 107 55 165.5t155 58.5q98 0 156.5 -52t58.5 -140q1 -91 -67 -134q-6 -3 0 -6q37 -23 58 -67.5t21 -102.5q0 -98 -60 -152t-170 -54h-19q-5 0 -8.5 3.5t-3.5 8.5v96q0 5 3.5 8.5t8.5 3.5l26 1q38 0 60.5 26.5t22.5 73.5q0 46 -21 72.5
t-56 27.5h-24q-5 0 -8.5 3.5t-3.5 8.5v86q0 5 3.5 8.5t8.5 3.5h22q30 0 49 21t19 56q0 36 -18.5 58t-52.5 22q-33 0 -53.5 -22.5t-20.5 -63.5v-490q0 -5 -3.5 -8.5t-8.5 -3.5l-117 1q-5 0 -8.5 3.5z" />
    <glyph glyph-name="agrave" unicode="&#xe0;" horiz-adv-x="486" 
d="M348 500.5q47 -21.5 73.5 -60t26.5 -87.5v-341q0 -5 -3.5 -8.5t-8.5 -3.5h-117q-5 0 -8.5 3.5t-3.5 8.5v28q0 3 -2 4t-4 -2q-38 -50 -118 -50q-68 0 -113.5 35t-45.5 117q0 163 204 163h74q5 0 5 5v23q0 30 -17.5 48t-47.5 18q-24 0 -40 -11t-20 -30q-3 -10 -14 -10
l-121 7q-5 0 -8.5 3t-2.5 8q6 69 62.5 111.5t142.5 42.5q60 0 107 -21.5zM283 118q24 19 24 50v42q0 5 -5 5h-56q-37 0 -58 -16t-21 -46q0 -26 16 -40t42 -14q34 0 58 19zM293 584q0 -8 -10 -8h-80q-9 0 -14 7l-74 102q-3 5 -3 7q0 8 11 8h96q10 0 15 -8l57 -102q2 -4 2 -6z
" />
    <glyph glyph-name="aacute" unicode="&#xe1;" horiz-adv-x="486" 
d="M348 500.5q47 -21.5 73.5 -60t26.5 -87.5v-341q0 -5 -3.5 -8.5t-8.5 -3.5h-117q-5 0 -8.5 3.5t-3.5 8.5v28q0 3 -2 4t-4 -2q-38 -50 -118 -50q-68 0 -113.5 35t-45.5 117q0 163 204 163h74q5 0 5 5v23q0 30 -17.5 48t-47.5 18q-24 0 -40 -11t-20 -30q-3 -10 -14 -10
l-121 7q-5 0 -8.5 3t-2.5 8q6 69 62.5 111.5t142.5 42.5q60 0 107 -21.5zM283 118q24 19 24 50v42q0 5 -5 5h-56q-37 0 -58 -16t-21 -46q0 -26 16 -40t42 -14q34 0 58 19zM179 580q-2 4 1 10l57 102q5 8 15 8h96q8 0 10 -4.5t-2 -10.5l-74 -102q-5 -7 -14 -7h-80q-7 0 -9 4z
" />
    <glyph glyph-name="acircumflex" unicode="&#xe2;" horiz-adv-x="486" 
d="M348 500.5q47 -21.5 73.5 -60t26.5 -87.5v-341q0 -5 -3.5 -8.5t-8.5 -3.5h-117q-5 0 -8.5 3.5t-3.5 8.5v28q0 3 -2 4t-4 -2q-38 -50 -118 -50q-68 0 -113.5 35t-45.5 117q0 163 204 163h74q5 0 5 5v23q0 30 -17.5 48t-47.5 18q-24 0 -40 -11t-20 -30q-3 -10 -14 -10
l-121 7q-5 0 -8.5 3t-2.5 8q6 69 62.5 111.5t142.5 42.5q60 0 107 -21.5zM283 118q24 19 24 50v42q0 5 -5 5h-56q-37 0 -58 -16t-21 -46q0 -26 16 -40t42 -14q34 0 58 19zM91.5 577.5q-2.5 4.5 1.5 10.5l69 104q5 8 14 8h131q9 0 14 -8l70 -104q2 -4 2 -7q0 -8 -10 -8h-87
q-11 0 -15 8l-35 59q-3 6 -6 0l-35 -59q-4 -8 -15 -8h-89q-7 0 -9.5 4.5z" />
    <glyph glyph-name="atilde" unicode="&#xe3;" horiz-adv-x="486" 
d="M348 500.5q47 -21.5 73.5 -60t26.5 -87.5v-341q0 -5 -3.5 -8.5t-8.5 -3.5h-117q-5 0 -8.5 3.5t-3.5 8.5v28q0 3 -2 4t-4 -2q-38 -50 -118 -50q-68 0 -113.5 35t-45.5 117q0 163 204 163h74q5 0 5 5v23q0 30 -17.5 48t-47.5 18q-24 0 -40 -11t-20 -30q-3 -10 -14 -10
l-121 7q-5 0 -8.5 3t-2.5 8q6 69 62.5 111.5t142.5 42.5q60 0 107 -21.5zM283 118q24 19 24 50v42q0 5 -5 5h-56q-37 0 -58 -16t-21 -46q0 -26 16 -40t42 -14q34 0 58 19zM278.5 584.5q-12.5 4.5 -31.5 13.5q-5 3 -15 8t-17 7t-14 2q-26 0 -44 -22q-6 -6 -10 -6q-3 0 -7 4
l-41 36q-8 8 -4 17q15 31 40.5 48t56.5 17q18 0 33 -5.5t36 -16.5q4 -2 13 -7.5t16.5 -8t15.5 -2.5q28 0 42 21q5 7 10 7q3 0 7 -4l39 -35q8 -8 3 -18q-15 -30 -41.5 -45t-57.5 -15q-17 0 -29.5 4.5z" />
    <glyph glyph-name="adieresis" unicode="&#xe4;" horiz-adv-x="486" 
d="M348 500.5q47 -21.5 73.5 -60t26.5 -87.5v-341q0 -5 -3.5 -8.5t-8.5 -3.5h-117q-5 0 -8.5 3.5t-3.5 8.5v28q0 3 -2 4t-4 -2q-38 -50 -118 -50q-68 0 -113.5 35t-45.5 117q0 163 204 163h74q5 0 5 5v23q0 30 -17.5 48t-47.5 18q-24 0 -40 -11t-20 -30q-3 -10 -14 -10
l-121 7q-5 0 -8.5 3t-2.5 8q6 69 62.5 111.5t142.5 42.5q60 0 107 -21.5zM283 118q24 19 24 50v42q0 5 -5 5h-56q-37 0 -58 -16t-21 -46q0 -26 16 -40t42 -14q34 0 58 19zM282.5 597.5q-22.5 22.5 -22.5 56.5q0 35 22 57t57 22t57 -22t22 -57q0 -34 -22.5 -56.5t-56.5 -22.5
t-56.5 22.5zM90.5 597.5q-22.5 22.5 -22.5 56.5q0 35 22 57t57 22t57 -22t22 -57q0 -34 -22.5 -56.5t-56.5 -22.5t-56.5 22.5z" />
    <glyph glyph-name="aring" unicode="&#xe5;" horiz-adv-x="486" 
d="M348 500.5q47 -21.5 73.5 -60t26.5 -87.5v-341q0 -5 -3.5 -8.5t-8.5 -3.5h-117q-5 0 -8.5 3.5t-3.5 8.5v28q0 3 -2 4t-4 -2q-38 -50 -118 -50q-68 0 -113.5 35t-45.5 117q0 163 204 163h74q5 0 5 5v23q0 30 -17.5 48t-47.5 18q-24 0 -40 -11t-20 -30q-3 -10 -14 -10
l-121 7q-5 0 -8.5 3t-2.5 8q6 69 62.5 111.5t142.5 42.5q60 0 107 -21.5zM283 118q24 19 24 50v42q0 5 -5 5h-56q-37 0 -58 -16t-21 -46q0 -26 16 -40t42 -14q34 0 58 19zM154.5 599q-35.5 36 -35.5 88q0 53 35.5 88.5t88.5 35.5q52 0 88 -35.5t36 -88.5q0 -52 -36 -88
t-88 -36q-53 0 -88.5 36zM278 651.5q15 14.5 15 35.5q0 22 -15 36.5t-35 14.5q-21 0 -35.5 -14.5t-14.5 -36.5q0 -21 15 -35.5t35 -14.5t35 14.5z" />
    <glyph glyph-name="ae" unicode="&#xe6;" horiz-adv-x="762" 
d="M73.5 26.5q-49.5 34.5 -49.5 117.5q0 158 201 158h76q5 0 5 5v26q0 31 -17 49.5t-49 18.5q-24 0 -42 -11t-22 -30q-3 -12 -14 -10l-117 9q-12 2 -11 13q3 44 30.5 78t72 53t96.5 19q47 0 84 -17t61 -46q3 -3 6 0q22 27 59 45t83 18q77 0 132 -43.5t66 -114.5
q7 -59 7 -143q0 -12 -12 -12h-261q-5 0 -5 -5q0 -3 2 -27q3 -29 25 -45t55 -16q50 0 75 42q7 10 16 6l86 -35q11 -5 8 -15q-19 -57 -67.5 -89.5t-118.5 -32.5q-56 0 -97.5 20t-56.5 49q-4 6 -5 3q-16 -31 -64.5 -51.5t-112.5 -20.5q-75 0 -124.5 34.5zM457 302h128q5 0 5 5
l-3 34q-4 27 -21.5 43.5t-44.5 16.5t-44.5 -16.5t-21.5 -43.5l-3 -34q0 -5 5 -5zM282 113.5q24 18.5 24 49.5v41q0 5 -5 5h-56q-37 0 -58 -15t-21 -43q0 -26 17 -41t44 -15q31 0 55 18.5z" />
    <glyph glyph-name="ccedilla" unicode="&#xe7;" horiz-adv-x="486" 
d="M317 181q1 5 4.5 8.5t8.5 2.5l116 -10q11 -2 11 -13q0 -6 -2 -20q-9 -61 -50 -101t-105 -52q-6 -2 -2 -6q41 -42 41 -88q0 -13 -3 -25q-8 -34 -33 -48t-58 -14q-26 0 -54 8q-10 4 -9 15l7 48q1 11 14 8q8 -2 13 -2q13 0 22 8.5t9 23.5q0 33 -45 70l-6 3
q-62 12 -102.5 52.5t-50.5 101.5q-8 41 -8 108q0 50 8 106q13 72 68 114.5t138 42.5q81 0 136.5 -41t68.5 -108q2 -9 4 -29q0 -11 -12 -13l-115 -11h-2q-9 0 -11 11q0 7 -1 10q-2 8 -4 14q-6 20 -23 33t-42 13q-27 0 -44 -16t-22 -44q-6 -33 -6 -83q0 -55 7 -86
q5 -27 21.5 -43t43.5 -16q29 0 46.5 16t20.5 40z" />
    <glyph glyph-name="egrave" unicode="&#xe8;" horiz-adv-x="490" 
d="M461 262l-1 -39q0 -12 -12 -12h-265q-5 0 -5 -5q2 -23 4 -34q5 -28 24.5 -44t48.5 -16q49 1 68 45q5 10 15 8l106 -21q12 -3 8 -15q-22 -66 -72.5 -101.5t-124.5 -35.5q-89 0 -141.5 40.5t-68.5 116.5q-9 41 -9 125q0 48 6 81q11 76 66 121.5t139 45.5q91 0 148 -51.5
t63 -135.5q3 -33 3 -73zM203.5 385q-17.5 -16 -22.5 -44q-3 -18 -3 -38q0 -5 5 -5h130q5 0 5 5q0 20 -3 38q-4 27 -22 43.5t-45 16.5t-44.5 -16zM294 584q0 -8 -10 -8h-80q-9 0 -14 7l-74 102q-3 5 -3 7q0 8 11 8h96q10 0 15 -8l57 -102q2 -4 2 -6z" />
    <glyph glyph-name="eacute" unicode="&#xe9;" horiz-adv-x="490" 
d="M461 262l-1 -39q0 -12 -12 -12h-265q-5 0 -5 -5q2 -23 4 -34q5 -28 24.5 -44t48.5 -16q49 1 68 45q5 10 15 8l106 -21q12 -3 8 -15q-22 -66 -72.5 -101.5t-124.5 -35.5q-89 0 -141.5 40.5t-68.5 116.5q-9 41 -9 125q0 48 6 81q11 76 66 121.5t139 45.5q91 0 148 -51.5
t63 -135.5q3 -33 3 -73zM203.5 385q-17.5 -16 -22.5 -44q-3 -18 -3 -38q0 -5 5 -5h130q5 0 5 5q0 20 -3 38q-4 27 -22 43.5t-45 16.5t-44.5 -16zM180 580q-2 4 1 10l57 102q5 8 15 8h96q8 0 10 -4.5t-2 -10.5l-74 -102q-5 -7 -14 -7h-80q-7 0 -9 4z" />
    <glyph glyph-name="ecircumflex" unicode="&#xea;" horiz-adv-x="490" 
d="M461 262l-1 -39q0 -12 -12 -12h-265q-5 0 -5 -5q2 -23 4 -34q5 -28 24.5 -44t48.5 -16q49 1 68 45q5 10 15 8l106 -21q12 -3 8 -15q-22 -66 -72.5 -101.5t-124.5 -35.5q-89 0 -141.5 40.5t-68.5 116.5q-9 41 -9 125q0 48 6 81q11 76 66 121.5t139 45.5q91 0 148 -51.5
t63 -135.5q3 -33 3 -73zM203.5 385q-17.5 -16 -22.5 -44q-3 -18 -3 -38q0 -5 5 -5h130q5 0 5 5q0 20 -3 38q-4 27 -22 43.5t-45 16.5t-44.5 -16zM93.5 577.5q-2.5 4.5 1.5 10.5l69 104q5 8 14 8h131q9 0 14 -8l70 -104q2 -4 2 -7q0 -8 -10 -8h-87q-11 0 -15 8l-35 59
q-3 6 -6 0l-35 -59q-4 -8 -15 -8h-89q-7 0 -9.5 4.5z" />
    <glyph glyph-name="edieresis" unicode="&#xeb;" horiz-adv-x="490" 
d="M461 262l-1 -39q0 -12 -12 -12h-265q-5 0 -5 -5q2 -23 4 -34q5 -28 24.5 -44t48.5 -16q49 1 68 45q5 10 15 8l106 -21q12 -3 8 -15q-22 -66 -72.5 -101.5t-124.5 -35.5q-89 0 -141.5 40.5t-68.5 116.5q-9 41 -9 125q0 48 6 81q11 76 66 121.5t139 45.5q91 0 148 -51.5
t63 -135.5q3 -33 3 -73zM203.5 385q-17.5 -16 -22.5 -44q-3 -18 -3 -38q0 -5 5 -5h130q5 0 5 5q0 20 -3 38q-4 27 -22 43.5t-45 16.5t-44.5 -16zM283.5 597.5q-22.5 22.5 -22.5 56.5q0 35 22 57t57 22t57 -22t22 -57q0 -34 -22.5 -56.5t-56.5 -22.5t-56.5 22.5zM91.5 597.5
q-22.5 22.5 -22.5 56.5q0 35 22 57t57 22t57 -22t22 -57q0 -34 -22.5 -56.5t-56.5 -22.5t-56.5 22.5z" />
    <glyph glyph-name="igrave" unicode="&#xec;" horiz-adv-x="213" 
d="M39.5 3.5q-3.5 3.5 -3.5 8.5v490q0 5 3.5 8.5t8.5 3.5h117q5 0 8.5 -3.5t3.5 -8.5v-490q0 -5 -3.5 -8.5t-8.5 -3.5h-117q-5 0 -8.5 3.5zM156 584q0 -8 -10 -8h-80q-9 0 -14 7l-74 102q-3 5 -3 7q0 8 11 8h96q10 0 15 -8l57 -102q2 -4 2 -6z" />
    <glyph glyph-name="iacute" unicode="&#xed;" horiz-adv-x="213" 
d="M39.5 3.5q-3.5 3.5 -3.5 8.5v490q0 5 3.5 8.5t8.5 3.5h117q5 0 8.5 -3.5t3.5 -8.5v-490q0 -5 -3.5 -8.5t-8.5 -3.5h-117q-5 0 -8.5 3.5zM42 580q-2 4 1 10l57 102q5 8 15 8h96q8 0 10 -4.5t-2 -10.5l-74 -102q-5 -7 -14 -7h-80q-7 0 -9 4z" />
    <glyph glyph-name="icircumflex" unicode="&#xee;" horiz-adv-x="213" 
d="M39.5 3.5q-3.5 3.5 -3.5 8.5v490q0 5 3.5 8.5t8.5 3.5h117q5 0 8.5 -3.5t3.5 -8.5v-490q0 -5 -3.5 -8.5t-8.5 -3.5h-117q-5 0 -8.5 3.5zM-44.5 577.5q-2.5 4.5 1.5 10.5l69 104q5 8 14 8h131q9 0 14 -8l70 -104q2 -4 2 -7q0 -8 -10 -8h-87q-11 0 -15 8l-35 59q-3 6 -6 0
l-35 -59q-4 -8 -15 -8h-89q-7 0 -9.5 4.5z" />
    <glyph glyph-name="idieresis" unicode="&#xef;" horiz-adv-x="213" 
d="M39.5 3.5q-3.5 3.5 -3.5 8.5v490q0 5 3.5 8.5t8.5 3.5h117q5 0 8.5 -3.5t3.5 -8.5v-490q0 -5 -3.5 -8.5t-8.5 -3.5h-117q-5 0 -8.5 3.5zM145.5 597.5q-22.5 22.5 -22.5 56.5q0 35 22 57t57 22t57 -22t22 -57q0 -34 -22.5 -56.5t-56.5 -22.5t-56.5 22.5zM-46.5 597.5
q-22.5 22.5 -22.5 56.5q0 35 22 57t57 22t57 -22t22 -57q0 -34 -22.5 -56.5t-56.5 -22.5t-56.5 22.5z" />
    <glyph glyph-name="eth" unicode="&#xf0;" horiz-adv-x="500" 
d="M457 239q0 -57 -7 -95q-12 -70 -66.5 -111t-137.5 -41t-137 40.5t-66 111.5q-8 39 -8 94q0 56 8 95q6 55 43.5 92t91.5 42q25 5 47 5q40 0 65 -13q3 -2 4 -1t0 4q-12 36 -36 76q-1 2 -2.5 3t-3.5 0l-87 -23l-4 -1q-8 0 -11 10l-11 43l-1 4q0 8 10 11l61 16q5 2 2 7
q-37 48 -61 77q-4 4 -4 8q0 7 10 7h117q9 0 15 -7l42 -56q1 -2 2.5 -3t3.5 0l80 21l4 1q8 0 11 -10l11 -44l1 -4q0 -8 -10 -11l-53 -14q-6 -2 -3 -6q32 -54 50.5 -107.5t23.5 -113.5q6 -41 6 -107zM316 236q0 34 -5 71q-5 26 -22.5 42t-42.5 16t-42.5 -16t-22.5 -42
q-5 -38 -5 -71q0 -37 6 -72q4 -26 21.5 -42t42.5 -16t42.5 16t22.5 42q5 38 5 72z" />
    <glyph glyph-name="ntilde" unicode="&#xf1;" horiz-adv-x="497" 
d="M168 594q-5 -7 -10 -7q-3 0 -7 4l-40 36q-8 7 -4 17q14 31 39 48t55 17q18 0 32 -5.5t36 -16.5q2 -1 11.5 -7t17.5 -8.5t15 -2.5q27 0 41 21q5 6 10 6q4 0 7 -3l38 -35q8 -6 3 -16q-14 -31 -40 -46.5t-57 -15.5q-16 0 -29.5 4.5t-29.5 13.5q-5 3 -15 8t-16.5 7t-13.5 2
q-26 0 -43 -21zM413.5 475.5q41.5 -46.5 41.5 -129.5v-334q0 -5 -3.5 -8.5t-8.5 -3.5h-117q-5 0 -8.5 3.5t-3.5 8.5v314q0 35 -17 55t-46 20q-30 0 -47.5 -20.5t-17.5 -55.5v-313q0 -5 -3.5 -8.5t-8.5 -3.5h-117q-5 0 -8.5 3.5t-3.5 8.5v490q0 5 3.5 8.5t8.5 3.5h117
q5 0 8.5 -3.5t3.5 -8.5v-28q0 -3 2 -3.5t5 3.5q36 48 106 48q73 0 114.5 -46.5z" />
    <glyph glyph-name="ograve" unicode="&#xf2;" horiz-adv-x="496" 
d="M109.5 35.5q-55.5 43.5 -66.5 119.5q-8 46 -8 103q0 58 8 103q11 74 66.5 117.5t142.5 43.5q86 0 140.5 -43.5t66.5 -117.5q8 -45 8 -103q0 -56 -8 -102q-11 -77 -65.5 -120.5t-141.5 -43.5t-142.5 43.5zM296.5 130q18.5 17 24.5 46q5 42 5 82q0 41 -5 81
q-5 29 -23.5 45.5t-46.5 16.5q-27 0 -45.5 -16.5t-23.5 -45.5q-5 -30 -5 -81q0 -50 4 -82q6 -29 25 -46t46 -17q26 0 44.5 17zM297 584q0 -8 -10 -8h-80q-9 0 -14 7l-74 102q-3 5 -3 7q0 8 11 8h96q10 0 15 -8l57 -102q2 -4 2 -6z" />
    <glyph glyph-name="oacute" unicode="&#xf3;" horiz-adv-x="496" 
d="M109.5 35.5q-55.5 43.5 -66.5 119.5q-8 46 -8 103q0 58 8 103q11 74 66.5 117.5t142.5 43.5q86 0 140.5 -43.5t66.5 -117.5q8 -45 8 -103q0 -56 -8 -102q-11 -77 -65.5 -120.5t-141.5 -43.5t-142.5 43.5zM296.5 130q18.5 17 24.5 46q5 42 5 82q0 41 -5 81
q-5 29 -23.5 45.5t-46.5 16.5q-27 0 -45.5 -16.5t-23.5 -45.5q-5 -30 -5 -81q0 -50 4 -82q6 -29 25 -46t46 -17q26 0 44.5 17zM183 580q-2 4 1 10l57 102q5 8 15 8h96q8 0 10 -4.5t-2 -10.5l-74 -102q-5 -7 -14 -7h-80q-7 0 -9 4z" />
    <glyph glyph-name="ocircumflex" unicode="&#xf4;" horiz-adv-x="496" 
d="M109.5 35.5q-55.5 43.5 -66.5 119.5q-8 46 -8 103q0 58 8 103q11 74 66.5 117.5t142.5 43.5q86 0 140.5 -43.5t66.5 -117.5q8 -45 8 -103q0 -56 -8 -102q-11 -77 -65.5 -120.5t-141.5 -43.5t-142.5 43.5zM296.5 130q18.5 17 24.5 46q5 42 5 82q0 41 -5 81
q-5 29 -23.5 45.5t-46.5 16.5q-27 0 -45.5 -16.5t-23.5 -45.5q-5 -30 -5 -81q0 -50 4 -82q6 -29 25 -46t46 -17q26 0 44.5 17zM96.5 577.5q-2.5 4.5 1.5 10.5l69 104q5 8 14 8h131q9 0 14 -8l70 -104q2 -4 2 -7q0 -8 -10 -8h-87q-11 0 -15 8l-35 59q-3 6 -6 0l-35 -59
q-4 -8 -15 -8h-89q-7 0 -9.5 4.5z" />
    <glyph glyph-name="otilde" unicode="&#xf5;" horiz-adv-x="496" 
d="M109.5 35.5q-55.5 43.5 -66.5 119.5q-8 46 -8 103q0 58 8 103q11 74 66.5 117.5t142.5 43.5q86 0 140.5 -43.5t66.5 -117.5q8 -45 8 -103q0 -56 -8 -102q-11 -77 -65.5 -120.5t-141.5 -43.5t-142.5 43.5zM296.5 130q18.5 17 24.5 46q5 42 5 82q0 41 -5 81
q-5 29 -23.5 45.5t-46.5 16.5q-27 0 -45.5 -16.5t-23.5 -45.5q-5 -30 -5 -81q0 -50 4 -82q6 -29 25 -46t46 -17q26 0 44.5 17zM283.5 584.5q-12.5 4.5 -31.5 13.5q-5 3 -15 8t-17 7t-14 2q-26 0 -44 -22q-6 -6 -10 -6q-3 0 -7 4l-41 36q-8 8 -4 17q15 31 40.5 48t56.5 17
q18 0 33 -5.5t36 -16.5q4 -2 13 -7.5t16.5 -8t15.5 -2.5q28 0 42 21q5 7 10 7q3 0 7 -4l39 -35q8 -8 3 -18q-15 -30 -41.5 -45t-57.5 -15q-17 0 -29.5 4.5z" />
    <glyph glyph-name="odieresis" unicode="&#xf6;" horiz-adv-x="496" 
d="M109.5 35.5q-55.5 43.5 -66.5 119.5q-8 46 -8 103q0 58 8 103q11 74 66.5 117.5t142.5 43.5q86 0 140.5 -43.5t66.5 -117.5q8 -45 8 -103q0 -56 -8 -102q-11 -77 -65.5 -120.5t-141.5 -43.5t-142.5 43.5zM296.5 130q18.5 17 24.5 46q5 42 5 82q0 41 -5 81
q-5 29 -23.5 45.5t-46.5 16.5q-27 0 -45.5 -16.5t-23.5 -45.5q-5 -30 -5 -81q0 -50 4 -82q6 -29 25 -46t46 -17q26 0 44.5 17zM286.5 597.5q-22.5 22.5 -22.5 56.5q0 35 22 57t57 22t57 -22t22 -57q0 -34 -22.5 -56.5t-56.5 -22.5t-56.5 22.5zM94.5 597.5
q-22.5 22.5 -22.5 56.5q0 35 22 57t57 22t57 -22t22 -57q0 -34 -22.5 -56.5t-56.5 -22.5t-56.5 22.5z" />
    <glyph glyph-name="divide" unicode="&#xf7;" horiz-adv-x="462" 
d="M182.5 434.5q-20.5 20.5 -20.5 48.5t20.5 48t48.5 20t48.5 -20t20.5 -48t-20.5 -48.5t-48.5 -20.5t-48.5 20.5zM29.5 258.5q-3.5 3.5 -3.5 8.5v89q0 5 3.5 8.5t8.5 3.5h386q5 0 8.5 -3.5t3.5 -8.5v-89q0 -5 -3.5 -8.5t-8.5 -3.5h-386q-5 0 -8.5 3.5zM182.5 98.5
q-20.5 20.5 -20.5 48.5t20.5 48t48.5 20t48.5 -20t20.5 -48t-20.5 -48.5t-48.5 -20.5t-48.5 20.5z" />
    <glyph glyph-name="oslash" unicode="&#xf8;" horiz-adv-x="504" 
d="M437 428q16 -29 22 -67q9 -42 9 -103q0 -56 -8 -102q-11 -77 -66 -120.5t-142 -43.5q-45 0 -81 12q-4 1 -6 -3l-30 -48q-6 -11 -16 -4l-79 56q-9 8 -3 17l32 54q2 3 0 6q-19 36 -25 73q-8 46 -8 103q0 58 8 103q11 74 66.5 117.5t142.5 43.5q48 0 84 -13q4 -1 6 3l31 49
q7 10 16 4l79 -56q6 -4 6 -9q0 -3 -3 -8l-35 -58q-1 -3 0 -6zM326 258q0 49 -4 81q-6 29 -24.5 45.5t-45.5 16.5q-28 0 -46.5 -16.5t-23.5 -45.5q-5 -40 -5 -81q0 -42 5 -82q5 -29 24 -46t46 -17t45.5 17t23.5 46q5 31 5 82z" />
    <glyph glyph-name="ugrave" unicode="&#xf9;" horiz-adv-x="497" 
d="M313.5 510.5q3.5 3.5 8.5 3.5h117q5 0 8.5 -3.5t3.5 -8.5v-490q0 -5 -3.5 -8.5t-8.5 -3.5h-117q-5 0 -8.5 3.5t-3.5 8.5v25q0 3 -2 3.5t-4 -1.5q-34 -46 -107 -46q-68 0 -112 41t-44 121v347q0 5 3.5 8.5t8.5 3.5h117q5 0 8.5 -3.5t3.5 -8.5v-314q0 -35 16.5 -55
t46.5 -20t47.5 21t17.5 56v312q0 5 3.5 8.5zM296 584q0 -8 -10 -8h-80q-9 0 -14 7l-74 102q-3 5 -3 7q0 8 11 8h96q10 0 15 -8l57 -102q2 -4 2 -6z" />
    <glyph glyph-name="uacute" unicode="&#xfa;" horiz-adv-x="497" 
d="M313.5 510.5q3.5 3.5 8.5 3.5h117q5 0 8.5 -3.5t3.5 -8.5v-490q0 -5 -3.5 -8.5t-8.5 -3.5h-117q-5 0 -8.5 3.5t-3.5 8.5v25q0 3 -2 3.5t-4 -1.5q-34 -46 -107 -46q-68 0 -112 41t-44 121v347q0 5 3.5 8.5t8.5 3.5h117q5 0 8.5 -3.5t3.5 -8.5v-314q0 -35 16.5 -55
t46.5 -20t47.5 21t17.5 56v312q0 5 3.5 8.5zM182 580q-2 4 1 10l57 102q5 8 15 8h96q8 0 10 -4.5t-2 -10.5l-74 -102q-5 -7 -14 -7h-80q-7 0 -9 4z" />
    <glyph glyph-name="ucircumflex" unicode="&#xfb;" horiz-adv-x="497" 
d="M313.5 510.5q3.5 3.5 8.5 3.5h117q5 0 8.5 -3.5t3.5 -8.5v-490q0 -5 -3.5 -8.5t-8.5 -3.5h-117q-5 0 -8.5 3.5t-3.5 8.5v25q0 3 -2 3.5t-4 -1.5q-34 -46 -107 -46q-68 0 -112 41t-44 121v347q0 5 3.5 8.5t8.5 3.5h117q5 0 8.5 -3.5t3.5 -8.5v-314q0 -35 16.5 -55
t46.5 -20t47.5 21t17.5 56v312q0 5 3.5 8.5zM94.5 577.5q-2.5 4.5 1.5 10.5l69 104q5 8 14 8h131q9 0 14 -8l70 -104q2 -4 2 -7q0 -8 -10 -8h-87q-11 0 -15 8l-35 59q-3 6 -6 0l-35 -59q-4 -8 -15 -8h-89q-7 0 -9.5 4.5z" />
    <glyph glyph-name="udieresis" unicode="&#xfc;" horiz-adv-x="497" 
d="M313.5 510.5q3.5 3.5 8.5 3.5h117q5 0 8.5 -3.5t3.5 -8.5v-490q0 -5 -3.5 -8.5t-8.5 -3.5h-117q-5 0 -8.5 3.5t-3.5 8.5v25q0 3 -2 3.5t-4 -1.5q-34 -46 -107 -46q-68 0 -112 41t-44 121v347q0 5 3.5 8.5t8.5 3.5h117q5 0 8.5 -3.5t3.5 -8.5v-314q0 -35 16.5 -55
t46.5 -20t47.5 21t17.5 56v312q0 5 3.5 8.5zM285.5 597.5q-22.5 22.5 -22.5 56.5q0 35 22 57t57 22t57 -22t22 -57q0 -34 -22.5 -56.5t-56.5 -22.5t-56.5 22.5zM93.5 597.5q-22.5 22.5 -22.5 56.5q0 35 22 57t57 22t57 -22t22 -57q0 -34 -22.5 -56.5t-56.5 -22.5t-56.5 22.5
z" />
    <glyph glyph-name="yacute" unicode="&#xfd;" horiz-adv-x="463" 
d="M39 -195.5q-2 3.5 -2 8.5v92q0 12 11 12q57 1 81.5 16.5t31.5 63.5l-1 6l-144 498l-1 4q0 10 11 10h126q11 0 13 -11l65 -311q1 -4 3 -4t3 4l65 311q2 11 13 11l124 -1q6 0 8.5 -3.5t1.5 -9.5l-153 -520q-22 -73 -46.5 -109.5t-69.5 -53.5t-129 -17h-6q-3 0 -5 3.5z
M167 585q-2 4 1 10l57 102q5 8 15 8h96q8 0 10 -4.5t-2 -10.5l-74 -102q-5 -7 -14 -7h-80q-7 0 -9 4z" />
    <glyph glyph-name="thorn" unicode="&#xfe;" horiz-adv-x="496" 
d="M462 258q0 -74 -6 -107q-11 -74 -53.5 -116.5t-109.5 -42.5q-66 0 -103 49q-2 3 -4 2.5t-2 -3.5v-228q0 -5 -3.5 -8.5t-8.5 -3.5h-117q-5 0 -8.5 3.5t-3.5 8.5v876q0 5 3.5 8.5t8.5 3.5h117q5 0 8.5 -3.5t3.5 -8.5v-210q0 -3 2 -3.5t4 1.5q35 46 100 46q69 0 111 -40.5
t52 -111.5q9 -31 9 -112zM318 257q0 50 -6 86q-5 26 -22 42t-43 16q-25 0 -42 -16t-21 -41v-172q4 -26 20.5 -42.5t42.5 -16.5t43 16t22 42q6 36 6 86z" />
    <glyph glyph-name="ydieresis" unicode="&#xff;" horiz-adv-x="463" 
d="M39 -195.5q-2 3.5 -2 8.5v92q0 12 11 12q57 1 81.5 16.5t31.5 63.5l-1 6l-144 498l-1 4q0 10 11 10h126q11 0 13 -11l65 -311q1 -4 3 -4t3 4l65 311q2 11 13 11l124 -1q6 0 8.5 -3.5t1.5 -9.5l-153 -520q-22 -73 -46.5 -109.5t-69.5 -53.5t-129 -17h-6q-3 0 -5 3.5z
M270.5 602.5q-22.5 22.5 -22.5 56.5q0 35 22 57t57 22t57 -22t22 -57q0 -34 -22.5 -56.5t-56.5 -22.5t-56.5 22.5zM78.5 602.5q-22.5 22.5 -22.5 56.5q0 35 22 57t57 22t57 -22t22 -57q0 -34 -22.5 -56.5t-56.5 -22.5t-56.5 22.5z" />
    <glyph glyph-name="Amacron" unicode="&#x100;" horiz-adv-x="577" 
d="M409 10l-23 98q-1 4 -5 4h-187q-4 0 -5 -4l-23 -98q-3 -10 -13 -10h-121q-13 0 -10 13l180 677q3 10 14 10h145q11 0 14 -10l180 -677l1 -4q0 -9 -11 -9h-122q-11 0 -14 10zM217 222.5q2 -1.5 4 -1.5h132q2 0 4 1.5t1 4.5l-69 290q-1 4 -3 4t-3 -4l-67 -290q-1 -3 1 -4.5
zM161.5 769.5q-3.5 3.5 -3.5 8.5v71q0 5 3.5 8.5t8.5 3.5h233q5 0 8.5 -3.5t3.5 -8.5v-71q0 -5 -3.5 -8.5t-8.5 -3.5h-233q-5 0 -8.5 3.5z" />
    <glyph glyph-name="amacron" unicode="&#x101;" horiz-adv-x="486" 
d="M348 500.5q47 -21.5 73.5 -60t26.5 -87.5v-341q0 -5 -3.5 -8.5t-8.5 -3.5h-117q-5 0 -8.5 3.5t-3.5 8.5v28q0 3 -2 4t-4 -2q-38 -50 -118 -50q-68 0 -113.5 35t-45.5 117q0 163 204 163h74q5 0 5 5v23q0 30 -17.5 48t-47.5 18q-24 0 -40 -11t-20 -30q-3 -10 -14 -10
l-121 7q-5 0 -8.5 3t-2.5 8q6 69 62.5 111.5t142.5 42.5q60 0 107 -21.5zM283 118q24 19 24 50v42q0 5 -5 5h-56q-37 0 -58 -16t-21 -46q0 -26 16 -40t42 -14q34 0 58 19zM117.5 583.5q-3.5 3.5 -3.5 8.5v71q0 5 3.5 8.5t8.5 3.5h233q5 0 8.5 -3.5t3.5 -8.5v-71
q0 -5 -3.5 -8.5t-8.5 -3.5h-233q-5 0 -8.5 3.5z" />
    <glyph glyph-name="Abreve" unicode="&#x102;" horiz-adv-x="577" 
d="M409 10l-23 98q-1 4 -5 4h-187q-4 0 -5 -4l-23 -98q-3 -10 -13 -10h-121q-13 0 -10 13l180 677q3 10 14 10h145q11 0 14 -10l180 -677l1 -4q0 -9 -11 -9h-122q-11 0 -14 10zM217 222.5q2 -1.5 4 -1.5h132q2 0 4 1.5t1 4.5l-69 290q-1 4 -3 4t-3 -4l-67 -290q-1 -3 1 -4.5
zM191.5 770q-38.5 31 -42.5 81v2q0 10 11 10h59q10 0 12 -11q4 -20 19.5 -33t37.5 -13t37 13t19 33q2 11 12 11h59q12 0 12 -11q-5 -50 -43 -81.5t-96 -31.5t-96.5 31z" />
    <glyph glyph-name="abreve" unicode="&#x103;" horiz-adv-x="486" 
d="M348 500.5q47 -21.5 73.5 -60t26.5 -87.5v-341q0 -5 -3.5 -8.5t-8.5 -3.5h-117q-5 0 -8.5 3.5t-3.5 8.5v28q0 3 -2 4t-4 -2q-38 -50 -118 -50q-68 0 -113.5 35t-45.5 117q0 163 204 163h74q5 0 5 5v23q0 30 -17.5 48t-47.5 18q-24 0 -40 -11t-20 -30q-3 -10 -14 -10
l-121 7q-5 0 -8.5 3t-2.5 8q6 69 62.5 111.5t142.5 42.5q60 0 107 -21.5zM283 118q24 19 24 50v42q0 5 -5 5h-56q-37 0 -58 -16t-21 -46q0 -26 16 -40t42 -14q34 0 58 19zM147.5 585q-38.5 31 -42.5 81v2q0 10 11 10h59q10 0 12 -11q4 -20 19.5 -33t37.5 -13t37 13t19 33
q2 11 12 11h59q12 0 12 -11q-5 -50 -43 -81.5t-96 -31.5t-96.5 31z" />
    <glyph glyph-name="Aogonek" unicode="&#x104;" horiz-adv-x="577" 
d="M409 10l-23 98q-1 4 -5 4h-187q-4 0 -5 -4l-23 -98q-3 -10 -13 -10h-121q-13 0 -10 13l180 677q3 10 14 10h145q11 0 14 -10l180 -677l1 -4q0 -9 -11 -9h-122q-11 0 -14 10zM217 222.5q2 -1.5 4 -1.5h132q2 0 4 1.5t1 4.5l-69 290q-1 4 -3 4t-3 -4l-67 -290q-1 -3 1 -4.5
zM564 -171q0 -9 -9 -12q-25 -9 -55 -9q-33 0 -57.5 14.5t-32.5 48.5q-3 12 -3 25q0 51 49 96l4 4t12 4h64q10 0 10 -6q0 -4 -5 -9q-42 -37 -42 -66q0 -6 1 -9q2 -12 10 -18t20 -6q4 0 12 2q2 1 6 1q8 0 9 -9l7 -48v-3z" />
    <glyph glyph-name="aogonek" unicode="&#x105;" horiz-adv-x="486" 
d="M436 -111q8 0 9 -9l7 -48v-3q0 -9 -9 -12q-25 -9 -55 -9q-33 0 -57.5 14.5t-32.5 48.5q-3 12 -3 24q0 52 51 99q2 2 1.5 4t-3.5 2h-25q-5 0 -8.5 3.5t-3.5 8.5v28q0 3 -2 4t-4 -2q-38 -50 -118 -50q-68 0 -113.5 35t-45.5 117q0 163 204 163h74q5 0 5 5v23q0 30 -17.5 48
t-47.5 18q-24 0 -40 -11t-20 -30q-3 -10 -14 -10l-121 7q-5 0 -8.5 3.5t-2.5 9.5q7 68 63.5 110t141.5 42q60 0 107 -21.5t73.5 -60t26.5 -87.5v-344q0 -9 -7 -15q-25 -19 -39.5 -38.5t-14.5 -35.5q0 -7 1 -10q3 -12 11 -18t19 -6q4 0 12 2q2 1 6 1zM283 118q24 19 24 50v42
q0 5 -5 5h-56q-37 0 -58 -16t-21 -46q0 -26 16 -40t42 -14q34 0 58 19z" />
    <glyph glyph-name="Cacute" unicode="&#x106;" horiz-adv-x="536" 
d="M150 19q-52 27 -80.5 77t-28.5 116v278q0 65 28.5 114.5t80.5 76.5t120 27t120 -26.5t80.5 -74.5t28.5 -112v-5q0 -5 -3.5 -9t-8.5 -4l-117 -5q-12 0 -12 11v13q0 41 -24 66t-64 25t-64 -25t-24 -66v-293q0 -41 24 -65.5t64 -24.5t64 24.5t24 65.5v13q0 11 12 11l117 -5
q5 0 8.5 -3.5t3.5 -8.5v-3q0 -64 -28.5 -113t-80.5 -75.5t-120 -26.5t-120 27zM205 766q-2 4 1 10l57 102q5 8 15 8h96q8 0 10 -4.5t-2 -10.5l-74 -102q-5 -7 -14 -7h-80q-7 0 -9 4z" />
    <glyph glyph-name="cacute" unicode="&#x107;" horiz-adv-x="486" 
d="M110.5 34.5q-54.5 42.5 -67.5 116.5q-8 41 -8 108q0 50 8 106q13 72 68 114.5t138 42.5q81 0 136.5 -41t68.5 -108q2 -9 4 -29q0 -11 -12 -13l-115 -11h-2q-9 0 -11 11q0 7 -1 10q-2 8 -4 14q-6 20 -23 33t-42 13q-27 0 -44 -16t-22 -44q-6 -33 -6 -83q0 -55 7 -86
q5 -27 21.5 -43t43.5 -16q29 0 46.5 16t20.5 40l2 12q1 5 4.5 8.5t8.5 2.5l116 -10q11 -2 11 -13q0 -6 -2 -20q-10 -73 -65.5 -115t-140.5 -42q-84 0 -138.5 42.5zM183 580q-2 4 1 10l57 102q5 8 15 8h96q8 0 10 -4.5t-2 -10.5l-74 -102q-5 -7 -14 -7h-80q-7 0 -9 4z" />
    <glyph glyph-name="Ccircumflex" unicode="&#x108;" horiz-adv-x="536" 
d="M150 19q-52 27 -80.5 77t-28.5 116v278q0 65 28.5 114.5t80.5 76.5t120 27t120 -26.5t80.5 -74.5t28.5 -112v-5q0 -5 -3.5 -9t-8.5 -4l-117 -5q-12 0 -12 11v13q0 41 -24 66t-64 25t-64 -25t-24 -66v-293q0 -41 24 -65.5t64 -24.5t64 24.5t24 65.5v13q0 11 12 11l117 -5
q5 0 8.5 -3.5t3.5 -8.5v-3q0 -64 -28.5 -113t-80.5 -75.5t-120 -26.5t-120 27zM118.5 763.5q-2.5 4.5 1.5 10.5l69 104q5 8 14 8h131q9 0 14 -8l70 -104q2 -4 2 -7q0 -8 -10 -8h-87q-11 0 -15 8l-35 59q-3 6 -6 0l-35 -59q-4 -8 -15 -8h-89q-7 0 -9.5 4.5z" />
    <glyph glyph-name="ccircumflex" unicode="&#x109;" horiz-adv-x="486" 
d="M110.5 34.5q-54.5 42.5 -67.5 116.5q-8 41 -8 108q0 50 8 106q13 72 68 114.5t138 42.5q81 0 136.5 -41t68.5 -108q2 -9 4 -29q0 -11 -12 -13l-115 -11h-2q-9 0 -11 11q0 7 -1 10q-2 8 -4 14q-6 20 -23 33t-42 13q-27 0 -44 -16t-22 -44q-6 -33 -6 -83q0 -55 7 -86
q5 -27 21.5 -43t43.5 -16q29 0 46.5 16t20.5 40l2 12q1 5 4.5 8.5t8.5 2.5l116 -10q11 -2 11 -13q0 -6 -2 -20q-10 -73 -65.5 -115t-140.5 -42q-84 0 -138.5 42.5zM95.5 577.5q-2.5 4.5 1.5 10.5l69 104q5 8 14 8h131q9 0 14 -8l70 -104q2 -4 2 -7q0 -8 -10 -8h-87
q-11 0 -15 8l-35 59q-3 6 -6 0l-35 -59q-4 -8 -15 -8h-89q-7 0 -9.5 4.5z" />
    <glyph glyph-name="Cdotaccent" unicode="&#x10a;" horiz-adv-x="536" 
d="M150 19q-52 27 -80.5 77t-28.5 116v278q0 65 28.5 114.5t80.5 76.5t120 27t120 -26.5t80.5 -74.5t28.5 -112v-5q0 -5 -3.5 -9t-8.5 -4l-117 -5q-12 0 -12 11v13q0 41 -24 66t-64 25t-64 -25t-24 -66v-293q0 -41 24 -65.5t64 -24.5t64 24.5t24 65.5v13q0 11 12 11l117 -5
q5 0 8.5 -3.5t3.5 -8.5v-3q0 -64 -28.5 -113t-80.5 -75.5t-120 -26.5t-120 27zM213.5 780.5q-22.5 22.5 -22.5 56.5q0 35 22 57t57 22t57 -22t22 -57q0 -34 -22.5 -56.5t-56.5 -22.5t-56.5 22.5z" />
    <glyph glyph-name="cdotaccent" unicode="&#x10b;" horiz-adv-x="486" 
d="M110.5 34.5q-54.5 42.5 -67.5 116.5q-8 41 -8 108q0 50 8 106q13 72 68 114.5t138 42.5q81 0 136.5 -41t68.5 -108q2 -9 4 -29q0 -11 -12 -13l-115 -11h-2q-9 0 -11 11q0 7 -1 10q-2 8 -4 14q-6 20 -23 33t-42 13q-27 0 -44 -16t-22 -44q-6 -33 -6 -83q0 -55 7 -86
q5 -27 21.5 -43t43.5 -16q29 0 46.5 16t20.5 40l2 12q1 5 4.5 8.5t8.5 2.5l116 -10q11 -2 11 -13q0 -6 -2 -20q-10 -73 -65.5 -115t-140.5 -42q-84 0 -138.5 42.5zM190.5 594.5q-22.5 22.5 -22.5 56.5q0 35 22 57t57 22t57 -22t22 -57q0 -34 -22.5 -56.5t-56.5 -22.5
t-56.5 22.5z" />
    <glyph glyph-name="Ccaron" unicode="&#x10c;" horiz-adv-x="536" 
d="M150 19q-52 27 -80.5 77t-28.5 116v278q0 65 28.5 114.5t80.5 76.5t120 27t120 -26.5t80.5 -74.5t28.5 -112v-5q0 -5 -3.5 -9t-8.5 -4l-117 -5q-12 0 -12 11v13q0 41 -24 66t-64 25t-64 -25t-24 -66v-293q0 -41 24 -65.5t64 -24.5t64 24.5t24 65.5v13q0 11 12 11l117 -5
q5 0 8.5 -3.5t3.5 -8.5v-3q0 -64 -28.5 -113t-80.5 -75.5t-120 -26.5t-120 27zM123 878q0 8 10 8h89q11 0 15 -8l35 -59q3 -6 6 0l35 59q4 8 15 8h88q7 0 9 -4.5t-2 -10.5l-70 -104q-5 -8 -14 -8h-131q-9 0 -14 8l-69 104q-2 4 -2 7z" />
    <glyph glyph-name="ccaron" unicode="&#x10d;" horiz-adv-x="486" 
d="M110.5 34.5q-54.5 42.5 -67.5 116.5q-8 41 -8 108q0 50 8 106q13 72 68 114.5t138 42.5q81 0 136.5 -41t68.5 -108q2 -9 4 -29q0 -11 -12 -13l-115 -11h-2q-9 0 -11 11q0 7 -1 10q-2 8 -4 14q-6 20 -23 33t-42 13q-27 0 -44 -16t-22 -44q-6 -33 -6 -83q0 -55 7 -86
q5 -27 21.5 -43t43.5 -16q29 0 46.5 16t20.5 40l2 12q1 5 4.5 8.5t8.5 2.5l116 -10q11 -2 11 -13q0 -6 -2 -20q-10 -73 -65.5 -115t-140.5 -42q-84 0 -138.5 42.5zM101 692q0 8 10 8h89q11 0 15 -8l35 -59q3 -6 6 0l35 59q4 8 15 8h88q7 0 9 -4.5t-2 -10.5l-70 -104
q-5 -8 -14 -8h-131q-9 0 -14 8l-69 104q-2 4 -2 7z" />
    <glyph glyph-name="Dcaron" unicode="&#x10e;" horiz-adv-x="547" 
d="M56.5 3.5q-3.5 3.5 -3.5 8.5v676q0 5 3.5 8.5t8.5 3.5h215q67 0 118.5 -25t79.5 -71t28 -107v-294q0 -61 -28 -107t-79.5 -71t-118.5 -25h-215q-5 0 -8.5 3.5zM199 121l82 1q37 0 60 26.5t24 70.5v262q0 45 -23 71.5t-61 26.5h-82q-5 0 -5 -5v-448q0 -5 5 -5zM119 877
q0 8 10 8h89q11 0 15 -8l35 -59q3 -6 6 0l35 59q4 8 15 8h88q7 0 9 -4.5t-2 -10.5l-70 -104q-5 -8 -14 -8h-131q-9 0 -14 8l-69 104q-2 4 -2 7z" />
    <glyph glyph-name="dcaron" unicode="&#x10f;" horiz-adv-x="505" 
d="M322.5 696.5q3.5 3.5 8.5 3.5h117q5 0 8.5 -3.5t3.5 -8.5v-676q0 -5 -3.5 -8.5t-8.5 -3.5h-117q-5 0 -8.5 3.5t-3.5 8.5v22q0 3 -2 4t-4 -2q-37 -44 -106 -44q-122 0 -157 159q-10 50 -10 111q0 54 9 105q31 155 160 155q35 0 60 -9.5t44 -32.5q2 -3 4 -2t2 4v206
q0 5 3.5 8.5zM318 258q0 53 -8 88q-13 55 -59 55q-23 0 -38 -14t-22 -40q-9 -29 -9 -89q0 -57 7 -86q13 -59 62 -59q45 0 60 58q7 29 7 87zM490 580q-2 4 1 10l57 102q5 8 15 8h96q8 0 10 -4.5t-2 -10.5l-74 -102q-5 -7 -14 -7h-80q-7 0 -9 4z" />
    <glyph glyph-name="Dcroat" unicode="&#x110;" horiz-adv-x="588" 
d="M439.5 675q51.5 -25 79.5 -71t28 -107v-294q0 -61 -28 -107t-79.5 -71t-118.5 -25h-215q-5 0 -8.5 3.5t-3.5 8.5v302q0 5 -5 5h-24q-5 0 -8.5 3.5t-3.5 8.5v65q0 5 3.5 8.5t8.5 3.5h24q5 0 5 5v275q0 5 3.5 8.5t8.5 3.5h215q67 0 118.5 -25zM406 481q0 45 -23 71.5
t-61 26.5h-82q-5 0 -5 -5v-161q0 -5 5 -5h58q5 0 8.5 -3.5t3.5 -8.5v-65q0 -5 -3.5 -8.5t-8.5 -3.5h-58q-5 0 -5 -5v-188q0 -5 5 -5l82 1q37 0 60 26.5t24 70.5v262z" />
    <glyph glyph-name="dcroat" unicode="&#x111;" horiz-adv-x="505" 
d="M501.5 637.5q3.5 -3.5 3.5 -8.5v-60q0 -5 -3.5 -8.5t-8.5 -3.5h-28q-5 0 -5 -5v-540q0 -5 -3.5 -8.5t-8.5 -3.5h-117q-5 0 -8.5 3.5t-3.5 8.5v22q0 3 -2 4t-4 -2q-37 -44 -106 -44q-122 0 -157 159q-10 50 -10 111q0 54 9 105q31 155 160 155q35 0 60 -9.5t44 -32.5
q2 -3 4 -2t2 4v70q0 5 -5 5h-117q-5 0 -8.5 3.5t-3.5 8.5v60q0 5 3.5 8.5t8.5 3.5h117q5 0 5 5v42q0 5 3.5 8.5t8.5 3.5h117q5 0 8.5 -3.5t3.5 -8.5v-42q0 -5 5 -5h28q5 0 8.5 -3.5zM318 258q0 53 -8 88q-13 55 -59 55q-23 0 -38 -14t-22 -40q-9 -29 -9 -89q0 -57 7 -86
q13 -59 62 -59q45 0 60 58q7 29 7 87z" />
    <glyph glyph-name="Emacron" unicode="&#x112;" horiz-adv-x="511" 
d="M475.5 582.5q-3.5 -3.5 -8.5 -3.5h-268q-5 0 -5 -5v-156q0 -5 5 -5h167q5 0 8.5 -3.5t3.5 -8.5v-97q0 -5 -3.5 -8.5t-8.5 -3.5h-167q-5 0 -5 -5v-161q0 -5 5 -5h268q5 0 8.5 -3.5t3.5 -8.5v-97q0 -5 -3.5 -8.5t-8.5 -3.5h-402q-5 0 -8.5 3.5t-3.5 8.5v676q0 5 3.5 8.5
t8.5 3.5h402q5 0 8.5 -3.5t3.5 -8.5v-97q0 -5 -3.5 -8.5zM138.5 769.5q-3.5 3.5 -3.5 8.5v71q0 5 3.5 8.5t8.5 3.5h233q5 0 8.5 -3.5t3.5 -8.5v-71q0 -5 -3.5 -8.5t-8.5 -3.5h-233q-5 0 -8.5 3.5z" />
    <glyph glyph-name="emacron" unicode="&#x113;" horiz-adv-x="490" 
d="M461 262l-1 -39q0 -12 -12 -12h-265q-5 0 -5 -5q2 -23 4 -34q5 -28 24.5 -44t48.5 -16q49 1 68 45q5 10 15 8l106 -21q12 -3 8 -15q-22 -66 -72.5 -101.5t-124.5 -35.5q-89 0 -141.5 40.5t-68.5 116.5q-9 41 -9 125q0 48 6 81q11 76 66 121.5t139 45.5q91 0 148 -51.5
t63 -135.5q3 -33 3 -73zM203.5 385q-17.5 -16 -22.5 -44q-3 -18 -3 -38q0 -5 5 -5h130q5 0 5 5q0 20 -3 38q-4 27 -22 43.5t-45 16.5t-44.5 -16zM118.5 596.5q-3.5 3.5 -3.5 8.5v72q0 5 3.5 8.5t8.5 3.5h233q5 0 8.5 -3.5t3.5 -8.5v-72q0 -5 -3.5 -8.5t-8.5 -3.5h-233
q-5 0 -8.5 3.5z" />
    <glyph glyph-name="Edotaccent" unicode="&#x116;" horiz-adv-x="511" 
d="M475.5 582.5q-3.5 -3.5 -8.5 -3.5h-268q-5 0 -5 -5v-156q0 -5 5 -5h167q5 0 8.5 -3.5t3.5 -8.5v-97q0 -5 -3.5 -8.5t-8.5 -3.5h-167q-5 0 -5 -5v-161q0 -5 5 -5h268q5 0 8.5 -3.5t3.5 -8.5v-97q0 -5 -3.5 -8.5t-8.5 -3.5h-402q-5 0 -8.5 3.5t-3.5 8.5v676q0 5 3.5 8.5
t8.5 3.5h402q5 0 8.5 -3.5t3.5 -8.5v-97q0 -5 -3.5 -8.5zM208.5 780.5q-22.5 22.5 -22.5 56.5q0 35 22 57t57 22t57 -22t22 -57q0 -34 -22.5 -56.5t-56.5 -22.5t-56.5 22.5z" />
    <glyph glyph-name="edotaccent" unicode="&#x117;" horiz-adv-x="490" 
d="M461 262l-1 -39q0 -12 -12 -12h-265q-5 0 -5 -5q2 -23 4 -34q5 -28 24.5 -44t48.5 -16q49 1 68 45q5 10 15 8l106 -21q12 -3 8 -15q-22 -66 -72.5 -101.5t-124.5 -35.5q-89 0 -141.5 40.5t-68.5 116.5q-9 41 -9 125q0 48 6 81q11 76 66 121.5t139 45.5q91 0 148 -51.5
t63 -135.5q3 -33 3 -73zM203.5 385q-17.5 -16 -22.5 -44q-3 -18 -3 -38q0 -5 5 -5h130q5 0 5 5q0 20 -3 38q-4 27 -22 43.5t-45 16.5t-44.5 -16zM188.5 594.5q-22.5 22.5 -22.5 56.5q0 35 22 57t57 22t57 -22t22 -57q0 -34 -22.5 -56.5t-56.5 -22.5t-56.5 22.5z" />
    <glyph glyph-name="Eogonek" unicode="&#x118;" horiz-adv-x="511" 
d="M475.5 582.5q-3.5 -3.5 -8.5 -3.5h-268q-5 0 -5 -5v-156q0 -5 5 -5h167q5 0 8.5 -3.5t3.5 -8.5v-97q0 -5 -3.5 -8.5t-8.5 -3.5h-167q-5 0 -5 -5v-161q0 -5 5 -5h268q5 0 8.5 -3.5t3.5 -8.5v-97q0 -5 -3.5 -8.5t-8.5 -3.5h-152q-3 0 -7 -2q-44 -39 -44 -69q0 -16 8.5 -24
t22.5 -8q4 0 12 2q2 1 6 1q8 0 9 -9l7 -48v-3q0 -8 -9 -12q-28 -8 -54 -8q-33 0 -58 14t-33 48q-3 12 -3 25q0 46 40 87q2 2 1 4t-4 2h-144q-5 0 -8.5 3.5t-3.5 8.5v676q0 5 3.5 8.5t8.5 3.5h402q5 0 8.5 -3.5t3.5 -8.5v-97q0 -5 -3.5 -8.5z" />
    <glyph glyph-name="eogonek" unicode="&#x119;" horiz-adv-x="490" 
d="M461 262l-1 -39q0 -12 -12 -12h-265q-5 0 -5 -5q2 -23 4 -34q5 -28 24.5 -44t48.5 -16q49 1 68 45q5 10 15 8l106 -21q12 -3 8 -15q-19 -56 -57.5 -90t-94.5 -43l-6 -3q-43 -37 -43 -67q0 -16 9 -25t22 -9q4 0 12 2q2 1 6 1q8 0 9 -9l7 -48v-3q0 -8 -9 -12q-28 -8 -54 -8
q-76 0 -91 63q-3 12 -3 24q0 47 41 89q4 4 -2 6q-125 23 -153 152q-9 41 -9 125q0 48 6 81q11 76 66 121.5t139 45.5q91 0 148 -51.5t63 -135.5q3 -33 3 -73zM203.5 385q-17.5 -16 -22.5 -44q-3 -18 -3 -38q0 -5 5 -5h130q5 0 5 5q0 20 -3 38q-4 27 -22 43.5t-45 16.5
t-44.5 -16z" />
    <glyph glyph-name="Ecaron" unicode="&#x11a;" horiz-adv-x="511" 
d="M475.5 582.5q-3.5 -3.5 -8.5 -3.5h-268q-5 0 -5 -5v-156q0 -5 5 -5h167q5 0 8.5 -3.5t3.5 -8.5v-97q0 -5 -3.5 -8.5t-8.5 -3.5h-167q-5 0 -5 -5v-161q0 -5 5 -5h268q5 0 8.5 -3.5t3.5 -8.5v-97q0 -5 -3.5 -8.5t-8.5 -3.5h-402q-5 0 -8.5 3.5t-3.5 8.5v676q0 5 3.5 8.5
t8.5 3.5h402q5 0 8.5 -3.5t3.5 -8.5v-97q0 -5 -3.5 -8.5zM118 878q0 8 10 8h89q11 0 15 -8l35 -59q3 -6 6 0l35 59q4 8 15 8h88q7 0 9 -4.5t-2 -10.5l-70 -104q-5 -8 -14 -8h-131q-9 0 -14 8l-69 104q-2 4 -2 7z" />
    <glyph glyph-name="ecaron" unicode="&#x11b;" horiz-adv-x="490" 
d="M461 262l-1 -39q0 -12 -12 -12h-265q-5 0 -5 -5q2 -23 4 -34q5 -28 24.5 -44t48.5 -16q49 1 68 45q5 10 15 8l106 -21q12 -3 8 -15q-22 -66 -72.5 -101.5t-124.5 -35.5q-89 0 -141.5 40.5t-68.5 116.5q-9 41 -9 125q0 48 6 81q11 76 66 121.5t139 45.5q91 0 148 -51.5
t63 -135.5q3 -33 3 -73zM203.5 385q-17.5 -16 -22.5 -44q-3 -18 -3 -38q0 -5 5 -5h130q5 0 5 5q0 20 -3 38q-4 27 -22 43.5t-45 16.5t-44.5 -16zM98 691q0 8 10 8h89q11 0 15 -8l35 -59q3 -6 6 0l35 59q4 8 15 8h88q7 0 9 -4.5t-2 -10.5l-70 -104q-5 -8 -14 -8h-131
q-9 0 -14 8l-69 104q-2 4 -2 7z" />
    <glyph glyph-name="Gcircumflex" unicode="&#x11c;" horiz-adv-x="539" 
d="M150 19q-52 27 -80.5 76.5t-28.5 114.5v281q0 65 28.5 114t80.5 76t120 27q67 0 119.5 -26.5t81 -74t28.5 -107.5v-22q0 -5 -3.5 -8.5t-8.5 -3.5h-117q-5 0 -8.5 3.5t-3.5 8.5v21q0 38 -24 63t-64 25t-64.5 -26t-24.5 -68v-286q0 -42 25.5 -68t66.5 -26q39 0 62.5 23
t23.5 63v62q0 5 -5 5h-78q-5 0 -8.5 3.5t-3.5 8.5v91q0 5 3.5 8.5t8.5 3.5h211q5 0 8.5 -3.5t3.5 -8.5v-159q0 -100 -62.5 -159t-166.5 -59q-68 0 -120 27zM118.5 766.5q-2.5 4.5 1.5 10.5l69 104q5 8 14 8h131q9 0 14 -8l70 -104q2 -4 2 -7q0 -8 -10 -8h-87q-11 0 -15 8
l-35 59q-3 6 -6 0l-35 -59q-4 -8 -15 -8h-89q-7 0 -9.5 4.5z" />
    <glyph glyph-name="gcircumflex" unicode="&#x11d;" horiz-adv-x="498" 
d="M319.5 510.5q3.5 3.5 8.5 3.5h117q5 0 8.5 -3.5t3.5 -8.5v-467q0 -120 -66.5 -178.5t-190.5 -58.5q-27 0 -57 3q-12 1 -12 13l3 101q0 11 13 11q15 -2 42 -2q67 0 97 28.5t30 90.5v0q0 3 -2 4t-4 -2q-37 -43 -102 -43t-110 38t-57 113q-7 26 -7 106t9 112q11 71 53 111
t109 40q66 0 105 -45q2 -3 4 -2t2 4v23q0 5 3.5 8.5zM316 259q0 51 -4 83q-5 27 -22 43t-43 16q-25 0 -42.5 -16.5t-22.5 -42.5q-6 -36 -6 -83q0 -44 5 -81q5 -27 22.5 -43t44.5 -16q26 0 43 16t21 42q4 32 4 82zM104.5 577.5q-2.5 4.5 1.5 10.5l69 104q5 8 14 8h131
q9 0 14 -8l70 -104q2 -4 2 -7q0 -8 -10 -8h-87q-11 0 -15 8l-35 59q-3 6 -6 0l-35 -59q-4 -8 -15 -8h-89q-7 0 -9.5 4.5z" />
    <glyph glyph-name="Gbreve" unicode="&#x11e;" horiz-adv-x="539" 
d="M150 19q-52 27 -80.5 76.5t-28.5 114.5v281q0 65 28.5 114t80.5 76t120 27q67 0 119.5 -26.5t81 -74t28.5 -107.5v-22q0 -5 -3.5 -8.5t-8.5 -3.5h-117q-5 0 -8.5 3.5t-3.5 8.5v21q0 38 -24 63t-64 25t-64.5 -26t-24.5 -68v-286q0 -42 25.5 -68t66.5 -26q39 0 62.5 23
t23.5 63v62q0 5 -5 5h-78q-5 0 -8.5 3.5t-3.5 8.5v91q0 5 3.5 8.5t8.5 3.5h211q5 0 8.5 -3.5t3.5 -8.5v-159q0 -100 -62.5 -159t-166.5 -59q-68 0 -120 27zM173.5 773q-38.5 31 -42.5 81v2q0 10 11 10h59q10 0 12 -11q4 -20 19.5 -33t37.5 -13t37 13t19 33q2 11 12 11h59
q12 0 12 -11q-5 -50 -43 -81.5t-96 -31.5t-96.5 31z" />
    <glyph glyph-name="gbreve" unicode="&#x11f;" horiz-adv-x="498" 
d="M319.5 510.5q3.5 3.5 8.5 3.5h117q5 0 8.5 -3.5t3.5 -8.5v-467q0 -120 -66.5 -178.5t-190.5 -58.5q-27 0 -57 3q-12 1 -12 13l3 101q0 11 13 11q15 -2 42 -2q67 0 97 28.5t30 90.5v0q0 3 -2 4t-4 -2q-37 -43 -102 -43t-110 38t-57 113q-7 26 -7 106t9 112q11 71 53 111
t109 40q66 0 105 -45q2 -3 4 -2t2 4v23q0 5 3.5 8.5zM316 259q0 51 -4 83q-5 27 -22 43t-43 16q-25 0 -42.5 -16.5t-22.5 -42.5q-6 -36 -6 -83q0 -44 5 -81q5 -27 22.5 -43t44.5 -16q26 0 43 16t21 42q4 32 4 82zM159.5 585q-38.5 31 -42.5 81v2q0 10 11 10h59q10 0 12 -11
q4 -20 19.5 -33t37.5 -13t37 13t19 33q2 11 12 11h59q12 0 12 -11q-5 -50 -43 -81.5t-96 -31.5t-96.5 31z" />
    <glyph glyph-name="Gdotaccent" unicode="&#x120;" horiz-adv-x="539" 
d="M150 19q-52 27 -80.5 76.5t-28.5 114.5v281q0 65 28.5 114t80.5 76t120 27q67 0 119.5 -26.5t81 -74t28.5 -107.5v-22q0 -5 -3.5 -8.5t-8.5 -3.5h-117q-5 0 -8.5 3.5t-3.5 8.5v21q0 38 -24 63t-64 25t-64.5 -26t-24.5 -68v-286q0 -42 25.5 -68t66.5 -26q39 0 62.5 23
t23.5 63v62q0 5 -5 5h-78q-5 0 -8.5 3.5t-3.5 8.5v91q0 5 3.5 8.5t8.5 3.5h211q5 0 8.5 -3.5t3.5 -8.5v-159q0 -100 -62.5 -159t-166.5 -59q-68 0 -120 27zM213.5 783.5q-22.5 22.5 -22.5 56.5q0 35 22 57t57 22t57 -22t22 -57q0 -34 -22.5 -56.5t-56.5 -22.5t-56.5 22.5z
" />
    <glyph glyph-name="gdotaccent" unicode="&#x121;" horiz-adv-x="498" 
d="M319.5 510.5q3.5 3.5 8.5 3.5h117q5 0 8.5 -3.5t3.5 -8.5v-467q0 -120 -66.5 -178.5t-190.5 -58.5q-27 0 -57 3q-12 1 -12 13l3 101q0 11 13 11q15 -2 42 -2q67 0 97 28.5t30 90.5v0q0 3 -2 4t-4 -2q-37 -43 -102 -43t-110 38t-57 113q-7 26 -7 106t9 112q11 71 53 111
t109 40q66 0 105 -45q2 -3 4 -2t2 4v23q0 5 3.5 8.5zM316 259q0 51 -4 83q-5 27 -22 43t-43 16q-25 0 -42.5 -16.5t-22.5 -42.5q-6 -36 -6 -83q0 -44 5 -81q5 -27 22.5 -43t44.5 -16q26 0 43 16t21 42q4 32 4 82zM199.5 594.5q-22.5 22.5 -22.5 56.5q0 35 22 57t57 22
t57 -22t22 -57q0 -34 -22.5 -56.5t-56.5 -22.5t-56.5 22.5z" />
    <glyph glyph-name="uni0122" unicode="&#x122;" horiz-adv-x="539" 
d="M150 19q-52 27 -80.5 76.5t-28.5 114.5v281q0 65 28.5 114t80.5 76t120 27q67 0 119.5 -26.5t81 -74t28.5 -107.5v-22q0 -5 -3.5 -8.5t-8.5 -3.5h-117q-5 0 -8.5 3.5t-3.5 8.5v21q0 38 -24 63t-64 25t-64.5 -26t-24.5 -68v-286q0 -42 25.5 -68t66.5 -26q39 0 62.5 23
t23.5 63v62q0 5 -5 5h-78q-5 0 -8.5 3.5t-3.5 8.5v91q0 5 3.5 8.5t8.5 3.5h211q5 0 8.5 -3.5t3.5 -8.5v-159q0 -100 -62.5 -159t-166.5 -59q-68 0 -120 27zM170 -178q-2 4 1 10l57 102q5 8 15 8h96q8 0 10 -4.5t-2 -10.5l-74 -102q-5 -7 -14 -7h-80q-7 0 -9 4z" />
    <glyph glyph-name="uni0123" unicode="&#x123;" horiz-adv-x="498" 
d="M354 684q2 -4 -1 -10l-56 -102q-5 -8 -15 -8h-97q-10 0 -10 7q0 4 3 8l74 102q5 7 14 7h79q7 0 9 -4zM319.5 510.5q3.5 3.5 8.5 3.5h117q5 0 8.5 -3.5t3.5 -8.5v-467q0 -120 -66.5 -178.5t-190.5 -58.5q-27 0 -57 3q-12 1 -12 13l3 101q0 11 13 11q15 -2 42 -2
q67 0 97 28.5t30 90.5v0q0 3 -2 4t-4 -2q-37 -43 -102 -43t-110 38t-57 113q-7 26 -7 106t9 112q11 71 53 111t109 40q66 0 105 -45q2 -3 4 -2t2 4v23q0 5 3.5 8.5zM316 259q0 51 -4 83q-5 27 -22 43t-43 16q-25 0 -42.5 -16.5t-22.5 -42.5q-6 -36 -6 -83q0 -44 5 -81
q5 -27 22.5 -43t44.5 -16q26 0 43 16t21 42q4 32 4 82z" />
    <glyph glyph-name="Hcircumflex" unicode="&#x124;" horiz-adv-x="554" 
d="M367.5 696.5q3.5 3.5 8.5 3.5h117q5 0 8.5 -3.5t3.5 -8.5v-676q0 -5 -3.5 -8.5t-8.5 -3.5h-117q-5 0 -8.5 3.5t-3.5 8.5v274q0 5 -5 5h-160q-5 0 -5 -5v-274q0 -5 -3.5 -8.5t-8.5 -3.5h-117q-5 0 -8.5 3.5t-3.5 8.5v676q0 5 3.5 8.5t8.5 3.5h117q5 0 8.5 -3.5t3.5 -8.5
v-270q0 -5 5 -5h160q5 0 5 5v270q0 5 3.5 8.5zM127.5 764.5q-2.5 4.5 1.5 10.5l69 104q5 8 14 8h131q9 0 14 -8l70 -104q2 -4 2 -7q0 -8 -10 -8h-87q-11 0 -15 8l-35 59q-3 6 -6 0l-35 -59q-4 -8 -15 -8h-89q-7 0 -9.5 4.5z" />
    <glyph glyph-name="hcircumflex" unicode="&#x125;" horiz-adv-x="497" 
d="M413.5 475.5q41.5 -46.5 41.5 -129.5v-334q0 -5 -3.5 -8.5t-8.5 -3.5h-117q-5 0 -8.5 3.5t-3.5 8.5v314q0 35 -17 55t-46 20q-30 0 -47.5 -20.5t-17.5 -55.5v-313q0 -5 -3.5 -8.5t-8.5 -3.5h-117q-5 0 -8.5 3.5t-3.5 8.5v676q0 5 3.5 8.5t8.5 3.5h117q5 0 8.5 -3.5
t3.5 -8.5v-214q0 -3 2 -3.5t5 3.5q36 48 106 48q73 0 114.5 -46.5zM105.5 755.5q-2.5 4.5 1.5 10.5l69 104q5 8 14 8h131q9 0 14 -8l70 -104q2 -4 2 -7q0 -8 -10 -8h-87q-11 0 -15 8l-35 59q-3 6 -6 0l-35 -59q-4 -8 -15 -8h-89q-7 0 -9.5 4.5z" />
    <glyph glyph-name="Hbar" unicode="&#x126;" horiz-adv-x="554" 
d="M554.5 599.5q3.5 -3.5 3.5 -8.5v-72q0 -5 -3.5 -8.5t-8.5 -3.5h-36q-5 0 -5 -5v-490q0 -5 -3.5 -8.5t-8.5 -3.5h-117q-5 0 -8.5 3.5t-3.5 8.5v274q0 5 -5 5h-160q-5 0 -5 -5v-274q0 -5 -3.5 -8.5t-8.5 -3.5h-117q-5 0 -8.5 3.5t-3.5 8.5v490q0 5 -5 5h-36q-5 0 -8.5 3.5
t-3.5 8.5v72q0 5 3.5 8.5t8.5 3.5h36q5 0 5 5v80q0 5 3.5 8.5t8.5 3.5h117q5 0 8.5 -3.5t3.5 -8.5v-80q0 -5 5 -5h160q5 0 5 5v80q0 5 3.5 8.5t8.5 3.5h117q5 0 8.5 -3.5t3.5 -8.5v-80q0 -5 5 -5h36q5 0 8.5 -3.5zM364 418v84q0 5 -5 5h-160q-5 0 -5 -5v-84q0 -5 5 -5h160
q5 0 5 5z" />
    <glyph glyph-name="hbar" unicode="&#x127;" horiz-adv-x="497" 
d="M413.5 475.5q41.5 -46.5 41.5 -129.5v-334q0 -5 -3.5 -8.5t-8.5 -3.5h-117q-5 0 -8.5 3.5t-3.5 8.5v314q0 35 -17 55t-46 20q-30 0 -47.5 -20.5t-17.5 -55.5v-313q0 -5 -3.5 -8.5t-8.5 -3.5h-117q-5 0 -8.5 3.5t-3.5 8.5v532q0 5 -5 5h-38q-5 0 -8.5 3.5t-3.5 8.5v61
q0 5 3.5 8.5t8.5 3.5h38q5 0 5 5v49q0 5 3.5 8.5t8.5 3.5h117q5 0 8.5 -3.5t3.5 -8.5v-49q0 -5 5 -5h107q5 0 8.5 -3.5t3.5 -8.5v-61q0 -5 -3.5 -8.5t-8.5 -3.5h-107q-5 0 -5 -5v-70q0 -3 2 -3.5t5 3.5q36 48 106 48q73 0 114.5 -46.5z" />
    <glyph glyph-name="Itilde" unicode="&#x128;" horiz-adv-x="246" 
d="M56.5 3.5q-3.5 3.5 -3.5 8.5v676q0 5 3.5 8.5t8.5 3.5h117q5 0 8.5 -3.5t3.5 -8.5v-676q0 -5 -3.5 -8.5t-8.5 -3.5h-117q-5 0 -8.5 3.5zM158.5 770.5q-12.5 4.5 -31.5 13.5q-5 3 -15 8t-17 7t-14 2q-26 0 -44 -22q-6 -6 -10 -6q-3 0 -7 4l-41 36q-8 8 -4 17
q15 31 40.5 48t56.5 17q18 0 33 -5.5t36 -16.5q4 -2 13 -7.5t16.5 -8t15.5 -2.5q28 0 42 21q5 7 10 7q3 0 7 -4l39 -35q8 -8 3 -18q-15 -30 -41.5 -45t-57.5 -15q-17 0 -29.5 4.5z" />
    <glyph glyph-name="itilde" unicode="&#x129;" horiz-adv-x="213" 
d="M39.5 3.5q-3.5 3.5 -3.5 8.5v490q0 5 3.5 8.5t8.5 3.5h117q5 0 8.5 -3.5t3.5 -8.5v-490q0 -5 -3.5 -8.5t-8.5 -3.5h-117q-5 0 -8.5 3.5zM142.5 584.5q-12.5 4.5 -31.5 13.5q-5 3 -15 8t-17 7t-14 2q-26 0 -44 -22q-6 -6 -10 -6q-3 0 -7 4l-41 36q-8 8 -4 17
q15 31 40.5 48t56.5 17q18 0 33 -5.5t36 -16.5q4 -2 13 -7.5t16.5 -8t15.5 -2.5q28 0 42 21q5 7 10 7q3 0 7 -4l39 -35q8 -8 3 -18q-15 -30 -41.5 -45t-57.5 -15q-17 0 -29.5 4.5z" />
    <glyph glyph-name="Imacron" unicode="&#x12a;" horiz-adv-x="246" 
d="M56.5 3.5q-3.5 3.5 -3.5 8.5v676q0 5 3.5 8.5t8.5 3.5h117q5 0 8.5 -3.5t3.5 -8.5v-676q0 -5 -3.5 -8.5t-8.5 -3.5h-117q-5 0 -8.5 3.5zM-3.5 769.5q-3.5 3.5 -3.5 8.5v71q0 5 3.5 8.5t8.5 3.5h233q5 0 8.5 -3.5t3.5 -8.5v-71q0 -5 -3.5 -8.5t-8.5 -3.5h-233
q-5 0 -8.5 3.5z" />
    <glyph glyph-name="imacron" unicode="&#x12b;" horiz-adv-x="213" 
d="M39.5 3.5q-3.5 3.5 -3.5 8.5v490q0 5 3.5 8.5t8.5 3.5h117q5 0 8.5 -3.5t3.5 -8.5v-490q0 -5 -3.5 -8.5t-8.5 -3.5h-117q-5 0 -8.5 3.5zM-19.5 583.5q-3.5 3.5 -3.5 8.5v71q0 5 3.5 8.5t8.5 3.5h233q5 0 8.5 -3.5t3.5 -8.5v-71q0 -5 -3.5 -8.5t-8.5 -3.5h-233
q-5 0 -8.5 3.5z" />
    <glyph glyph-name="ibreve" unicode="&#x12d;" horiz-adv-x="213" 
d="M39.5 3.5q-3.5 3.5 -3.5 8.5v490q0 5 3.5 8.5t8.5 3.5h117q5 0 8.5 -3.5t3.5 -8.5v-490q0 -5 -3.5 -8.5t-8.5 -3.5h-117q-5 0 -8.5 3.5zM11 596q-38 30 -43 79v2q0 10 11 10h56q10 0 12 -11q4 -20 20.5 -33t39.5 -13t39.5 13t20.5 33q2 11 12 11h55q13 0 11 -11
q-4 -49 -42 -79.5t-96 -30.5t-96 30z" />
    <glyph glyph-name="Iogonek" unicode="&#x12e;" horiz-adv-x="236" 
d="M51.5 3.5q-3.5 3.5 -3.5 8.5v676q0 5 3.5 8.5t8.5 3.5h117q5 0 8.5 -3.5t3.5 -8.5v-676q0 -5 -3.5 -8.5t-8.5 -3.5h-117q-5 0 -8.5 3.5zM194 -171q0 -9 -9 -12q-25 -9 -55 -9q-33 0 -57.5 14.5t-32.5 48.5q-3 12 -3 26q0 52 49 95l4 4t12 4h64q10 0 10 -6q0 -5 -6 -9
q-41 -35 -41 -65q0 -7 1 -10q2 -12 10 -18t19 -6q5 0 13 2q2 1 6 1q8 0 9 -9l7 -48v-3z" />
    <glyph glyph-name="iogonek" unicode="&#x12f;" horiz-adv-x="245" 
d="M59.5 3.5q-3.5 3.5 -3.5 8.5v490q0 5 3.5 8.5t8.5 3.5h117q5 0 8.5 -3.5t3.5 -8.5v-490q0 -5 -3.5 -8.5t-8.5 -3.5h-117q-5 0 -8.5 3.5zM70.5 594.5q-22.5 22.5 -22.5 56.5q0 35 22 57t57 22t57 -22t22 -57q0 -34 -22.5 -56.5t-56.5 -22.5t-56.5 22.5zM203 -171
q0 -9 -9 -12q-25 -9 -55 -9q-33 0 -57.5 14.5t-32.5 48.5q-3 12 -3 26q0 52 49 95l4 4t12 4h64q10 0 10 -6q0 -5 -6 -9q-41 -35 -41 -65q0 -7 1 -10q2 -12 10 -18t19 -6q5 0 13 2q2 1 6 1q8 0 9 -9l7 -48v-3z" />
    <glyph glyph-name="Idotaccent" unicode="&#x130;" horiz-adv-x="246" 
d="M56.5 3.5q-3.5 3.5 -3.5 8.5v676q0 5 3.5 8.5t8.5 3.5h117q5 0 8.5 -3.5t3.5 -8.5v-676q0 -5 -3.5 -8.5t-8.5 -3.5h-117q-5 0 -8.5 3.5zM66.5 780.5q-22.5 22.5 -22.5 56.5q0 35 22 57t57 22t57 -22t22 -57q0 -34 -22.5 -56.5t-56.5 -22.5t-56.5 22.5z" />
    <glyph glyph-name="dotlessi" unicode="&#x131;" horiz-adv-x="213" 
d="M39.5 3.5q-3.5 3.5 -3.5 8.5v490q0 5 3.5 8.5t8.5 3.5h117q5 0 8.5 -3.5t3.5 -8.5v-490q0 -5 -3.5 -8.5t-8.5 -3.5h-117q-5 0 -8.5 3.5z" />
    <glyph glyph-name="ij" unicode="&#x133;" horiz-adv-x="463" 
d="M62 594.5q-22 22.5 -22 56.5q0 35 21.5 57t56.5 22t57 -22t22 -57q0 -34 -22.5 -56.5t-56.5 -22.5t-56 22.5zM51.5 3.5q-3.5 3.5 -3.5 8.5v490q0 5 3.5 8.5t8.5 3.5h117q5 0 8.5 -3.5t3.5 -8.5v-490q0 -5 -3.5 -8.5t-8.5 -3.5h-117q-5 0 -8.5 3.5zM289.5 594.5
q-22.5 22.5 -22.5 56.5q0 35 22 57t57 22t56.5 -22t21.5 -57q0 -34 -22 -56.5t-56 -22.5t-56.5 22.5zM170 -192v96q0 13 13 11q52 -1 72.5 19t20.5 65l-1 503q0 5 3.5 8.5t8.5 3.5h117q5 0 8.5 -3.5t3.5 -8.5v-502q0 -77 -17.5 -120.5t-68 -64t-148.5 -19.5q-12 0 -12 12z
" />
    <glyph glyph-name="Jcircumflex" unicode="&#x134;" horiz-adv-x="518" 
d="M122.5 18q-50.5 26 -78.5 73t-28 109v66q0 5 3.5 8.5t8.5 3.5h117q5 0 8.5 -3.5t3.5 -8.5v-67q0 -39 22.5 -62.5t60.5 -23.5q37 0 60.5 24t23.5 62v489q0 5 3.5 8.5t8.5 3.5h117q5 0 8.5 -3.5t3.5 -8.5v-488q0 -62 -28 -109t-79.5 -73t-117.5 -26q-67 0 -117.5 26z
M242.5 764.5q-2.5 4.5 1.5 10.5l69 104q5 8 14 8h131q9 0 14 -8l70 -104q2 -4 2 -7q0 -8 -10 -8h-87q-11 0 -15 8l-35 59q-3 6 -6 0l-35 -59q-4 -8 -15 -8h-89q-7 0 -9.5 4.5z" />
    <glyph glyph-name="jcircumflex" unicode="&#x135;" horiz-adv-x="238" 
d="M-58 -192v96q0 13 13 11q52 -1 72.5 19t20.5 65l-1 503q0 5 3.5 8.5t8.5 3.5h118q5 0 8.5 -3.5t3.5 -8.5v-502q0 -77 -18 -120.5t-68.5 -64t-148.5 -19.5q-12 0 -12 12zM-32.5 577.5q-2.5 4.5 1.5 10.5l69 104q5 8 14 8h131q9 0 14 -8l70 -104q2 -4 2 -7q0 -8 -10 -8h-87
q-11 0 -15 8l-35 59q-3 6 -6 0l-35 -59q-4 -8 -15 -8h-89q-7 0 -9.5 4.5z" />
    <glyph glyph-name="uni0136" unicode="&#x136;" horiz-adv-x="558" 
d="M56.5 3.5q-3.5 3.5 -3.5 8.5v676q0 5 3.5 8.5t8.5 3.5h117q5 0 8.5 -3.5t3.5 -8.5v-266q0 -3 2.5 -4t3.5 2l179 272q5 8 14 8h129q7 0 9.5 -4t-1.5 -10l-185 -287q-1 -3 0 -7l196 -378q2 -4 2 -6q0 -8 -11 -8h-128q-9 0 -14 9l-142 274q-1 3 -3 3t-4 -3l-45 -65
q-2 -4 -2 -6v-200q0 -5 -3.5 -8.5t-8.5 -3.5h-117q-5 0 -8.5 3.5zM190 -170q-2 4 1 10l57 102q5 8 15 8h96q8 0 10 -4.5t-2 -10.5l-74 -102q-5 -7 -14 -7h-80q-7 0 -9 4z" />
    <glyph glyph-name="uni0137" unicode="&#x137;" horiz-adv-x="491" 
d="M48.5 3.5q-3.5 3.5 -3.5 8.5v676q0 5 3.5 8.5t8.5 3.5h117q5 0 8.5 -3.5t3.5 -8.5v-334q0 -3 2 -4t4 2l112 155q5 7 14 7h127q10 0 10 -7q0 -3 -3 -8l-118 -164q-2 -3 0 -7l136 -314q1 -2 1 -6q0 -8 -10 -8h-123q-11 0 -14 10l-81 215q-1 3 -3 3t-4 -2l-48 -66
q-2 -4 -2 -6v-142q0 -5 -3.5 -8.5t-8.5 -3.5h-117q-5 0 -8.5 3.5zM155 -170q-2 4 1 10l57 102q5 8 15 8h96q8 0 10 -4.5t-2 -10.5l-74 -102q-5 -7 -14 -7h-80q-7 0 -9 4z" />
    <glyph glyph-name="Lacute" unicode="&#x139;" horiz-adv-x="499" 
d="M56.5 3.5q-3.5 3.5 -3.5 8.5v676q0 5 3.5 8.5t8.5 3.5h117q5 0 8.5 -3.5t3.5 -8.5v-562q0 -5 5 -5h268q5 0 8.5 -3.5t3.5 -8.5v-97q0 -5 -3.5 -8.5t-8.5 -3.5h-402q-5 0 -8.5 3.5zM60 766q-2 4 1 10l57 102q5 8 15 8h96q8 0 10 -4.5t-2 -10.5l-74 -102q-5 -7 -14 -7h-80
q-7 0 -9 4z" />
    <glyph glyph-name="lacute" unicode="&#x13a;" horiz-adv-x="227" 
d="M46.5 3.5q-3.5 3.5 -3.5 8.5v676q0 5 3.5 8.5t8.5 3.5h117q5 0 8.5 -3.5t3.5 -8.5v-676q0 -5 -3.5 -8.5t-8.5 -3.5h-117q-5 0 -8.5 3.5zM50 766q-2 4 1 10l57 102q5 8 15 8h96q8 0 10 -4.5t-2 -10.5l-74 -102q-5 -7 -14 -7h-80q-7 0 -9 4z" />
    <glyph glyph-name="uni013B" unicode="&#x13b;" horiz-adv-x="499" 
d="M56.5 3.5q-3.5 3.5 -3.5 8.5v676q0 5 3.5 8.5t8.5 3.5h117q5 0 8.5 -3.5t3.5 -8.5v-562q0 -5 5 -5h268q5 0 8.5 -3.5t3.5 -8.5v-97q0 -5 -3.5 -8.5t-8.5 -3.5h-402q-5 0 -8.5 3.5zM143 -170q-2 4 1 10l57 102q5 8 15 8h96q8 0 10 -4.5t-2 -10.5l-74 -102q-5 -7 -14 -7
h-80q-7 0 -9 4z" />
    <glyph glyph-name="uni013C" unicode="&#x13c;" horiz-adv-x="227" 
d="M46.5 3.5q-3.5 3.5 -3.5 8.5v676q0 5 3.5 8.5t8.5 3.5h117q5 0 8.5 -3.5t3.5 -8.5v-676q0 -5 -3.5 -8.5t-8.5 -3.5h-117q-5 0 -8.5 3.5zM-17 -170q-2 4 1 10l57 102q5 8 15 8h96q8 0 10 -4.5t-2 -10.5l-74 -102q-5 -7 -14 -7h-80q-7 0 -9 4z" />
    <glyph glyph-name="Lcaron" unicode="&#x13d;" horiz-adv-x="500" 
d="M56.5 3.5q-3.5 3.5 -3.5 8.5v676q0 5 3.5 8.5t8.5 3.5h117q5 0 8.5 -3.5t3.5 -8.5v-562q0 -5 5 -5h268q5 0 8.5 -3.5t3.5 -8.5v-97q0 -5 -3.5 -8.5t-8.5 -3.5h-402q-5 0 -8.5 3.5zM241 580q-2 4 1 10l57 102q5 8 15 8h96q8 0 10 -4.5t-2 -10.5l-74 -102q-5 -7 -14 -7h-80
q-7 0 -9 4z" />
    <glyph glyph-name="lcaron" unicode="&#x13e;" horiz-adv-x="420" 
d="M46.5 3.5q-3.5 3.5 -3.5 8.5v676q0 5 3.5 8.5t8.5 3.5h117q5 0 8.5 -3.5t3.5 -8.5v-676q0 -5 -3.5 -8.5t-8.5 -3.5h-117q-5 0 -8.5 3.5zM211 580q-2 4 1 10l57 102q5 8 15 8h96q8 0 10 -4.5t-2 -10.5l-74 -102q-5 -7 -14 -7h-80q-7 0 -9 4z" />
    <glyph glyph-name="ldot" unicode="&#x140;" horiz-adv-x="244" 
d="M54.5 3.5q-3.5 3.5 -3.5 8.5v676q0 5 3.5 8.5t8.5 3.5h117q5 0 8.5 -3.5t3.5 -8.5v-676q0 -5 -3.5 -8.5t-8.5 -3.5h-117q-5 0 -8.5 3.5zM66.5 780.5q-22.5 22.5 -22.5 56.5q0 35 22 57t57 22t57 -22t22 -57q0 -34 -22.5 -56.5t-56.5 -22.5t-56.5 22.5z" />
    <glyph glyph-name="Lslash" unicode="&#x141;" horiz-adv-x="569" 
d="M269 121h269q5 0 8.5 -3.5t3.5 -8.5v-97q0 -5 -3.5 -8.5t-8.5 -3.5h-403q-5 0 -8.5 3.5t-3.5 8.5v176q0 3 -2 4t-4 -1l-59 -48q-6 -4 -8 -4q-4 0 -9 5l-54 63q-4 6 -4 8q0 4 5 9l132 109q3 2 3 6v349q0 5 3.5 8.5t8.5 3.5h117q5 0 8.5 -3.5t3.5 -8.5v-228q0 -3 2 -4t4 1
l149 123q6 4 8 4q4 0 9 -5l53 -63q4 -6 4 -8q0 -4 -5 -9l-221 -183q-3 -1 -3 -6v-184q0 -5 5 -5z" />
    <glyph glyph-name="lslash" unicode="&#x142;" horiz-adv-x="411" 
d="M395 400q0 -7 -7 -11l-115 -63q-4 -3 -4 -6v-308q0 -5 -3.5 -8.5t-8.5 -3.5h-117q-5 0 -8.5 3.5t-3.5 8.5v227q0 3 -2 4.5t-4 -0.5l-51 -28q-4 -2 -7 -2q-7 0 -10 7l-36 70q-2 4 -2 6q0 6 6 10l103 57q3 2 3 6v319q0 5 3.5 8.5t8.5 3.5h117q5 0 8.5 -3.5t3.5 -8.5v-238
q0 -3 2 -4t4 0l63 35q4 2 6 2q6 0 10 -6l39 -71q2 -4 2 -6z" />
    <glyph glyph-name="Nacute" unicode="&#x143;" horiz-adv-x="590" 
d="M400.5 696.5q3.5 3.5 8.5 3.5h116q5 0 8.5 -3.5t3.5 -8.5v-676q0 -5 -3.5 -8.5t-8.5 -3.5h-122q-10 0 -14 9l-191 407q-2 3 -4 3t-2 -4l1 -403q0 -5 -3.5 -8.5t-8.5 -3.5h-116q-5 0 -8.5 3.5t-3.5 8.5v676q0 5 3.5 8.5t8.5 3.5h121q10 0 14 -9l191 -407q2 -3 4 -3t2 4
v403q0 5 3.5 8.5zM226 767q-2 4 1 10l57 102q5 8 15 8h96q8 0 10 -4.5t-2 -10.5l-74 -102q-5 -7 -14 -7h-80q-7 0 -9 4z" />
    <glyph glyph-name="nacute" unicode="&#x144;" horiz-adv-x="497" 
d="M413.5 475.5q41.5 -46.5 41.5 -129.5v-334q0 -5 -3.5 -8.5t-8.5 -3.5h-117q-5 0 -8.5 3.5t-3.5 8.5v314q0 35 -17 55t-46 20q-30 0 -47.5 -20.5t-17.5 -55.5v-313q0 -5 -3.5 -8.5t-8.5 -3.5h-117q-5 0 -8.5 3.5t-3.5 8.5v490q0 5 3.5 8.5t8.5 3.5h117q5 0 8.5 -3.5
t3.5 -8.5v-28q0 -3 2 -3.5t5 3.5q36 48 106 48q73 0 114.5 -46.5zM188 580q-2 4 1 10l57 102q5 8 15 8h96q8 0 10 -4.5t-2 -10.5l-74 -102q-5 -7 -14 -7h-80q-7 0 -9 4z" />
    <glyph glyph-name="uni0145" unicode="&#x145;" horiz-adv-x="590" 
d="M400.5 696.5q3.5 3.5 8.5 3.5h116q5 0 8.5 -3.5t3.5 -8.5v-676q0 -5 -3.5 -8.5t-8.5 -3.5h-122q-10 0 -14 9l-191 407q-2 3 -4 3t-2 -4l1 -403q0 -5 -3.5 -8.5t-8.5 -3.5h-116q-5 0 -8.5 3.5t-3.5 8.5v676q0 5 3.5 8.5t8.5 3.5h121q10 0 14 -9l191 -407q2 -3 4 -3t2 4
v403q0 5 3.5 8.5zM200 -170q-2 4 1 10l57 102q5 8 15 8h96q8 0 10 -4.5t-2 -10.5l-74 -102q-5 -7 -14 -7h-80q-7 0 -9 4z" />
    <glyph glyph-name="uni0146" unicode="&#x146;" horiz-adv-x="497" 
d="M413.5 475.5q41.5 -46.5 41.5 -129.5v-334q0 -5 -3.5 -8.5t-8.5 -3.5h-117q-5 0 -8.5 3.5t-3.5 8.5v314q0 35 -17 55t-46 20q-30 0 -47.5 -20.5t-17.5 -55.5v-313q0 -5 -3.5 -8.5t-8.5 -3.5h-117q-5 0 -8.5 3.5t-3.5 8.5v490q0 5 3.5 8.5t8.5 3.5h117q5 0 8.5 -3.5
t3.5 -8.5v-28q0 -3 2 -3.5t5 3.5q36 48 106 48q73 0 114.5 -46.5zM155 -170q-2 4 1 10l57 102q5 8 15 8h96q8 0 10 -4.5t-2 -10.5l-74 -102q-5 -7 -14 -7h-80q-7 0 -9 4z" />
    <glyph glyph-name="Ncaron" unicode="&#x147;" horiz-adv-x="590" 
d="M400.5 696.5q3.5 3.5 8.5 3.5h116q5 0 8.5 -3.5t3.5 -8.5v-676q0 -5 -3.5 -8.5t-8.5 -3.5h-122q-10 0 -14 9l-191 407q-2 3 -4 3t-2 -4l1 -403q0 -5 -3.5 -8.5t-8.5 -3.5h-116q-5 0 -8.5 3.5t-3.5 8.5v676q0 5 3.5 8.5t8.5 3.5h121q10 0 14 -9l191 -407q2 -3 4 -3t2 4
v403q0 5 3.5 8.5zM144 879q0 8 10 8h89q11 0 15 -8l35 -59q3 -6 6 0l35 59q4 8 15 8h88q7 0 9 -4.5t-2 -10.5l-70 -104q-5 -8 -14 -8h-131q-9 0 -14 8l-69 104q-2 4 -2 7z" />
    <glyph glyph-name="ncaron" unicode="&#x148;" horiz-adv-x="497" 
d="M413.5 475.5q41.5 -46.5 41.5 -129.5v-334q0 -5 -3.5 -8.5t-8.5 -3.5h-117q-5 0 -8.5 3.5t-3.5 8.5v314q0 35 -17 55t-46 20q-30 0 -47.5 -20.5t-17.5 -55.5v-313q0 -5 -3.5 -8.5t-8.5 -3.5h-117q-5 0 -8.5 3.5t-3.5 8.5v490q0 5 3.5 8.5t8.5 3.5h117q5 0 8.5 -3.5
t3.5 -8.5v-28q0 -3 2 -3.5t5 3.5q36 48 106 48q73 0 114.5 -46.5zM106 692q0 8 10 8h89q11 0 15 -8l35 -59q3 -6 6 0l35 59q4 8 15 8h88q7 0 9 -4.5t-2 -10.5l-70 -104q-5 -8 -14 -8h-131q-9 0 -14 8l-69 104q-2 4 -2 7z" />
    <glyph glyph-name="Eng" unicode="&#x14a;" horiz-adv-x="590" 
d="M400.5 696.5q3.5 3.5 8.5 3.5h116q5 0 8.5 -3.5t3.5 -8.5v-688q-1 -71 -18 -110.5t-65 -58.5t-142 -17q-12 0 -12 12v95q0 13 13 11q45 -1 60 15.5t17 56.5l-1 6l-191 406q-2 3 -4 3t-2 -4l1 -403q0 -5 -3.5 -8.5t-8.5 -3.5h-116q-5 0 -8.5 3.5t-3.5 8.5v676q0 5 3.5 8.5
t8.5 3.5h121q10 0 14 -9l184 -392q2 -3 4 -3t2 4v112q0 5 1 8.5t3 3.5q3 0 3 5v259q0 5 3.5 8.5z" />
    <glyph glyph-name="eng" unicode="&#x14b;" horiz-adv-x="497" 
d="M456 221h1v-207q0 -73 -13.5 -114.5t-59 -64.5t-138.5 -23q-16 0 -16 12v91q0 12 12 12q40 1 56 17t18 51l-1 5h-1v326q0 35 -17 55t-46 20q-30 0 -47.5 -20.5t-17.5 -55.5v-313q0 -5 -3.5 -8.5t-8.5 -3.5h-117q-5 0 -8.5 3.5t-3.5 8.5v490q0 5 3.5 8.5t8.5 3.5h117
q5 0 8.5 -3.5t3.5 -8.5v-28q0 -3 2 -3.5t4 2.5q37 49 107 49q73 0 114.5 -46.5t41.5 -129.5v-120z" />
    <glyph glyph-name="Omacron" unicode="&#x14c;" horiz-adv-x="547" 
d="M151.5 19q-52.5 28 -81.5 79t-29 119v266q0 67 29 118t81.5 79t121.5 28t122 -28t82 -79t29 -118v-266q0 -68 -29 -119t-82 -79t-122 -28t-121.5 28zM340 139.5q25 27.5 25 71.5v276q0 45 -25 72.5t-67 27.5q-41 0 -66 -27.5t-25 -72.5v-276q0 -44 25 -71.5t66 -27.5
q42 0 67 27.5zM146.5 769.5q-3.5 3.5 -3.5 8.5v71q0 5 3.5 8.5t8.5 3.5h233q5 0 8.5 -3.5t3.5 -8.5v-71q0 -5 -3.5 -8.5t-8.5 -3.5h-233q-5 0 -8.5 3.5z" />
    <glyph glyph-name="omacron" unicode="&#x14d;" horiz-adv-x="496" 
d="M109.5 35.5q-55.5 43.5 -66.5 119.5q-8 46 -8 103q0 58 8 103q11 74 66.5 117.5t142.5 43.5q86 0 140.5 -43.5t66.5 -117.5q8 -45 8 -103q0 -56 -8 -102q-11 -77 -65.5 -120.5t-141.5 -43.5t-142.5 43.5zM296.5 130q18.5 17 24.5 46q5 42 5 82q0 41 -5 81
q-5 29 -23.5 45.5t-46.5 16.5q-27 0 -45.5 -16.5t-23.5 -45.5q-5 -30 -5 -81q0 -50 4 -82q6 -29 25 -46t46 -17q26 0 44.5 17zM121.5 583.5q-3.5 3.5 -3.5 8.5v71q0 5 3.5 8.5t8.5 3.5h233q5 0 8.5 -3.5t3.5 -8.5v-71q0 -5 -3.5 -8.5t-8.5 -3.5h-233q-5 0 -8.5 3.5z" />
    <glyph glyph-name="obreve" unicode="&#x14f;" horiz-adv-x="496" 
d="M109.5 35.5q-55.5 43.5 -66.5 119.5q-8 46 -8 103q0 58 8 103q11 74 66.5 117.5t142.5 43.5q86 0 140.5 -43.5t66.5 -117.5q8 -45 8 -103q0 -56 -8 -102q-11 -77 -65.5 -120.5t-141.5 -43.5t-142.5 43.5zM296.5 130q18.5 17 24.5 46q5 42 5 82q0 41 -5 81
q-5 29 -23.5 45.5t-46.5 16.5q-27 0 -45.5 -16.5t-23.5 -45.5q-5 -30 -5 -81q0 -50 4 -82q6 -29 25 -46t46 -17q26 0 44.5 17zM152 596q-38 30 -43 79v2q0 10 11 10h56q10 0 12 -11q4 -20 20.5 -33t39.5 -13t39.5 13t20.5 33q2 11 12 11h55q13 0 11 -11q-4 -49 -42 -79.5
t-96 -30.5t-96 30z" />
    <glyph glyph-name="Ohungarumlaut" unicode="&#x150;" horiz-adv-x="547" 
d="M151.5 19q-52.5 28 -81.5 79t-29 119v266q0 67 29 118t81.5 79t121.5 28t122 -28t82 -79t29 -118v-266q0 -68 -29 -119t-82 -79t-122 -28t-121.5 28zM340 139.5q25 27.5 25 71.5v276q0 45 -25 72.5t-67 27.5q-41 0 -66 -27.5t-25 -72.5v-276q0 -44 25 -71.5t66 -27.5
q42 0 67 27.5zM139.5 765.5q-2.5 3.5 0.5 10.5l47 101q4 9 14 9h99q7 0 9.5 -4t-0.5 -10l-53 -101q-5 -9 -15 -9h-92q-7 0 -9.5 3.5zM307.5 766q-2.5 4 0.5 10l53 101q4 9 15 9h93q7 0 9 -4t-1 -10l-53 -101q-5 -9 -15 -9h-92q-7 0 -9.5 4z" />
    <glyph glyph-name="ohungarumlaut" unicode="&#x151;" horiz-adv-x="496" 
d="M109.5 35.5q-55.5 43.5 -66.5 119.5q-8 46 -8 103q0 58 8 103q11 74 66.5 117.5t142.5 43.5q86 0 140.5 -43.5t66.5 -117.5q8 -45 8 -103q0 -56 -8 -102q-11 -77 -65.5 -120.5t-141.5 -43.5t-142.5 43.5zM296.5 130q18.5 17 24.5 46q5 42 5 82q0 41 -5 81
q-5 29 -23.5 45.5t-46.5 16.5q-27 0 -45.5 -16.5t-23.5 -45.5q-5 -30 -5 -81q0 -50 4 -82q6 -29 25 -46t46 -17q26 0 44.5 17zM114.5 579.5q-2.5 3.5 0.5 10.5l47 101q4 9 14 9h99q7 0 9.5 -4t-0.5 -10l-53 -101q-5 -9 -15 -9h-92q-7 0 -9.5 3.5zM282.5 580q-2.5 4 0.5 10
l53 101q4 9 15 9h93q7 0 9 -4t-1 -10l-53 -101q-5 -9 -15 -9h-92q-7 0 -9.5 4z" />
    <glyph glyph-name="OE" unicode="&#x152;" horiz-adv-x="811" 
d="M774.5 582.5q-3.5 -3.5 -8.5 -3.5h-260q-5 0 -5 -5v-156q0 -5 5 -5h159q5 0 8.5 -3.5t3.5 -8.5v-97q0 -5 -3.5 -8.5t-8.5 -3.5h-159q-5 0 -5 -5v-161q0 -5 5 -5h260q5 0 8.5 -3.5t3.5 -8.5v-97q0 -5 -3.5 -8.5t-8.5 -3.5h-394q-5 0 -8.5 3.5t-3.5 8.5v14q0 3 -2 4t-4 -1
q-52 -38 -120 -38q-52 0 -96.5 28t-70.5 79t-26 116v272q0 65 26 115.5t70.5 78.5t96.5 28q70 0 120 -38q2 -2 4 -1t2 4v15q0 5 3.5 8.5t8.5 3.5h394q5 0 8.5 -3.5t3.5 -8.5v-97q0 -5 -3.5 -8.5zM335 138.5q25 26.5 25 69.5v282q0 43 -25 70t-65 27t-64 -27t-24 -70v-282
q0 -43 24 -69.5t64 -26.5t65 26.5z" />
    <glyph glyph-name="oe" unicode="&#x153;" horiz-adv-x="781" 
d="M593 124q19 13 29 33q6 11 16 7l91 -34q11 -5 7 -15q-21 -59 -69.5 -91t-122.5 -32q-93 0 -148 66q-3 3 -7 0q-56 -66 -143 -66q-83 0 -137 42.5t-66 116.5q-8 41 -8 107q0 67 8 107q11 72 65.5 114.5t137.5 42.5q87 0 143 -66q4 -3 8 0q56 66 142 66q83 0 138 -43.5
t66 -114.5q8 -61 8 -143q0 -12 -12 -12h-263q-5 0 -5 -5l3 -31q5 -29 25.5 -45.5t53.5 -16.5q21 0 40 13zM316 258q0 45 -5 83q-5 27 -22.5 43.5t-42.5 16.5q-26 0 -43 -16.5t-22 -43.5q-5 -40 -5 -83q0 -47 6 -85q4 -27 21 -43.5t43 -16.5q25 0 42.5 16.5t22.5 43.5
q5 40 5 85zM496.5 384.5q-17.5 -16.5 -22.5 -43.5l-3 -32q0 -5 5 -5h128q5 0 5 5q0 17 -3 32q-5 27 -22.5 43.5t-43.5 16.5t-43.5 -16.5z" />
    <glyph glyph-name="Racute" unicode="&#x154;" horiz-adv-x="543" 
d="M368 10l-101 276q-2 4 -5 4h-63q-5 0 -5 -5v-273q0 -5 -3.5 -8.5t-8.5 -3.5h-117q-5 0 -8.5 3.5t-3.5 8.5v676q0 5 3.5 8.5t8.5 3.5h244q59 0 105 -26.5t71 -74.5t25 -110q0 -64 -28 -111t-79 -70q-5 -2 -3 -7l114 -287q1 -2 1 -5q0 -9 -11 -9h-122q-11 0 -14 10z
M194 574v-171q0 -5 5 -5h87q37 0 60 24.5t23 65.5q0 42 -23 66.5t-60 24.5h-87q-5 0 -5 -5zM193 766q-2 4 1 10l57 102q5 8 15 8h96q8 0 10 -4.5t-2 -10.5l-74 -102q-5 -7 -14 -7h-80q-7 0 -9 4z" />
    <glyph glyph-name="racute" unicode="&#x155;" horiz-adv-x="354" 
d="M338 509q8 -5 6 -16l-20 -115q-1 -12 -14 -7q-16 4 -29 4q-12 0 -26 -3q-29 -4 -49 -28t-20 -58v-274q0 -5 -3.5 -8.5t-8.5 -3.5h-117q-5 0 -8.5 3.5t-3.5 8.5v490q0 5 3.5 8.5t8.5 3.5h117q5 0 8.5 -3.5t3.5 -8.5v-40q0 -4 1.5 -4.5t3.5 2.5q35 61 98 61q27 0 49 -12z
M133 580q-2 4 1 10l57 102q5 8 15 8h96q8 0 10 -4.5t-2 -10.5l-74 -102q-5 -7 -14 -7h-80q-7 0 -9 4z" />
    <glyph glyph-name="uni0156" unicode="&#x156;" horiz-adv-x="543" 
d="M368 10l-101 276q-2 4 -5 4h-63q-5 0 -5 -5v-273q0 -5 -3.5 -8.5t-8.5 -3.5h-117q-5 0 -8.5 3.5t-3.5 8.5v676q0 5 3.5 8.5t8.5 3.5h244q59 0 105 -26.5t71 -74.5t25 -110q0 -64 -28 -111t-79 -70q-5 -2 -3 -7l114 -287q1 -2 1 -5q0 -9 -11 -9h-122q-11 0 -14 10z
M194 574v-171q0 -5 5 -5h87q37 0 60 24.5t23 65.5q0 42 -23 66.5t-60 24.5h-87q-5 0 -5 -5zM172 -170q-2 4 1 10l57 102q5 8 15 8h96q8 0 10 -4.5t-2 -10.5l-74 -102q-5 -7 -14 -7h-80q-7 0 -9 4z" />
    <glyph glyph-name="uni0157" unicode="&#x157;" horiz-adv-x="354" 
d="M338 509q8 -5 6 -16l-20 -115q-1 -12 -14 -7q-16 4 -29 4q-12 0 -26 -3q-29 -4 -49 -28t-20 -58v-274q0 -5 -3.5 -8.5t-8.5 -3.5h-117q-5 0 -8.5 3.5t-3.5 8.5v490q0 5 3.5 8.5t8.5 3.5h117q5 0 8.5 -3.5t3.5 -8.5v-40q0 -4 1.5 -4.5t3.5 2.5q35 61 98 61q27 0 49 -12z
M-20 -170q-2 4 1 10l57 102q5 8 15 8h96q8 0 10 -4.5t-2 -10.5l-74 -102q-5 -7 -14 -7h-80q-7 0 -9 4z" />
    <glyph glyph-name="Rcaron" unicode="&#x158;" horiz-adv-x="543" 
d="M368 10l-101 276q-2 4 -5 4h-63q-5 0 -5 -5v-273q0 -5 -3.5 -8.5t-8.5 -3.5h-117q-5 0 -8.5 3.5t-3.5 8.5v676q0 5 3.5 8.5t8.5 3.5h244q59 0 105 -26.5t71 -74.5t25 -110q0 -64 -28 -111t-79 -70q-5 -2 -3 -7l114 -287q1 -2 1 -5q0 -9 -11 -9h-122q-11 0 -14 10z
M194 574v-171q0 -5 5 -5h87q37 0 60 24.5t23 65.5q0 42 -23 66.5t-60 24.5h-87q-5 0 -5 -5zM111 878q0 8 10 8h89q11 0 15 -8l35 -59q3 -6 6 0l35 59q4 8 15 8h88q7 0 9 -4.5t-2 -10.5l-70 -104q-5 -8 -14 -8h-131q-9 0 -14 8l-69 104q-2 4 -2 7z" />
    <glyph glyph-name="rcaron" unicode="&#x159;" horiz-adv-x="354" 
d="M338 509q8 -5 6 -16l-20 -115q-1 -12 -14 -7q-16 4 -29 4q-12 0 -26 -3q-29 -4 -49 -28t-20 -58v-274q0 -5 -3.5 -8.5t-8.5 -3.5h-117q-5 0 -8.5 3.5t-3.5 8.5v490q0 5 3.5 8.5t8.5 3.5h117q5 0 8.5 -3.5t3.5 -8.5v-40q0 -4 1.5 -4.5t3.5 2.5q35 61 98 61q27 0 49 -12z
M51 692q0 8 10 8h89q11 0 15 -8l35 -59q3 -6 6 0l35 59q4 8 15 8h88q7 0 9 -4.5t-2 -10.5l-70 -104q-5 -8 -14 -8h-131q-9 0 -14 8l-69 104q-2 4 -2 7z" />
    <glyph glyph-name="Sacute" unicode="&#x15a;" horiz-adv-x="520" 
d="M142 16.5q-52 24.5 -80.5 69t-28.5 102.5v26q0 5 3.5 8.5t8.5 3.5h115q5 0 8.5 -3.5t3.5 -8.5v-19q0 -35 26 -58.5t70 -23.5q39 0 59.5 20t20.5 51q0 23 -13 39.5t-36.5 31t-72.5 39.5q-60 30 -98 56t-65 67t-27 99t27.5 101.5t77.5 67t114 23.5q67 0 119 -25.5t81 -71.5
t29 -106v-20q0 -5 -3.5 -8.5t-8.5 -3.5h-115q-5 0 -8.5 3.5t-3.5 8.5v18q0 36 -25 60t-68 24q-36 0 -56.5 -18.5t-20.5 -51.5q0 -23 12 -40t37 -32.5t76 -40.5l21 -12q58 -32 90.5 -55.5t54.5 -59.5t22 -87q0 -91 -61.5 -144.5t-163.5 -53.5q-69 0 -121 24.5zM193 766
q-2 4 1 10l57 102q5 8 15 8h96q8 0 10 -4.5t-2 -10.5l-74 -102q-5 -7 -14 -7h-80q-7 0 -9 4z" />
    <glyph glyph-name="sacute" unicode="&#x15b;" horiz-adv-x="458" 
d="M85 34q-55 41 -55 108v8q0 5 3.5 8.5t8.5 3.5h110q5 0 8.5 -3.5t3.5 -8.5v-2q0 -22 20 -36t49 -14q27 0 43 12.5t16 31.5t-17.5 29t-56.5 23q-16 4 -48 16q-60 20 -97.5 54t-37.5 98q0 73 53 116t140 43q90 0 143.5 -44.5t53.5 -118.5q0 -11 -12 -11h-108q-5 0 -8.5 3.5
t-3.5 8.5v3q0 21 -17 35t-46 14q-27 0 -43.5 -13t-16.5 -32q0 -21 20 -32.5t61 -23.5q9 -3 17.5 -5.5t15.5 -5.5q68 -23 109 -55.5t41 -96.5q0 -72 -54.5 -113t-146.5 -41q-93 0 -148 41zM164 580q-2 4 1 10l57 102q5 8 15 8h96q8 0 10 -4.5t-2 -10.5l-74 -102q-5 -7 -14 -7
h-80q-7 0 -9 4z" />
    <glyph glyph-name="Scircumflex" unicode="&#x15c;" horiz-adv-x="520" 
d="M142 16.5q-52 24.5 -80.5 69t-28.5 102.5v26q0 5 3.5 8.5t8.5 3.5h115q5 0 8.5 -3.5t3.5 -8.5v-19q0 -35 26 -58.5t70 -23.5q39 0 59.5 20t20.5 51q0 23 -13 39.5t-36.5 31t-72.5 39.5q-60 30 -98 56t-65 67t-27 99t27.5 101.5t77.5 67t114 23.5q67 0 119 -25.5t81 -71.5
t29 -106v-20q0 -5 -3.5 -8.5t-8.5 -3.5h-115q-5 0 -8.5 3.5t-3.5 8.5v18q0 36 -25 60t-68 24q-36 0 -56.5 -18.5t-20.5 -51.5q0 -23 12 -40t37 -32.5t76 -40.5l21 -12q58 -32 90.5 -55.5t54.5 -59.5t22 -87q0 -91 -61.5 -144.5t-163.5 -53.5q-69 0 -121 24.5zM105.5 763.5
q-2.5 4.5 1.5 10.5l69 104q5 8 14 8h131q9 0 14 -8l70 -104q2 -4 2 -7q0 -8 -10 -8h-87q-11 0 -15 8l-35 59q-3 6 -6 0l-35 -59q-4 -8 -15 -8h-89q-7 0 -9.5 4.5z" />
    <glyph glyph-name="scircumflex" unicode="&#x15d;" horiz-adv-x="458" 
d="M85 34q-55 41 -55 108v8q0 5 3.5 8.5t8.5 3.5h110q5 0 8.5 -3.5t3.5 -8.5v-2q0 -22 20 -36t49 -14q27 0 43 12.5t16 31.5t-17.5 29t-56.5 23q-16 4 -48 16q-60 20 -97.5 54t-37.5 98q0 73 53 116t140 43q90 0 143.5 -44.5t53.5 -118.5q0 -11 -12 -11h-108q-5 0 -8.5 3.5
t-3.5 8.5v3q0 21 -17 35t-46 14q-27 0 -43.5 -13t-16.5 -32q0 -21 20 -32.5t61 -23.5q9 -3 17.5 -5.5t15.5 -5.5q68 -23 109 -55.5t41 -96.5q0 -72 -54.5 -113t-146.5 -41q-93 0 -148 41zM76.5 577.5q-2.5 4.5 1.5 10.5l69 104q5 8 14 8h131q9 0 14 -8l70 -104q2 -4 2 -7
q0 -8 -10 -8h-87q-11 0 -15 8l-35 59q-3 6 -6 0l-35 -59q-4 -8 -15 -8h-89q-7 0 -9.5 4.5z" />
    <glyph glyph-name="Scedilla" unicode="&#x15e;" horiz-adv-x="520" 
d="M442 61q-46 -51 -126 -65q-6 -2 -2 -6q41 -41 41 -87q0 -8 -4 -26q-8 -34 -33 -48t-58 -14q-25 0 -53 8q-10 4 -9 15l6 48q1 6 4.5 8t10.5 0q8 -2 12 -2q12 0 20 6t10 18q1 3 1 9q0 28 -43 68q-4 2 -6 2q-83 13 -131.5 64.5t-48.5 128.5v26q0 5 3.5 8.5t8.5 3.5h115
q5 0 8.5 -3.5t3.5 -8.5v-19q0 -35 26 -58.5t70 -23.5q39 0 59.5 20t20.5 51q0 23 -13 39.5t-36.5 31t-72.5 39.5q-60 30 -98 56t-65 67t-27 99t27.5 101.5t77.5 67t114 23.5q67 0 119 -25.5t81 -71.5t29 -106v-20q0 -5 -3.5 -8.5t-8.5 -3.5h-115q-5 0 -8.5 3.5t-3.5 8.5v18
q0 36 -25 60t-68 24q-36 0 -56.5 -18.5t-20.5 -51.5q0 -23 12 -40t37 -32.5t76 -40.5l21 -12q58 -32 90.5 -55.5t54.5 -59.5t22 -87q0 -78 -46 -129z" />
    <glyph glyph-name="scedilla" unicode="&#x15f;" horiz-adv-x="458" 
d="M395.5 48q-38.5 -39 -105.5 -50q-6 -2 -2 -6q40 -43 40 -89q0 -12 -3 -24q-15 -63 -91 -63q-26 0 -54 8q-10 4 -9 15l7 48q1 11 14 8q8 -2 13 -2q13 0 22 8.5t9 24.5q0 30 -42 67q-4 2 -6 2q-73 10 -115.5 49.5t-42.5 97.5v8q0 5 3.5 8.5t8.5 3.5h110q5 0 8.5 -3.5
t3.5 -8.5v-2q0 -22 20 -36t49 -14q27 0 43 12.5t16 31.5t-17.5 29t-56.5 23q-16 4 -48 16q-60 20 -97.5 54t-37.5 98q0 73 53 116t140 43q90 0 143.5 -44.5t53.5 -118.5q0 -11 -12 -11h-108q-5 0 -8.5 3.5t-3.5 8.5v3q0 21 -17 35t-46 14q-27 0 -43.5 -13t-16.5 -32
q0 -21 20 -32.5t61 -23.5q9 -3 17.5 -5.5t15.5 -5.5q68 -23 109 -55.5t41 -96.5q0 -60 -38.5 -99z" />
    <glyph glyph-name="Scaron" unicode="&#x160;" horiz-adv-x="520" 
d="M142 16.5q-52 24.5 -80.5 69t-28.5 102.5v26q0 5 3.5 8.5t8.5 3.5h115q5 0 8.5 -3.5t3.5 -8.5v-19q0 -35 26 -58.5t70 -23.5q39 0 59.5 20t20.5 51q0 23 -13 39.5t-36.5 31t-72.5 39.5q-60 30 -98 56t-65 67t-27 99t27.5 101.5t77.5 67t114 23.5q67 0 119 -25.5t81 -71.5
t29 -106v-20q0 -5 -3.5 -8.5t-8.5 -3.5h-115q-5 0 -8.5 3.5t-3.5 8.5v18q0 36 -25 60t-68 24q-36 0 -56.5 -18.5t-20.5 -51.5q0 -23 12 -40t37 -32.5t76 -40.5l21 -12q58 -32 90.5 -55.5t54.5 -59.5t22 -87q0 -91 -61.5 -144.5t-163.5 -53.5q-69 0 -121 24.5zM111 878
q0 8 10 8h89q11 0 15 -8l35 -59q3 -6 6 0l35 59q4 8 15 8h88q7 0 9 -4.5t-2 -10.5l-70 -104q-5 -8 -14 -8h-131q-9 0 -14 8l-69 104q-2 4 -2 7z" />
    <glyph glyph-name="scaron" unicode="&#x161;" horiz-adv-x="458" 
d="M85 34q-55 41 -55 108v8q0 5 3.5 8.5t8.5 3.5h110q5 0 8.5 -3.5t3.5 -8.5v-2q0 -22 20 -36t49 -14q27 0 43 12.5t16 31.5t-17.5 29t-56.5 23q-16 4 -48 16q-60 20 -97.5 54t-37.5 98q0 73 53 116t140 43q90 0 143.5 -44.5t53.5 -118.5q0 -11 -12 -11h-108q-5 0 -8.5 3.5
t-3.5 8.5v3q0 21 -17 35t-46 14q-27 0 -43.5 -13t-16.5 -32q0 -21 20 -32.5t61 -23.5q9 -3 17.5 -5.5t15.5 -5.5q68 -23 109 -55.5t41 -96.5q0 -72 -54.5 -113t-146.5 -41q-93 0 -148 41zM82 692q0 8 10 8h89q11 0 15 -8l35 -59q3 -6 6 0l35 59q4 8 15 8h88q7 0 9 -4.5
t-2 -10.5l-70 -104q-5 -8 -14 -8h-131q-9 0 -14 8l-69 104q-2 4 -2 7z" />
    <glyph glyph-name="uni0162" unicode="&#x162;" horiz-adv-x="526" 
d="M496.5 696.5q3.5 -3.5 3.5 -8.5v-98q0 -5 -3.5 -8.5t-8.5 -3.5h-152q-5 0 -5 -5v-561q0 -5 -3.5 -8.5t-8.5 -3.5h-117q-5 0 -8.5 3.5t-3.5 8.5v561q0 5 -5 5h-147q-5 0 -8.5 3.5t-3.5 8.5v98q0 5 3.5 8.5t8.5 3.5h450q5 0 8.5 -3.5zM232 -168l7 48q1 11 14 8q8 -2 12 -2
q13 0 22.5 8.5t9.5 23.5q0 30 -43 67q-5 5 -5 9q0 6 10 6h64q7 0 12 -4q3 -1 4 -4q49 -43 49 -97q0 -12 -3 -24q-8 -34 -32.5 -48.5t-57.5 -14.5q-29 0 -54 9q-10 3 -9 15z" />
    <glyph glyph-name="uni0163" unicode="&#x163;" horiz-adv-x="335" 
d="M306.5 411.5q-3.5 -3.5 -8.5 -3.5h-77q-5 0 -5 -5v-225q0 -31 12.5 -44.5t38.5 -12.5h20q5 0 8.5 -3.5t3.5 -8.5v-97q0 -11 -12 -13h-13q-3 0 -4 -2t1 -4q32 -36 32 -79q0 -12 -3 -24q-8 -34 -32.5 -48.5t-57.5 -14.5q-30 0 -55 9q-11 3 -9 15l7 48q1 11 14 8q8 -2 13 -2
q13 0 22 8.5t9 24.5q0 28 -40 65l-6 3q-42 9 -63 36.5t-21 80.5v280q0 5 -5 5h-46q-5 0 -8.5 3.5t-3.5 8.5v82q0 5 3.5 8.5t8.5 3.5h46q5 0 5 5v115q0 5 3.5 8.5t8.5 3.5h111q5 0 8.5 -3.5t3.5 -8.5v-115q0 -5 5 -5h77q5 0 8.5 -3.5t3.5 -8.5v-82q0 -5 -3.5 -8.5z" />
    <glyph glyph-name="Tcaron" unicode="&#x164;" horiz-adv-x="526" 
d="M496.5 696.5q3.5 -3.5 3.5 -8.5v-98q0 -5 -3.5 -8.5t-8.5 -3.5h-152q-5 0 -5 -5v-561q0 -5 -3.5 -8.5t-8.5 -3.5h-117q-5 0 -8.5 3.5t-3.5 8.5v561q0 5 -5 5h-147q-5 0 -8.5 3.5t-3.5 8.5v98q0 5 3.5 8.5t8.5 3.5h450q5 0 8.5 -3.5zM115 877q0 8 10 8h89q11 0 15 -8
l35 -59q3 -6 6 0l35 59q4 8 15 8h88q7 0 9 -4.5t-2 -10.5l-70 -104q-5 -8 -14 -8h-131q-9 0 -14 8l-69 104q-2 4 -2 7z" />
    <glyph glyph-name="tcaron" unicode="&#x165;" horiz-adv-x="335" 
d="M306.5 411.5q-3.5 -3.5 -8.5 -3.5h-77q-5 0 -5 -5v-225q0 -31 12.5 -44.5t38.5 -12.5h20q5 0 8.5 -3.5t3.5 -8.5v-97q0 -12 -12 -12q-17 -1 -50 -1q-79 0 -117.5 26t-38.5 98v280q0 5 -5 5h-46q-5 0 -8.5 3.5t-3.5 8.5v82q0 5 3.5 8.5t8.5 3.5h46q5 0 5 5v115
q0 5 3.5 8.5t8.5 3.5h111q5 0 8.5 -3.5t3.5 -8.5v-115q0 -5 5 -5h77q5 0 8.5 -3.5t3.5 -8.5v-82q0 -5 -3.5 -8.5zM240 580q-2 4 1 10l57 102q5 8 15 8h96q8 0 10 -4.5t-2 -10.5l-74 -102q-5 -7 -14 -7h-80q-7 0 -9 4z" />
    <glyph glyph-name="Tbar" unicode="&#x166;" horiz-adv-x="526" 
d="M496.5 581.5q-3.5 -3.5 -8.5 -3.5h-152q-5 0 -5 -5v-159q0 -5 5 -5h72q5 0 8.5 -3.5t3.5 -8.5v-61q0 -5 -3.5 -8.5t-8.5 -3.5h-72q-5 0 -5 -5v-307q0 -5 -3.5 -8.5t-8.5 -3.5h-117q-5 0 -8.5 3.5t-3.5 8.5v307q0 5 -5 5h-73q-5 0 -8.5 3.5t-3.5 8.5v61q0 5 3.5 8.5
t8.5 3.5h73q5 0 5 5v159q0 5 -5 5h-147q-5 0 -8.5 3.5t-3.5 8.5v98q0 5 3.5 8.5t8.5 3.5h450q5 0 8.5 -3.5t3.5 -8.5v-98q0 -5 -3.5 -8.5z" />
    <glyph glyph-name="tbar" unicode="&#x167;" horiz-adv-x="335" 
d="M306.5 411.5q-3.5 -3.5 -8.5 -3.5h-77q-5 0 -5 -5v-48q0 -5 5 -5h77q5 0 8.5 -3.5t3.5 -8.5v-61q0 -5 -3.5 -8.5t-8.5 -3.5h-77q-5 0 -5 -5v-82q0 -31 12.5 -44.5t38.5 -12.5h20q5 0 8.5 -3.5t3.5 -8.5v-97q0 -12 -12 -12q-17 -1 -50 -1q-79 0 -117.5 26t-38.5 98v137
q0 5 -5 5h-44q-5 0 -8.5 3.5t-3.5 8.5v61q0 5 3.5 8.5t8.5 3.5h44q5 0 5 5v48q0 5 -5 5h-46q-5 0 -8.5 3.5t-3.5 8.5v82q0 5 3.5 8.5t8.5 3.5h46q5 0 5 5v115q0 5 3.5 8.5t8.5 3.5h111q5 0 8.5 -3.5t3.5 -8.5v-115q0 -5 5 -5h77q5 0 8.5 -3.5t3.5 -8.5v-82q0 -5 -3.5 -8.5z
" />
    <glyph glyph-name="Utilde" unicode="&#x168;" horiz-adv-x="554" 
d="M157 20q-52 28 -80.5 78.5t-28.5 116.5v473q0 5 3.5 8.5t8.5 3.5h117q5 0 8.5 -3.5t3.5 -8.5v-480q0 -43 24 -69t64 -26t64 26t24 69v480q0 5 3.5 8.5t8.5 3.5h117q5 0 8.5 -3.5t3.5 -8.5v-473q0 -66 -28.5 -116.5t-80.5 -78.5t-120 -28t-120 28zM312.5 770.5
q-12.5 4.5 -31.5 13.5q-5 3 -15 8t-17 7t-14 2q-26 0 -44 -22q-6 -6 -10 -6q-3 0 -7 4l-41 36q-8 8 -4 17q15 31 40.5 48t56.5 17q18 0 33 -5.5t36 -16.5q4 -2 13 -7.5t16.5 -8t15.5 -2.5q28 0 42 21q5 7 10 7q3 0 7 -4l39 -35q8 -8 3 -18q-15 -30 -41.5 -45t-57.5 -15
q-17 0 -29.5 4.5z" />
    <glyph glyph-name="utilde" unicode="&#x169;" horiz-adv-x="497" 
d="M313.5 510.5q3.5 3.5 8.5 3.5h117q5 0 8.5 -3.5t3.5 -8.5v-490q0 -5 -3.5 -8.5t-8.5 -3.5h-117q-5 0 -8.5 3.5t-3.5 8.5v25q0 3 -2 3.5t-4 -1.5q-34 -46 -107 -46q-68 0 -112 41t-44 121v347q0 5 3.5 8.5t8.5 3.5h117q5 0 8.5 -3.5t3.5 -8.5v-314q0 -35 16.5 -55
t46.5 -20t47.5 21t17.5 56v312q0 5 3.5 8.5zM281.5 584.5q-12.5 4.5 -31.5 13.5q-5 3 -15 8t-17 7t-14 2q-26 0 -44 -22q-6 -6 -10 -6q-3 0 -7 4l-41 36q-8 8 -4 17q15 31 40.5 48t56.5 17q18 0 33 -5.5t36 -16.5q4 -2 13 -7.5t16.5 -8t15.5 -2.5q28 0 42 21q5 7 10 7
q3 0 7 -4l39 -35q8 -8 3 -18q-15 -30 -41.5 -45t-57.5 -15q-17 0 -29.5 4.5z" />
    <glyph glyph-name="Umacron" unicode="&#x16a;" horiz-adv-x="554" 
d="M157 20q-52 28 -80.5 78.5t-28.5 116.5v473q0 5 3.5 8.5t8.5 3.5h117q5 0 8.5 -3.5t3.5 -8.5v-480q0 -43 24 -69t64 -26t64 26t24 69v480q0 5 3.5 8.5t8.5 3.5h117q5 0 8.5 -3.5t3.5 -8.5v-473q0 -66 -28.5 -116.5t-80.5 -78.5t-120 -28t-120 28zM150.5 769.5
q-3.5 3.5 -3.5 8.5v71q0 5 3.5 8.5t8.5 3.5h233q5 0 8.5 -3.5t3.5 -8.5v-71q0 -5 -3.5 -8.5t-8.5 -3.5h-233q-5 0 -8.5 3.5z" />
    <glyph glyph-name="umacron" unicode="&#x16b;" horiz-adv-x="497" 
d="M313.5 510.5q3.5 3.5 8.5 3.5h117q5 0 8.5 -3.5t3.5 -8.5v-490q0 -5 -3.5 -8.5t-8.5 -3.5h-117q-5 0 -8.5 3.5t-3.5 8.5v25q0 3 -2 3.5t-4 -1.5q-34 -46 -107 -46q-68 0 -112 41t-44 121v347q0 5 3.5 8.5t8.5 3.5h117q5 0 8.5 -3.5t3.5 -8.5v-314q0 -35 16.5 -55
t46.5 -20t47.5 21t17.5 56v312q0 5 3.5 8.5zM120.5 583.5q-3.5 3.5 -3.5 8.5v71q0 5 3.5 8.5t8.5 3.5h233q5 0 8.5 -3.5t3.5 -8.5v-71q0 -5 -3.5 -8.5t-8.5 -3.5h-233q-5 0 -8.5 3.5z" />
    <glyph glyph-name="Ubreve" unicode="&#x16c;" horiz-adv-x="554" 
d="M157 20q-52 28 -80.5 78.5t-28.5 116.5v473q0 5 3.5 8.5t8.5 3.5h117q5 0 8.5 -3.5t3.5 -8.5v-480q0 -43 24 -69t64 -26t64 26t24 69v480q0 5 3.5 8.5t8.5 3.5h117q5 0 8.5 -3.5t3.5 -8.5v-473q0 -66 -28.5 -116.5t-80.5 -78.5t-120 -28t-120 28zM182 781q-38 30 -43 79
v2q0 10 11 10h56q10 0 12 -11q4 -20 20.5 -33t39.5 -13t39.5 13t20.5 33q2 11 12 11h55q13 0 11 -11q-4 -49 -42 -79.5t-96 -30.5t-96 30z" />
    <glyph glyph-name="ubreve" unicode="&#x16d;" horiz-adv-x="497" 
d="M313.5 510.5q3.5 3.5 8.5 3.5h117q5 0 8.5 -3.5t3.5 -8.5v-490q0 -5 -3.5 -8.5t-8.5 -3.5h-117q-5 0 -8.5 3.5t-3.5 8.5v25q0 3 -2 3.5t-4 -1.5q-34 -46 -107 -46q-68 0 -112 41t-44 121v347q0 5 3.5 8.5t8.5 3.5h117q5 0 8.5 -3.5t3.5 -8.5v-314q0 -35 16.5 -55
t46.5 -20t47.5 21t17.5 56v312q0 5 3.5 8.5zM151 596q-38 30 -43 79v2q0 10 11 10h56q10 0 12 -11q4 -20 20.5 -33t39.5 -13t39.5 13t20.5 33q2 11 12 11h55q13 0 11 -11q-4 -49 -42 -79.5t-96 -30.5t-96 30z" />
    <glyph glyph-name="Uring" unicode="&#x16e;" horiz-adv-x="554" 
d="M157 20q-52 28 -80.5 78.5t-28.5 116.5v473q0 5 3.5 8.5t8.5 3.5h117q5 0 8.5 -3.5t3.5 -8.5v-480q0 -43 24 -69t64 -26t64 26t24 69v480q0 5 3.5 8.5t8.5 3.5h117q5 0 8.5 -3.5t3.5 -8.5v-473q0 -66 -28.5 -116.5t-80.5 -78.5t-120 -28t-120 28zM188.5 785
q-35.5 36 -35.5 88q0 53 35.5 88.5t88.5 35.5q52 0 88 -35.5t36 -88.5q0 -52 -36 -88t-88 -36q-53 0 -88.5 36zM312 837.5q15 14.5 15 35.5q0 22 -15 36.5t-35 14.5q-21 0 -35.5 -14.5t-14.5 -36.5q0 -21 15 -35.5t35 -14.5t35 14.5z" />
    <glyph glyph-name="uring" unicode="&#x16f;" horiz-adv-x="497" 
d="M313.5 510.5q3.5 3.5 8.5 3.5h117q5 0 8.5 -3.5t3.5 -8.5v-490q0 -5 -3.5 -8.5t-8.5 -3.5h-117q-5 0 -8.5 3.5t-3.5 8.5v25q0 3 -2 3.5t-4 -1.5q-34 -46 -107 -46q-68 0 -112 41t-44 121v347q0 5 3.5 8.5t8.5 3.5h117q5 0 8.5 -3.5t3.5 -8.5v-314q0 -35 16.5 -55
t46.5 -20t47.5 21t17.5 56v312q0 5 3.5 8.5zM157.5 599q-35.5 36 -35.5 88q0 53 35.5 88.5t88.5 35.5q52 0 88 -35.5t36 -88.5q0 -52 -36 -88t-88 -36q-53 0 -88.5 36zM281 651.5q15 14.5 15 35.5q0 22 -15 36.5t-35 14.5q-21 0 -35.5 -14.5t-14.5 -36.5q0 -21 15 -35.5
t35 -14.5t35 14.5z" />
    <glyph glyph-name="Uhungarumlaut" unicode="&#x170;" horiz-adv-x="554" 
d="M157 20q-52 28 -80.5 78.5t-28.5 116.5v473q0 5 3.5 8.5t8.5 3.5h117q5 0 8.5 -3.5t3.5 -8.5v-480q0 -43 24 -69t64 -26t64 26t24 69v480q0 5 3.5 8.5t8.5 3.5h117q5 0 8.5 -3.5t3.5 -8.5v-473q0 -66 -28.5 -116.5t-80.5 -78.5t-120 -28t-120 28zM144.5 765.5
q-2.5 3.5 0.5 10.5l47 101q4 9 14 9h99q7 0 9.5 -4t-0.5 -10l-53 -101q-5 -9 -15 -9h-92q-7 0 -9.5 3.5zM312.5 766q-2.5 4 0.5 10l53 101q4 9 15 9h93q7 0 9 -4t-1 -10l-53 -101q-5 -9 -15 -9h-92q-7 0 -9.5 4z" />
    <glyph glyph-name="uhungarumlaut" unicode="&#x171;" horiz-adv-x="497" 
d="M313.5 510.5q3.5 3.5 8.5 3.5h117q5 0 8.5 -3.5t3.5 -8.5v-490q0 -5 -3.5 -8.5t-8.5 -3.5h-117q-5 0 -8.5 3.5t-3.5 8.5v25q0 3 -2 3.5t-4 -1.5q-34 -46 -107 -46q-68 0 -112 41t-44 121v347q0 5 3.5 8.5t8.5 3.5h117q5 0 8.5 -3.5t3.5 -8.5v-314q0 -35 16.5 -55
t46.5 -20t47.5 21t17.5 56v312q0 5 3.5 8.5zM113.5 579.5q-2.5 3.5 0.5 10.5l47 101q4 9 14 9h99q7 0 9.5 -4t-0.5 -10l-53 -101q-5 -9 -15 -9h-92q-7 0 -9.5 3.5zM281.5 580q-2.5 4 0.5 10l53 101q4 9 15 9h93q7 0 9 -4t-1 -10l-53 -101q-5 -9 -15 -9h-92q-7 0 -9.5 4z" />
    <glyph glyph-name="Uogonek" unicode="&#x172;" horiz-adv-x="554" 
d="M368.5 696.5q3.5 3.5 8.5 3.5h117q5 0 8.5 -3.5t3.5 -8.5v-473q0 -89 -50.5 -148t-135.5 -72q-2 0 -6 -2q-37 -37 -37 -63q0 -16 8.5 -24.5t22.5 -8.5q4 0 12 2q2 1 6 1q8 0 9 -9l7 -48v-3q0 -8 -9 -12q-28 -8 -54 -8q-32 0 -57 14t-33 48q-4 18 -4 26q0 41 37 83
q4 4 -2 6q-79 17 -125.5 74.5t-46.5 143.5v473q0 5 3.5 8.5t8.5 3.5h117q5 0 8.5 -3.5t3.5 -8.5v-480q0 -43 24 -69t64 -26t64 26t24 69v480q0 5 3.5 8.5z" />
    <glyph glyph-name="uogonek" unicode="&#x173;" horiz-adv-x="497" 
d="M441 -111q8 0 9 -9l7 -48v-3q0 -9 -9 -12q-25 -9 -55 -9q-33 0 -57.5 14.5t-32.5 48.5q-3 13 -3 26q0 51 50 97q2 2 1.5 4t-3.5 2h-26q-5 0 -8.5 3.5t-3.5 8.5v25q0 3 -2 3.5t-4 -1.5q-34 -46 -107 -46q-68 0 -112 41t-44 121v347q0 5 3.5 8.5t8.5 3.5h117q5 0 8.5 -3.5
t3.5 -8.5v-314q0 -35 16.5 -55t46.5 -20t47.5 21t17.5 56v312q0 5 3.5 8.5t8.5 3.5h117q5 0 8.5 -3.5t3.5 -8.5v-502q-1 -2 -6 -6q-25 -19 -39 -38.5t-14 -35.5q0 -7 1 -10q3 -12 11 -18t19 -6q4 0 12 2q2 1 6 1z" />
    <glyph glyph-name="Wcircumflex" unicode="&#x174;" horiz-adv-x="800" 
d="M179 10l-157 677v4q0 9 11 9h123q12 0 13 -11l76 -384q1 -3 3 -3t3 3l73 384q1 11 13 11h111q11 0 13 -11l80 -384q1 -3 3 -3t3 3l72 384q1 11 13 11h118q13 0 10 -13l-146 -676q-2 -11 -13 -11h-113q-11 0 -13 11l-81 402q-1 3 -3 3t-3 -3l-73 -402q-1 -11 -13 -11h-110
q-10 0 -13 10zM247.5 763.5q-2.5 4.5 1.5 10.5l69 104q5 8 14 8h131q9 0 14 -8l70 -104q2 -4 2 -7q0 -8 -10 -8h-87q-11 0 -15 8l-35 59q-3 6 -6 0l-35 -59q-4 -8 -15 -8h-89q-7 0 -9.5 4.5z" />
    <glyph glyph-name="wcircumflex" unicode="&#x175;" horiz-adv-x="698" 
d="M144 10l-125 492v4q0 9 11 9h115q11 0 13 -11l59 -279q1 -4 3 -4t3 4l59 279q2 11 13 11h103q11 0 13 -11l63 -278q1 -4 3 -4t3 4l60 278q2 11 13 11l115 -2q14 0 11 -13l-126 -490q-3 -10 -14 -10h-117q-10 0 -13 10l-61 262q-1 4 -3 4t-3 -4l-56 -261q-2 -11 -13 -11
h-115q-11 0 -14 10zM194.5 577.5q-2.5 4.5 1.5 10.5l69 104q5 8 14 8h131q9 0 14 -8l70 -104q2 -4 2 -7q0 -8 -10 -8h-87q-11 0 -15 8l-35 59q-3 6 -6 0l-35 -59q-4 -8 -15 -8h-89q-7 0 -9.5 4.5z" />
    <glyph glyph-name="Ycircumflex" unicode="&#x176;" horiz-adv-x="546" 
d="M205.5 4.5q-3.5 3.5 -3.5 8.5v256l-1 6l-173 411q-1 2 -1 6q0 8 10 8h126q11 0 14 -10l93 -253q1 -3 3 -3t3 3l93 253q3 10 14 10h126q7 0 9 -4t0 -10l-174 -411l-1 -6v-256q0 -5 -3.5 -8.5t-8.5 -3.5h-117q-5 0 -8.5 3.5zM121.5 763.5q-2.5 4.5 1.5 10.5l69 104
q5 8 14 8h131q9 0 14 -8l70 -104q2 -4 2 -7q0 -8 -10 -8h-87q-11 0 -15 8l-35 59q-3 6 -6 0l-35 -59q-4 -8 -15 -8h-89q-7 0 -9.5 4.5z" />
    <glyph glyph-name="ycircumflex" unicode="&#x177;" horiz-adv-x="463" 
d="M39 -195.5q-2 3.5 -2 8.5v92q0 12 11 12q57 1 81.5 16.5t31.5 63.5l-1 6l-144 498l-1 4q0 10 11 10h126q11 0 13 -11l65 -311q1 -4 3 -4t3 4l65 311q2 11 13 11l124 -1q6 0 8.5 -3.5t1.5 -9.5l-153 -520q-22 -73 -46.5 -109.5t-69.5 -53.5t-129 -17h-6q-3 0 -5 3.5z
M79.5 582.5q-2.5 4.5 1.5 10.5l69 104q5 8 14 8h131q9 0 14 -8l70 -104q2 -4 2 -7q0 -8 -10 -8h-87q-11 0 -15 8l-35 59q-3 6 -6 0l-35 -59q-4 -8 -15 -8h-89q-7 0 -9.5 4.5z" />
    <glyph glyph-name="Ydieresis" unicode="&#x178;" horiz-adv-x="546" 
d="M205.5 4.5q-3.5 3.5 -3.5 8.5v256l-1 6l-173 411q-1 2 -1 6q0 8 10 8h126q11 0 14 -10l93 -253q1 -3 3 -3t3 3l93 253q3 10 14 10h126q7 0 9 -4t0 -10l-174 -411l-1 -6v-256q0 -5 -3.5 -8.5t-8.5 -3.5h-117q-5 0 -8.5 3.5zM311.5 783.5q-22.5 22.5 -22.5 56.5q0 35 22 57
t57 22t57 -22t22 -57q0 -34 -22.5 -56.5t-56.5 -22.5t-56.5 22.5zM119.5 783.5q-22.5 22.5 -22.5 56.5q0 35 22 57t57 22t57 -22t22 -57q0 -34 -22.5 -56.5t-56.5 -22.5t-56.5 22.5z" />
    <glyph glyph-name="Zacute" unicode="&#x179;" horiz-adv-x="485" 
d="M29.5 3.5q-3.5 3.5 -3.5 8.5v105q0 8 4 15l268 441q3 6 -3 6h-257q-5 0 -8.5 3.5t-3.5 8.5v97q0 5 3.5 8.5t8.5 3.5h404q5 0 8.5 -3.5t3.5 -8.5v-105q0 -8 -4 -15l-268 -441q-3 -6 3 -6h257q5 0 8.5 -3.5t3.5 -8.5v-97q0 -5 -3.5 -8.5t-8.5 -3.5h-404q-5 0 -8.5 3.5z
M177 766q-2 4 1 10l57 102q5 8 15 8h96q8 0 10 -4.5t-2 -10.5l-74 -102q-5 -7 -14 -7h-80q-7 0 -9 4z" />
    <glyph glyph-name="zacute" unicode="&#x17a;" horiz-adv-x="416" 
d="M24.5 3.5q-3.5 3.5 -3.5 8.5v108q0 8 5 15l190 246q2 2 1 4t-4 2h-174q-5 0 -8.5 3.5t-3.5 8.5v103q0 5 3.5 8.5t8.5 3.5h338q5 0 8.5 -3.5t3.5 -8.5v-107q0 -8 -5 -15l-197 -246q-2 -2 -1 -4t4 -2h192q5 0 8.5 -3.5t3.5 -8.5v-104q0 -5 -3.5 -8.5t-8.5 -3.5h-349
q-5 0 -8.5 3.5zM142 580q-2 4 1 10l57 102q5 8 15 8h96q8 0 10 -4.5t-2 -10.5l-74 -102q-5 -7 -14 -7h-80q-7 0 -9 4z" />
    <glyph glyph-name="Zdotaccent" unicode="&#x17b;" horiz-adv-x="485" 
d="M29.5 3.5q-3.5 3.5 -3.5 8.5v105q0 8 4 15l268 441q3 6 -3 6h-257q-5 0 -8.5 3.5t-3.5 8.5v97q0 5 3.5 8.5t8.5 3.5h404q5 0 8.5 -3.5t3.5 -8.5v-105q0 -8 -4 -15l-268 -441q-3 -6 3 -6h257q5 0 8.5 -3.5t3.5 -8.5v-97q0 -5 -3.5 -8.5t-8.5 -3.5h-404q-5 0 -8.5 3.5z
M184.5 780.5q-22.5 22.5 -22.5 56.5q0 35 22 57t57 22t57 -22t22 -57q0 -34 -22.5 -56.5t-56.5 -22.5t-56.5 22.5z" />
    <glyph glyph-name="zdotaccent" unicode="&#x17c;" horiz-adv-x="416" 
d="M24.5 3.5q-3.5 3.5 -3.5 8.5v108q0 8 5 15l190 246q2 2 1 4t-4 2h-174q-5 0 -8.5 3.5t-3.5 8.5v103q0 5 3.5 8.5t8.5 3.5h338q5 0 8.5 -3.5t3.5 -8.5v-107q0 -8 -5 -15l-197 -246q-2 -2 -1 -4t4 -2h192q5 0 8.5 -3.5t3.5 -8.5v-104q0 -5 -3.5 -8.5t-8.5 -3.5h-349
q-5 0 -8.5 3.5zM150.5 594.5q-22.5 22.5 -22.5 56.5q0 35 22 57t57 22t57 -22t22 -57q0 -34 -22.5 -56.5t-56.5 -22.5t-56.5 22.5z" />
    <glyph glyph-name="Zcaron" unicode="&#x17d;" horiz-adv-x="485" 
d="M29.5 3.5q-3.5 3.5 -3.5 8.5v105q0 8 4 15l268 441q3 6 -3 6h-257q-5 0 -8.5 3.5t-3.5 8.5v97q0 5 3.5 8.5t8.5 3.5h404q5 0 8.5 -3.5t3.5 -8.5v-105q0 -8 -4 -15l-268 -441q-3 -6 3 -6h257q5 0 8.5 -3.5t3.5 -8.5v-97q0 -5 -3.5 -8.5t-8.5 -3.5h-404q-5 0 -8.5 3.5z
M95 878q0 8 10 8h89q11 0 15 -8l35 -59q3 -6 6 0l35 59q4 8 15 8h88q7 0 9 -4.5t-2 -10.5l-70 -104q-5 -8 -14 -8h-131q-9 0 -14 8l-69 104q-2 4 -2 7z" />
    <glyph glyph-name="zcaron" unicode="&#x17e;" horiz-adv-x="416" 
d="M24.5 3.5q-3.5 3.5 -3.5 8.5v108q0 8 5 15l190 246q2 2 1 4t-4 2h-174q-5 0 -8.5 3.5t-3.5 8.5v103q0 5 3.5 8.5t8.5 3.5h338q5 0 8.5 -3.5t3.5 -8.5v-107q0 -8 -5 -15l-197 -246q-2 -2 -1 -4t4 -2h192q5 0 8.5 -3.5t3.5 -8.5v-104q0 -5 -3.5 -8.5t-8.5 -3.5h-349
q-5 0 -8.5 3.5zM60 692q0 8 10 8h89q11 0 15 -8l35 -59q3 -6 6 0l35 59q4 8 15 8h88q7 0 9 -4.5t-2 -10.5l-70 -104q-5 -8 -14 -8h-131q-9 0 -14 8l-69 104q-2 4 -2 7z" />
    <glyph glyph-name="uni018F" unicode="&#x18f;" horiz-adv-x="598" 
d="M557 338q0 -86 -8 -142q-14 -95 -79.5 -151t-170.5 -56q-116 0 -183.5 63.5t-75.5 170.5q-4 44 -4 100l1 51q0 12 12 12h362q5 0 5 5q-1 37 -7 67q-8 47 -40 74.5t-83 27.5q-42 -1 -72 -23.5t-45 -59.5q-5 -11 -15 -7l-98 35q-11 5 -8 15q23 77 86 119t159 42
q104 0 170.5 -53.5t82.5 -148.5q11 -62 11 -141zM375 139q30 28 36 75q3 19 5 55q0 5 -5 5h-227q-5 0 -5 -5q0 -29 3 -53q6 -47 37.5 -76t78.5 -29t77 28z" />
    <glyph glyph-name="florin" unicode="&#x192;" horiz-adv-x="516" 
d="M264.5 641q21.5 33 62.5 47.5t111 14.5q26 0 40 -1q12 -1 12 -13v-81q0 -5 -3.5 -8.5t-8.5 -3.5h-40q-30 -1 -45.5 -17t-20.5 -50l-17 -104q0 -5 4 -5h66q5 0 8.5 -3.5t3.5 -8.5v-89q0 -5 -3.5 -8.5t-8.5 -3.5h-84q-6 0 -6 -5l-56 -350q-9 -59 -31 -92t-63.5 -48
t-112.5 -15q-25 0 -38 1q-12 1 -12 13l1 81q0 5 3.5 8.5t8.5 3.5h38q29 1 45.5 17t21.5 50l53 331q0 5 -4 5h-53q-5 0 -8.5 3.5t-3.5 8.5v89q0 5 3.5 8.5t8.5 3.5h71q6 0 6 5l20 123q10 60 31.5 93z" />
    <glyph glyph-name="Ohorn" unicode="&#x1a0;" horiz-adv-x="547" 
d="M443 645q63 -60 63 -162v-266q0 -68 -29 -119t-82 -79t-122 -28t-121.5 28t-81.5 79t-29 119v266q0 67 29 118t81.5 79t121.5 28q44 0 86 -13q2 -1 6 3q1 1 9 3q56 9 61 73q0 12 12 12h56q5 0 8.5 -4.5t2.5 -12.5q-4 -42 -22.5 -71.5t-47.5 -45.5q-5 -3 -1 -7zM365 487
q0 45 -25 72.5t-67 27.5q-41 0 -66 -27.5t-25 -72.5v-276q0 -44 25 -71.5t66 -27.5q42 0 67 27.5t25 71.5v276z" />
    <glyph glyph-name="ohorn" unicode="&#x1a1;" horiz-adv-x="496" 
d="M467 258q0 -56 -8 -102q-11 -77 -65.5 -120.5t-141.5 -43.5t-142.5 43.5t-66.5 119.5q-8 46 -8 103q0 58 8 103q11 74 66.5 117.5t142.5 43.5q30 0 63 -7q2 -1 6 -1q23 4 40 21t20 53q0 12 12 12h56q12 0 12 -12q-4 -75 -56 -112q-5 -3 -1 -6q44 -43 55 -109
q8 -45 8 -103zM326 258q0 41 -5 81q-5 29 -23.5 45.5t-46.5 16.5q-27 0 -45.5 -16.5t-23.5 -45.5q-5 -30 -5 -81q0 -50 4 -82q6 -29 25 -46t46 -17q26 0 44.5 17t24.5 46q5 42 5 82z" />
    <glyph glyph-name="Uhorn" unicode="&#x1af;" horiz-adv-x="554" 
d="M605 774q-4 -53 -30 -86t-65 -46q-4 -1 -4 -5v-422q0 -66 -28.5 -116.5t-80.5 -78.5t-120 -28t-120 28t-80.5 78.5t-28.5 116.5v473q0 5 3.5 8.5t8.5 3.5h117q5 0 8.5 -3.5t3.5 -8.5v-480q0 -43 24 -69t64 -26t64 26t24 69v480q0 5 3.5 8.5t8.5 3.5h76q26 0 47.5 16
t24.5 58q0 12 12 12h56q12 0 12 -12z" />
    <glyph glyph-name="uhorn" unicode="&#x1b0;" horiz-adv-x="497" 
d="M542 588q-3 -50 -26.5 -82t-60.5 -47q-4 -1 -4 -5v-442q0 -5 -3.5 -8.5t-8.5 -3.5h-117q-5 0 -8.5 3.5t-3.5 8.5v25q0 3 -2 3.5t-4 -1.5q-34 -46 -107 -46q-68 0 -112 41t-44 121v347q0 5 3.5 8.5t8.5 3.5h117q5 0 8.5 -3.5t3.5 -8.5v-314q0 -35 16.5 -55t46.5 -20
t47.5 21t17.5 56v312q0 5 3.5 8.5t8.5 3.5h69q26 0 47 16.5t24 57.5q0 12 12 12h56q12 0 12 -12z" />
    <glyph glyph-name="uni01CD" unicode="&#x1cd;" horiz-adv-x="577" 
d="M409 10l-23 98q-1 4 -5 4h-187q-4 0 -5 -4l-23 -98q-3 -10 -13 -10h-121q-13 0 -10 13l180 677q3 10 14 10h145q11 0 14 -10l180 -677l1 -4q0 -9 -11 -9h-122q-11 0 -14 10zM217 222.5q2 -1.5 4 -1.5h132q2 0 4 1.5t1 4.5l-69 290q-1 4 -3 4t-3 -4l-67 -290q-1 -3 1 -4.5
zM140 877q0 8 10 8h89q11 0 15 -8l35 -59q3 -6 6 0l35 59q4 8 15 8h88q7 0 9 -4.5t-2 -10.5l-70 -104q-5 -8 -14 -8h-131q-9 0 -14 8l-69 104q-2 4 -2 7z" />
    <glyph glyph-name="uni01CE" unicode="&#x1ce;" horiz-adv-x="486" 
d="M348 500.5q47 -21.5 73.5 -60t26.5 -87.5v-341q0 -5 -3.5 -8.5t-8.5 -3.5h-117q-5 0 -8.5 3.5t-3.5 8.5v28q0 3 -2 4t-4 -2q-38 -50 -118 -50q-68 0 -113.5 35t-45.5 117q0 163 204 163h74q5 0 5 5v23q0 30 -17.5 48t-47.5 18q-24 0 -40 -11t-20 -30q-3 -10 -14 -10
l-121 7q-5 0 -8.5 3t-2.5 8q6 69 62.5 111.5t142.5 42.5q60 0 107 -21.5zM283 118q24 19 24 50v42q0 5 -5 5h-56q-37 0 -58 -16t-21 -46q0 -26 16 -40t42 -14q34 0 58 19zM96 691q0 8 10 8h89q11 0 15 -8l35 -59q3 -6 6 0l35 59q4 8 15 8h88q7 0 9 -4.5t-2 -10.5l-70 -104
q-5 -8 -14 -8h-131q-9 0 -14 8l-69 104q-2 4 -2 7z" />
    <glyph glyph-name="uni01D4" unicode="&#x1d4;" horiz-adv-x="497" 
d="M313.5 510.5q3.5 3.5 8.5 3.5h117q5 0 8.5 -3.5t3.5 -8.5v-490q0 -5 -3.5 -8.5t-8.5 -3.5h-117q-5 0 -8.5 3.5t-3.5 8.5v25q0 3 -2 3.5t-4 -1.5q-34 -46 -107 -46q-68 0 -112 41t-44 121v347q0 5 3.5 8.5t8.5 3.5h117q5 0 8.5 -3.5t3.5 -8.5v-314q0 -35 16.5 -55
t46.5 -20t47.5 21t17.5 56v312q0 5 3.5 8.5zM99 691q0 8 10 8h89q11 0 15 -8l35 -59q3 -6 6 0l35 59q4 8 15 8h88q7 0 9 -4.5t-2 -10.5l-70 -104q-5 -8 -14 -8h-131q-9 0 -14 8l-69 104q-2 4 -2 7z" />
    <glyph glyph-name="uni01E5" unicode="&#x1e5;" horiz-adv-x="516" 
d="M508.5 297.5q3.5 -3.5 3.5 -8.5v-60q0 -5 -3.5 -8.5t-8.5 -3.5h-38q-5 0 -5 -5v-177q0 -120 -66.5 -178.5t-190.5 -58.5q-27 0 -57 3q-12 1 -12 13l3 101q0 11 13 11q15 -2 42 -2q67 0 97 28.5t30 90.5v0q0 3 -2 4t-4 -2q-37 -43 -102 -43t-110 38t-57 113q-7 26 -7 106
t9 112q11 71 53 111t109 40q66 0 105 -45q2 -3 4 -2t2 4v23q0 5 3.5 8.5t8.5 3.5h117q5 0 8.5 -3.5t3.5 -8.5v-196q0 -5 5 -5h38q5 0 8.5 -3.5zM291 135q17 16 21 42q3 17 3 35q0 5 -5 5h-64q-5 0 -8.5 3.5t-3.5 8.5v60q0 5 3.5 8.5t8.5 3.5h64q5 0 5 5q0 18 -3 36
q-5 27 -22 43t-43 16q-25 0 -42.5 -16.5t-22.5 -42.5q-6 -36 -6 -83q0 -44 5 -81q5 -27 22.5 -43t44.5 -16q26 0 43 16z" />
    <glyph glyph-name="gcaron" unicode="&#x1e7;" horiz-adv-x="498" 
d="M319.5 510.5q3.5 3.5 8.5 3.5h117q5 0 8.5 -3.5t3.5 -8.5v-467q0 -120 -66.5 -178.5t-190.5 -58.5q-27 0 -57 3q-12 1 -12 13l3 101q0 11 13 11q15 -2 42 -2q67 0 97 28.5t30 90.5v0q0 3 -2 4t-4 -2q-37 -43 -102 -43t-110 38t-57 113q-7 26 -7 106t9 112q11 71 53 111
t109 40q66 0 105 -45q2 -3 4 -2t2 4v23q0 5 3.5 8.5zM316 259q0 51 -4 83q-5 27 -22 43t-43 16q-25 0 -42.5 -16.5t-22.5 -42.5q-6 -36 -6 -83q0 -44 5 -81q5 -27 22.5 -43t44.5 -16q26 0 43 16t21 42q4 32 4 82zM109 691q0 8 10 8h89q11 0 15 -8l35 -59q3 -6 6 0l35 59
q4 8 15 8h88q7 0 9 -4.5t-2 -10.5l-70 -104q-5 -8 -14 -8h-131q-9 0 -14 8l-69 104q-2 4 -2 7z" />
    <glyph glyph-name="uni01E9" unicode="&#x1e9;" horiz-adv-x="491" 
d="M48.5 3.5q-3.5 3.5 -3.5 8.5v676q0 5 3.5 8.5t8.5 3.5h117q5 0 8.5 -3.5t3.5 -8.5v-334q0 -3 2 -4t4 2l112 155q5 7 14 7h127q10 0 10 -7q0 -3 -3 -8l-118 -164q-2 -3 0 -7l136 -314q1 -2 1 -6q0 -8 -10 -8h-123q-11 0 -14 10l-81 215q-1 3 -3 3t-4 -2l-48 -66
q-2 -4 -2 -6v-142q0 -5 -3.5 -8.5t-8.5 -3.5h-117q-5 0 -8.5 3.5zM93 877q0 8 10 8h89q11 0 15 -8l35 -59q3 -6 6 0l35 59q4 8 15 8h88q7 0 9 -4.5t-2 -10.5l-70 -104q-5 -8 -14 -8h-131q-9 0 -14 8l-69 104q-2 4 -2 7z" />
    <glyph glyph-name="uni01EF" unicode="&#x1ef;" horiz-adv-x="456" 
d="M244 258q0 -2 4 -2q88 -18 132.5 -79t44.5 -140q0 -70 -34.5 -124.5t-95 -84t-133.5 -29.5q-55 0 -114 18q-10 3 -10 14l4 100q0 6 3.5 8.5t9.5 0.5q45 -15 91 -15q61 0 99.5 30t38.5 91q0 51 -30 86.5t-82 35.5q-32 0 -67 -14q-2 -1 -6 -1q-8 0 -11 6l-37 67q-2 4 -2 7
q0 7 5 10l160 137q2 2 1.5 4t-3.5 2h-165q-5 0 -8.5 3.5t-3.5 8.5v104q0 5 3.5 8.5t8.5 3.5h331q5 0 8.5 -3.5t3.5 -8.5v-103q0 -8 -7 -15l-137 -122q-2 -2 -2 -4zM68 691q0 8 10 8h89q11 0 15 -8l35 -59q3 -6 6 0l35 59q4 8 15 8h88q7 0 9 -4.5t-2 -10.5l-70 -104
q-5 -8 -14 -8h-131q-9 0 -14 8l-69 104q-2 4 -2 7z" />
    <glyph glyph-name="oslashacute" unicode="&#x1ff;" horiz-adv-x="488" 
d="M437 428q16 -29 22 -67q9 -42 9 -103q0 -56 -8 -102q-11 -77 -66 -120.5t-142 -43.5q-45 0 -81 12q-4 1 -6 -3l-30 -48q-6 -11 -16 -4l-79 56q-9 8 -3 17l32 54q2 3 0 6q-19 36 -25 73q-8 46 -8 103q0 58 8 103q11 74 66.5 117.5t142.5 43.5q48 0 84 -13q4 -1 6 3l31 49
q7 10 16 4l79 -56q6 -4 6 -9q0 -3 -3 -8l-35 -58q-1 -3 0 -6zM326 258q0 49 -4 81q-6 29 -24.5 45.5t-45.5 16.5q-28 0 -46.5 -16.5t-23.5 -45.5q-5 -40 -5 -81q0 -42 5 -82q5 -29 24 -46t46 -17t45.5 17t23.5 46q5 31 5 82zM180 580q-2 4 1 10l57 102q5 8 15 8h96
q8 0 10 -4.5t-2 -10.5l-74 -102q-5 -7 -14 -7h-80q-7 0 -9 4z" />
    <glyph glyph-name="uni0218" unicode="&#x218;" horiz-adv-x="520" 
d="M142 16.5q-52 24.5 -80.5 69t-28.5 102.5v26q0 5 3.5 8.5t8.5 3.5h115q5 0 8.5 -3.5t3.5 -8.5v-19q0 -35 26 -58.5t70 -23.5q39 0 59.5 20t20.5 51q0 23 -13 39.5t-36.5 31t-72.5 39.5q-60 30 -98 56t-65 67t-27 99t27.5 101.5t77.5 67t114 23.5q67 0 119 -25.5t81 -71.5
t29 -106v-20q0 -5 -3.5 -8.5t-8.5 -3.5h-115q-5 0 -8.5 3.5t-3.5 8.5v18q0 36 -25 60t-68 24q-36 0 -56.5 -18.5t-20.5 -51.5q0 -23 12 -40t37 -32.5t76 -40.5l21 -12q58 -32 90.5 -55.5t54.5 -59.5t22 -87q0 -91 -61.5 -144.5t-163.5 -53.5q-69 0 -121 24.5zM163 -178
q-2 4 1 10l57 102q5 8 15 8h96q8 0 10 -4.5t-2 -10.5l-74 -102q-5 -7 -14 -7h-80q-7 0 -9 4z" />
    <glyph glyph-name="uni0219" unicode="&#x219;" horiz-adv-x="458" 
d="M85 34q-55 41 -55 108v8q0 5 3.5 8.5t8.5 3.5h110q5 0 8.5 -3.5t3.5 -8.5v-2q0 -22 20 -36t49 -14q27 0 43 12.5t16 31.5t-17.5 29t-56.5 23q-16 4 -48 16q-60 20 -97.5 54t-37.5 98q0 73 53 116t140 43q90 0 143.5 -44.5t53.5 -118.5q0 -11 -12 -11h-108q-5 0 -8.5 3.5
t-3.5 8.5v3q0 21 -17 35t-46 14q-27 0 -43.5 -13t-16.5 -32q0 -21 20 -32.5t61 -23.5q9 -3 17.5 -5.5t15.5 -5.5q68 -23 109 -55.5t41 -96.5q0 -72 -54.5 -113t-146.5 -41q-93 0 -148 41zM137 -177q-2 4 1 10l57 102q5 8 15 8h96q8 0 10 -4.5t-2 -10.5l-74 -102
q-5 -7 -14 -7h-80q-7 0 -9 4z" />
    <glyph glyph-name="uni021A" unicode="&#x21a;" horiz-adv-x="526" 
d="M496.5 696.5q3.5 -3.5 3.5 -8.5v-98q0 -5 -3.5 -8.5t-8.5 -3.5h-152q-5 0 -5 -5v-561q0 -5 -3.5 -8.5t-8.5 -3.5h-117q-5 0 -8.5 3.5t-3.5 8.5v561q0 5 -5 5h-147q-5 0 -8.5 3.5t-3.5 8.5v98q0 5 3.5 8.5t8.5 3.5h450q5 0 8.5 -3.5zM127 -171q-2 4 1 10l57 102q5 8 15 8
h96q8 0 10 -4.5t-2 -10.5l-74 -102q-5 -7 -14 -7h-80q-7 0 -9 4z" />
    <glyph glyph-name="uni021B" unicode="&#x21b;" horiz-adv-x="335" 
d="M306.5 411.5q-3.5 -3.5 -8.5 -3.5h-77q-5 0 -5 -5v-225q0 -31 12.5 -44.5t38.5 -12.5h20q5 0 8.5 -3.5t3.5 -8.5v-97q0 -12 -12 -12q-17 -1 -50 -1q-79 0 -117.5 26t-38.5 98v280q0 5 -5 5h-46q-5 0 -8.5 3.5t-3.5 8.5v82q0 5 3.5 8.5t8.5 3.5h46q5 0 5 5v115
q0 5 3.5 8.5t8.5 3.5h111q5 0 8.5 -3.5t3.5 -8.5v-115q0 -5 5 -5h77q5 0 8.5 -3.5t3.5 -8.5v-82q0 -5 -3.5 -8.5zM111 -167q-2 4 1 10l57 102q5 8 15 8h96q8 0 10 -4.5t-2 -10.5l-74 -102q-5 -7 -14 -7h-80q-7 0 -9 4z" />
    <glyph glyph-name="uni021F" unicode="&#x21f;" horiz-adv-x="497" 
d="M413.5 475.5q41.5 -46.5 41.5 -129.5v-334q0 -5 -3.5 -8.5t-8.5 -3.5h-117q-5 0 -8.5 3.5t-3.5 8.5v314q0 35 -17 55t-46 20q-30 0 -47.5 -20.5t-17.5 -55.5v-313q0 -5 -3.5 -8.5t-8.5 -3.5h-117q-5 0 -8.5 3.5t-3.5 8.5v676q0 5 3.5 8.5t8.5 3.5h117q5 0 8.5 -3.5
t3.5 -8.5v-214q0 -3 2 -3.5t5 3.5q36 48 106 48q73 0 114.5 -46.5zM97 877q0 8 10 8h89q11 0 15 -8l35 -59q3 -6 6 0l35 59q4 8 15 8h88q7 0 9 -4.5t-2 -10.5l-70 -104q-5 -8 -14 -8h-131q-9 0 -14 8l-69 104q-2 4 -2 7z" />
    <glyph glyph-name="uni0228" unicode="&#x228;" horiz-adv-x="511" 
d="M475.5 582.5q-3.5 -3.5 -8.5 -3.5h-268q-5 0 -5 -5v-156q0 -5 5 -5h167q5 0 8.5 -3.5t3.5 -8.5v-97q0 -5 -3.5 -8.5t-8.5 -3.5h-167q-5 0 -5 -5v-161q0 -5 5 -5h268q5 0 8.5 -3.5t3.5 -8.5v-97q0 -5 -3.5 -8.5t-8.5 -3.5h-144q-3 0 -3.5 -2t1.5 -4q37 -40 37 -85
q0 -12 -3 -24q-8 -34 -33 -48t-58 -14q-26 0 -54 8q-10 4 -9 15l7 48q1 11 14 8q8 -2 13 -2q13 0 22 8.5t9 24.5q0 30 -40 65q-4 2 -7 2h-154q-5 0 -8.5 3.5t-3.5 8.5v676q0 5 3.5 8.5t8.5 3.5h402q5 0 8.5 -3.5t3.5 -8.5v-97q0 -5 -3.5 -8.5z" />
    <glyph glyph-name="uni0229" unicode="&#x229;" horiz-adv-x="490" 
d="M461 262l-1 -39q0 -12 -12 -12h-265q-5 0 -5 -5q2 -23 4 -34q5 -28 24.5 -44t48.5 -16q49 1 68 45q5 10 15 8l106 -21q12 -3 8 -15q-17 -54 -53.5 -87.5t-89.5 -44.5q-3 0 -3.5 -2t1.5 -4q38 -41 38 -86q0 -12 -3 -24q-15 -63 -91 -63q-26 0 -54 8q-10 4 -9 15l7 48
q1 11 14 8q8 -2 12 -2q14 0 23 8.5t9 25.5q0 28 -39 64q-4 2 -6 2q-68 10 -108.5 49.5t-54.5 104.5q-9 41 -9 125q0 48 6 81q11 76 66 121.5t139 45.5q91 0 148 -51.5t63 -135.5q3 -33 3 -73zM203.5 385q-17.5 -16 -22.5 -44q-3 -18 -3 -38q0 -5 5 -5h130q5 0 5 5
q0 20 -3 38q-4 27 -22 43.5t-45 16.5t-44.5 -16z" />
    <glyph glyph-name="uni0237" unicode="&#x237;" horiz-adv-x="238" 
d="M-58 -192v96q0 13 13 11q52 -1 72.5 19t20.5 65l-1 503q0 5 3.5 8.5t8.5 3.5h118q5 0 8.5 -3.5t3.5 -8.5v-502q0 -77 -18 -120.5t-68.5 -64t-148.5 -19.5q-12 0 -12 12z" />
    <glyph glyph-name="uni0259" unicode="&#x259;" horiz-adv-x="490" 
d="M448 159q-11 -76 -66 -121.5t-138 -45.5q-92 0 -149 51.5t-63 135.5q-3 33 -3 74l1 38q0 12 12 12h265q5 0 5 5q-2 24 -4 35q-5 27 -24 43t-49 16q-48 -1 -68 -44q-5 -9 -15 -8l-105 21q-14 2 -9 14q23 66 73 101.5t124 35.5q89 0 141.5 -40.5t68.5 -115.5q9 -42 9 -109
q2 -56 -6 -98zM287 129q17 16 22 44q3 18 3 38q0 5 -5 5h-130q-5 0 -5 -5q0 -19 3 -37q4 -27 22 -44t45 -17q28 0 45 16z" />
    <glyph glyph-name="uni0292" unicode="&#x292;" horiz-adv-x="456" 
d="M244 258q0 -2 4 -2q88 -18 132.5 -79t44.5 -140q0 -70 -34.5 -124.5t-95 -84t-133.5 -29.5q-55 0 -114 18q-10 3 -10 14l4 100q0 6 3.5 8.5t9.5 0.5q45 -15 91 -15q61 0 99.5 30t38.5 91q0 51 -30 86.5t-82 35.5q-32 0 -67 -14q-2 -1 -6 -1q-8 0 -11 6l-37 67q-2 4 -2 7
q0 7 5 10l160 137q2 2 1.5 4t-3.5 2h-165q-5 0 -8.5 3.5t-3.5 8.5v104q0 5 3.5 8.5t8.5 3.5h331q5 0 8.5 -3.5t3.5 -8.5v-103q0 -8 -7 -15l-137 -122q-2 -2 -2 -4z" />
    <glyph glyph-name="uni02BB" unicode="&#x2bb;" horiz-adv-x="196" 
d="M4 691q0 9 11 9h116q10 0 13 -10l49 -203v-4q0 -9 -11 -9h-88q-11 0 -14 10l-75 202q-1 2 -1 5z" />
    <glyph glyph-name="uni02BC" unicode="&#x2bc;" horiz-adv-x="196" 
d="M191 686l-75 -202q-3 -10 -14 -10h-88q-14 0 -11 13l48 203q3 10 13 10h117q15 0 10 -14z" />
    <glyph glyph-name="circumflex" unicode="&#x2c6;" horiz-adv-x="312" 
d="M23.5 577.5q-2.5 4.5 1.5 10.5l69 104q5 8 14 8h131q9 0 14 -8l70 -104q2 -4 2 -7q0 -8 -10 -8h-87q-11 0 -15 8l-35 59q-3 6 -6 0l-35 -59q-4 -8 -15 -8h-89q-7 0 -9.5 4.5z" />
    <glyph glyph-name="caron" unicode="&#x2c7;" horiz-adv-x="349" 
d="M23 692q0 8 10 8h89q11 0 15 -8l35 -59q3 -6 6 0l35 59q4 8 15 8h88q7 0 9 -4.5t-2 -10.5l-70 -104q-5 -8 -14 -8h-131q-9 0 -14 8l-69 104q-2 4 -2 7z" />
    <glyph glyph-name="uni02C9" unicode="&#x2c9;" horiz-adv-x="257" 
d="M3.5 607.5q-3.5 3.5 -3.5 8.5v71q0 5 3.5 8.5t8.5 3.5h233q5 0 8.5 -3.5t3.5 -8.5v-71q0 -5 -3.5 -8.5t-8.5 -3.5h-233q-5 0 -8.5 3.5z" />
    <glyph glyph-name="breve" unicode="&#x2d8;" horiz-adv-x="311" 
d="M59.5 585q-38.5 31 -42.5 81v2q0 10 11 10h59q10 0 12 -11q4 -20 19.5 -33t37.5 -13t37 13t19 33q2 11 12 11h59q12 0 12 -11q-5 -50 -43 -81.5t-96 -31.5t-96.5 31z" />
    <glyph glyph-name="dotaccent" unicode="&#x2d9;" horiz-adv-x="190" 
d="M38.5 594.5q-22.5 22.5 -22.5 56.5q0 35 22 57t57 22t57 -22t22 -57q0 -34 -22.5 -56.5t-56.5 -22.5t-56.5 22.5z" />
    <glyph glyph-name="ring" unicode="&#x2da;" horiz-adv-x="281" 
d="M51.5 599q-35.5 36 -35.5 88q0 53 35.5 88.5t88.5 35.5q52 0 88 -35.5t36 -88.5q0 -52 -36 -88t-88 -36q-53 0 -88.5 36zM175 651.5q15 14.5 15 35.5q0 22 -15 36.5t-35 14.5q-21 0 -35.5 -14.5t-14.5 -36.5q0 -21 15 -35.5t35 -14.5t35 14.5z" />
    <glyph glyph-name="ogonek" unicode="&#x2db;" horiz-adv-x="160" 
d="M157 -171q0 -9 -9 -12q-25 -9 -55 -9q-33 0 -57.5 14.5t-32.5 48.5q-3 12 -3 25q0 51 49 96l4 4t12 4h64q10 0 10 -6q0 -4 -5 -9q-42 -37 -42 -66q0 -6 1 -9q2 -12 10 -18t20 -6q4 0 12 2q2 1 6 1q8 0 9 -9l7 -48v-3z" />
    <glyph glyph-name="tilde" unicode="&#x2dc;" horiz-adv-x="354" 
d="M203.5 584.5q-12.5 4.5 -31.5 13.5q-5 3 -15 8t-17 7t-14 2q-26 0 -44 -22q-6 -6 -10 -6q-3 0 -7 4l-41 36q-8 8 -4 17q15 31 40.5 48t56.5 17q18 0 33 -5.5t36 -16.5q4 -2 13 -7.5t16.5 -8t15.5 -2.5q28 0 42 21q5 7 10 7q3 0 7 -4l39 -35q8 -8 3 -18q-15 -30 -41.5 -45
t-57.5 -15q-17 0 -29.5 4.5z" />
    <glyph glyph-name="hungarumlaut" unicode="&#x2dd;" horiz-adv-x="398" 
d="M23 588q-2 4 1 10l55 102q5 8 15 8h95q8 0 10 -4.5t-2 -10.5l-73 -102q-5 -7 -14 -7h-78q-7 0 -9 4zM199 588q-2 4 1 10l55 102q5 8 15 8h95q8 0 10 -4.5t-2 -10.5l-73 -102q-5 -7 -14 -7h-78q-7 0 -9 4z" />
    <glyph glyph-name="gravecomb" unicode="&#x300;" 
d="M-12 584q0 -8 -10 -8h-80q-9 0 -14 7l-74 102q-3 5 -3 7q0 8 11 8h96q10 0 15 -8l57 -102q2 -4 2 -6z" />
    <glyph glyph-name="acutecomb" unicode="&#x301;" 
d="M-210 580q-2 4 1 10l57 102q5 8 15 8h96q8 0 10 -4.5t-2 -10.5l-74 -102q-5 -7 -14 -7h-80q-7 0 -9 4z" />
    <glyph glyph-name="uni0302" unicode="&#x302;" 
d="M-325.5 577.5q-2.5 4.5 1.5 10.5l69 104q5 8 14 8h131q9 0 14 -8l70 -104q2 -4 2 -7q0 -8 -10 -8h-87q-11 0 -15 8l-35 59q-3 6 -6 0l-35 -59q-4 -8 -15 -8h-89q-7 0 -9.5 4.5z" />
    <glyph glyph-name="tildecomb" unicode="&#x303;" 
d="M-134.5 584.5q-12.5 4.5 -31.5 13.5q-5 3 -15 8t-17 7t-14 2q-26 0 -44 -22q-6 -6 -10 -6q-3 0 -7 4l-41 36q-8 8 -4 17q15 31 40.5 48t56.5 17q18 0 33 -5.5t36 -16.5q4 -2 13 -7.5t16.5 -8t15.5 -2.5q28 0 42 21q5 7 10 7q3 0 7 -4l39 -35q8 -8 3 -18
q-15 -30 -41.5 -45t-57.5 -15q-17 0 -29.5 4.5z" />
    <glyph glyph-name="uni0304" unicode="&#x304;" 
d="M-253.5 596.5q-3.5 3.5 -3.5 8.5v72q0 5 3.5 8.5t8.5 3.5h233q5 0 8.5 -3.5t3.5 -8.5v-72q0 -5 -3.5 -8.5t-8.5 -3.5h-233q-5 0 -8.5 3.5z" />
    <glyph glyph-name="uni0306" unicode="&#x306;" 
d="M-251 594q-38 30 -43 79v2q0 10 11 10h56q10 0 12 -11q4 -20 20.5 -33t39.5 -13t39.5 13t20.5 33q2 11 12 11h55q13 0 11 -11q-4 -49 -42 -79.5t-96 -30.5t-96 30z" />
    <glyph glyph-name="uni0307" unicode="&#x307;" 
d="M-143.5 594.5q-22.5 22.5 -22.5 56.5q0 35 22 57t57 22t57 -22t22 -57q0 -34 -22.5 -56.5t-56.5 -22.5t-56.5 22.5z" />
    <glyph glyph-name="uni0308" unicode="&#x308;" 
d="M-135.5 597.5q-22.5 22.5 -22.5 56.5q0 35 22 57t57 22t57 -22t22 -57q0 -34 -22.5 -56.5t-56.5 -22.5t-56.5 22.5zM-327.5 597.5q-22.5 22.5 -22.5 56.5q0 35 22 57t57 22t57 -22t22 -57q0 -34 -22.5 -56.5t-56.5 -22.5t-56.5 22.5z" />
    <glyph glyph-name="hookabovecomb" unicode="&#x309;" 
d="M-340 574q7 17 14 27t19 23q10 11 14.5 19t4.5 21q0 10 -8.5 17t-19.5 7q-14 0 -23 -6t-23 -24q-4 -6 -10 -6q-5 0 -8 3l-34 25q-5 3 -5 9q0 4 3 8q23 32 45.5 45.5t57.5 13.5q46 0 72.5 -24.5t26.5 -67.5q0 -23 -9.5 -39t-28.5 -35q-18 -18 -26 -32q-6 -9 -15 -7l-39 8
q-14 3 -8 15z" />
    <glyph glyph-name="uni030A" unicode="&#x30a;" 
d="M-195.5 599q-35.5 36 -35.5 88q0 53 35.5 88.5t88.5 35.5q52 0 88 -35.5t36 -88.5q0 -52 -36 -88t-88 -36q-53 0 -88.5 36zM-72 651.5q15 14.5 15 35.5q0 22 -15 36.5t-35 14.5q-21 0 -35.5 -14.5t-14.5 -36.5q0 -21 15 -35.5t35 -14.5t35 14.5z" />
    <glyph glyph-name="uni030B" unicode="&#x30b;" 
d="M-361.5 579.5q-2.5 3.5 0.5 10.5l47 101q4 9 14 9h99q7 0 9.5 -4t-0.5 -10l-53 -101q-5 -9 -15 -9h-92q-7 0 -9.5 3.5zM-193.5 580q-2.5 4 0.5 10l53 101q4 9 15 9h93q7 0 9 -4t-1 -10l-53 -101q-5 -9 -15 -9h-92q-7 0 -9.5 4z" />
    <glyph glyph-name="uni030C" unicode="&#x30c;" 
d="M-326 692q0 8 10 8h89q11 0 15 -8l35 -59q3 -6 6 0l35 59q4 8 15 8h88q7 0 9 -4.5t-2 -10.5l-70 -104q-5 -8 -14 -8h-131q-9 0 -14 8l-69 104q-2 4 -2 7z" />
    <glyph glyph-name="uni0312" unicode="&#x312;" 
d="M-23 696q2 -4 -1 -10l-56 -102q-5 -8 -15 -8h-97q-10 0 -10 7q0 4 3 8l74 102q5 7 14 7h79q7 0 9 -4z" />
    <glyph glyph-name="uni0313" unicode="&#x313;" 
d="M-193 580q-2 4 1 10l57 102q5 8 15 8h96q8 0 10 -4.5t-2 -10.5l-74 -102q-5 -7 -14 -7h-80q-7 0 -9 4z" />
    <glyph glyph-name="uni031B" unicode="&#x31b;" 
d="M-147 460v42q0 12 12 13q23 3 40 19.5t20 53.5q0 12 12 12h56q5 0 8.5 -4.5t3.5 -12.5q-6 -65 -45 -98t-95 -37q-12 0 -12 12z" />
    <glyph glyph-name="dotbelowcomb" unicode="&#x323;" 
d="M-143.5 -206.5q-21.5 21.5 -21.5 53.5q0 33 21.5 54t54.5 21t54 -20.5t21 -54.5q0 -32 -21.5 -53.5t-53.5 -21.5q-33 0 -54.5 21.5z" />
    <glyph glyph-name="uni0326" unicode="&#x326;" 
d="M-216 -170q-2 4 1 10l57 102q5 8 15 8h96q8 0 10 -4.5t-2 -10.5l-74 -102q-5 -7 -14 -7h-80q-7 0 -9 4z" />
    <glyph glyph-name="uni0327" unicode="&#x327;" 
d="M-156 -168l7 48q1 11 14 8q8 -2 12 -2q13 0 22.5 8.5t9.5 23.5q0 30 -43 67q-5 5 -5 9q0 6 10 6h64q7 0 12 -4q3 -1 4 -4q49 -43 49 -97q0 -12 -3 -24q-8 -34 -32.5 -48.5t-57.5 -14.5q-29 0 -54 9q-10 3 -9 15z" />
    <glyph glyph-name="uni0328" unicode="&#x328;" 
d="M-3 -171q0 -9 -9 -12q-25 -9 -55 -9q-33 0 -57.5 14.5t-32.5 48.5q-3 12 -3 26q0 52 49 95l4 4t12 4h64q10 0 10 -6q0 -5 -6 -9q-41 -35 -41 -65q0 -7 1 -10q2 -12 10 -18t19 -6q5 0 13 2q2 1 6 1q8 0 9 -9l7 -48v-3z" />
    <glyph glyph-name="uni0335" unicode="&#x335;" 
d="M-320.5 637.5q3.5 3.5 8.5 3.5h295q5 0 8.5 -3.5t3.5 -8.5v-60q0 -5 -3.5 -8.5t-8.5 -3.5h-295q-5 0 -8.5 3.5t-3.5 8.5v60q0 5 3.5 8.5z" />
    <glyph glyph-name="uni0336" unicode="&#x336;" 
d="M-554.5 512.5q-3.5 3.5 -3.5 8.5v72q0 5 3.5 8.5t8.5 3.5h534q5 0 8.5 -3.5t3.5 -8.5v-72q0 -5 -3.5 -8.5t-8.5 -3.5h-534q-5 0 -8.5 3.5z" />
    <glyph glyph-name="uni0337" unicode="&#x337;" 
d="M-382 44q-4 0 -9 5l-53 63q-4 6 -4 8q0 4 5 9l430 356q6 4 8 4q4 0 9 -5l53 -63q4 -6 4 -8q0 -4 -5 -9l-430 -356q-6 -4 -8 -4z" />
    <glyph glyph-name="uni0338" unicode="&#x338;" 
d="M-438.5 -33.5q-2.5 3.5 0.5 10.5l356 754q4 9 14 9h52q7 0 9.5 -3.5t-0.5 -10.5l-357 -754q-5 -9 -14 -9h-51q-7 0 -9.5 3.5z" />
    <glyph glyph-name="uni0394" unicode="&#x394;" horiz-adv-x="600" 
d="M21.5 3.5q-3.5 3.5 -3.5 8.5v101q0 6 3 15l224 563q3 9 14 9h81q11 0 14 -9l226 -564q3 -9 3 -15v-100q0 -5 -3.5 -8.5t-8.5 -3.5h-541q-5 0 -8.5 3.5zM161 122h279q6 0 4 6l-141 383q-1 3 -3 3t-3 -3l-140 -383q-1 -6 4 -6z" />
    <glyph glyph-name="uni03A9" unicode="&#x3a9;" horiz-adv-x="565" 
d="M44.5 3.5q-3.5 3.5 -3.5 8.5v97q0 5 3.5 8.5t8.5 3.5h39q3 0 4 2t-1 4q-45 53 -45 131v225q0 67 29 118t82 79t122 28t122 -28t82 -79t29 -118v-225q0 -79 -44 -131q-2 -2 -1.5 -4t3.5 -2h39q5 0 8.5 -3.5t3.5 -8.5v-97q0 -5 -3.5 -8.5t-8.5 -3.5h-197q-5 0 -8.5 3.5
t-3.5 8.5v99q0 10 10 13q27 8 44 34t17 63v267q0 44 -25 71.5t-67 27.5q-41 0 -66.5 -27.5t-25.5 -71.5v-267q0 -36 17 -61.5t43 -34.5q10 -4 10 -14v-99q0 -5 -3.5 -8.5t-8.5 -3.5h-196q-5 0 -8.5 3.5z" />
    <glyph glyph-name="uni03BC" unicode="&#x3bc;" horiz-adv-x="501" 
d="M317.5 510.5q3.5 3.5 8.5 3.5h117q5 0 8.5 -3.5t3.5 -8.5v-490q0 -5 -3.5 -8.5t-8.5 -3.5h-117q-5 0 -8.5 3.5t-3.5 8.5v25q0 3 -2 3.5t-4 -1.5q-34 -46 -107 -46h-10q-5 2 -5 -4v-177q0 -5 -3.5 -8.5t-8.5 -3.5h-117q-5 0 -8.5 3.5t-3.5 8.5v690q0 5 3.5 8.5t8.5 3.5
h117q5 0 8.5 -3.5t3.5 -8.5v-314q0 -35 16.5 -55t46.5 -20t47.5 21t17.5 56v312q0 5 3.5 8.5z" />
    <glyph glyph-name="pi" unicode="&#x3c0;" horiz-adv-x="600" 
d="M570.5 397.5q-3.5 -3.5 -8.5 -3.5h-50q-5 0 -5 -5v-203q0 -30 5.5 -44.5t15 -18.5t25.5 -4h2q10 0 10 -11v-96q0 -12 -12 -12q-30 -2 -51 -2q-62 0 -99.5 22.5t-36.5 88.5v280q0 5 -5 5h-120q-5 0 -5 -5v-377q0 -5 -3.5 -8.5t-8.5 -3.5h-117q-5 0 -8.5 3.5t-3.5 8.5v377
q0 5 -5 5h-52q-5 0 -8.5 3.5t-3.5 8.5v96q0 5 3.5 8.5t8.5 3.5h524q5 0 8.5 -3.5t3.5 -8.5v-96q0 -5 -3.5 -8.5z" />
    <glyph glyph-name="Wgrave" unicode="&#x1e80;" horiz-adv-x="800" 
d="M179 10l-157 677v4q0 9 11 9h123q12 0 13 -11l76 -384q1 -3 3 -3t3 3l73 384q1 11 13 11h111q11 0 13 -11l80 -384q1 -3 3 -3t3 3l72 384q1 11 13 11h118q13 0 10 -13l-146 -676q-2 -11 -13 -11h-113q-11 0 -13 11l-81 402q-1 3 -3 3t-3 -3l-73 -402q-1 -11 -13 -11h-110
q-10 0 -13 10zM448 770q0 -8 -10 -8h-80q-9 0 -14 7l-74 102q-3 5 -3 7q0 8 11 8h96q10 0 15 -8l57 -102q2 -4 2 -6z" />
    <glyph glyph-name="wgrave" unicode="&#x1e81;" horiz-adv-x="698" 
d="M144 10l-125 492v4q0 9 11 9h115q11 0 13 -11l59 -279q1 -4 3 -4t3 4l59 279q2 11 13 11h103q11 0 13 -11l63 -278q1 -4 3 -4t3 4l60 278q2 11 13 11l115 -2q14 0 11 -13l-126 -490q-3 -10 -14 -10h-117q-10 0 -13 10l-61 262q-1 4 -3 4t-3 -4l-56 -261q-2 -11 -13 -11
h-115q-11 0 -14 10zM395 584q0 -8 -10 -8h-80q-9 0 -14 7l-74 102q-3 5 -3 7q0 8 11 8h96q10 0 15 -8l57 -102q2 -4 2 -6z" />
    <glyph glyph-name="Wacute" unicode="&#x1e82;" horiz-adv-x="800" 
d="M179 10l-157 677v4q0 9 11 9h123q12 0 13 -11l76 -384q1 -3 3 -3t3 3l73 384q1 11 13 11h111q11 0 13 -11l80 -384q1 -3 3 -3t3 3l72 384q1 11 13 11h118q13 0 10 -13l-146 -676q-2 -11 -13 -11h-113q-11 0 -13 11l-81 402q-1 3 -3 3t-3 -3l-73 -402q-1 -11 -13 -11h-110
q-10 0 -13 10zM334 766q-2 4 1 10l57 102q5 8 15 8h96q8 0 10 -4.5t-2 -10.5l-74 -102q-5 -7 -14 -7h-80q-7 0 -9 4z" />
    <glyph glyph-name="wacute" unicode="&#x1e83;" horiz-adv-x="698" 
d="M144 10l-125 492v4q0 9 11 9h115q11 0 13 -11l59 -279q1 -4 3 -4t3 4l59 279q2 11 13 11h103q11 0 13 -11l63 -278q1 -4 3 -4t3 4l60 278q2 11 13 11l115 -2q14 0 11 -13l-126 -490q-3 -10 -14 -10h-117q-10 0 -13 10l-61 262q-1 4 -3 4t-3 -4l-56 -261q-2 -11 -13 -11
h-115q-11 0 -14 10zM281 580q-2 4 1 10l57 102q5 8 15 8h96q8 0 10 -4.5t-2 -10.5l-74 -102q-5 -7 -14 -7h-80q-7 0 -9 4z" />
    <glyph glyph-name="Wdieresis" unicode="&#x1e84;" horiz-adv-x="800" 
d="M179 10l-157 677v4q0 9 11 9h123q12 0 13 -11l76 -384q1 -3 3 -3t3 3l73 384q1 11 13 11h111q11 0 13 -11l80 -384q1 -3 3 -3t3 3l72 384q1 11 13 11h118q13 0 10 -13l-146 -676q-2 -11 -13 -11h-113q-11 0 -13 11l-81 402q-1 3 -3 3t-3 -3l-73 -402q-1 -11 -13 -11h-110
q-10 0 -13 10zM437.5 783.5q-22.5 22.5 -22.5 56.5q0 35 22 57t57 22t57 -22t22 -57q0 -34 -22.5 -56.5t-56.5 -22.5t-56.5 22.5zM245.5 783.5q-22.5 22.5 -22.5 56.5q0 35 22 57t57 22t57 -22t22 -57q0 -34 -22.5 -56.5t-56.5 -22.5t-56.5 22.5z" />
    <glyph glyph-name="wdieresis" unicode="&#x1e85;" horiz-adv-x="698" 
d="M144 10l-125 492v4q0 9 11 9h115q11 0 13 -11l59 -279q1 -4 3 -4t3 4l59 279q2 11 13 11h103q11 0 13 -11l63 -278q1 -4 3 -4t3 4l60 278q2 11 13 11l115 -2q14 0 11 -13l-126 -490q-3 -10 -14 -10h-117q-10 0 -13 10l-61 262q-1 4 -3 4t-3 -4l-56 -261q-2 -11 -13 -11
h-115q-11 0 -14 10zM384.5 597.5q-22.5 22.5 -22.5 56.5q0 35 22 57t57 22t57 -22t22 -57q0 -34 -22.5 -56.5t-56.5 -22.5t-56.5 22.5zM192.5 597.5q-22.5 22.5 -22.5 56.5q0 35 22 57t57 22t57 -22t22 -57q0 -34 -22.5 -56.5t-56.5 -22.5t-56.5 22.5z" />
    <glyph glyph-name="uni1EA0" unicode="&#x1ea0;" horiz-adv-x="577" 
d="M409 10l-23 98q-1 4 -5 4h-187q-4 0 -5 -4l-23 -98q-3 -10 -13 -10h-121q-13 0 -10 13l180 677q3 10 14 10h145q11 0 14 -10l180 -677l1 -4q0 -9 -11 -9h-122q-11 0 -14 10zM217 222.5q2 -1.5 4 -1.5h132q2 0 4 1.5t1 4.5l-69 290q-1 4 -3 4t-3 -4l-67 -290q-1 -3 1 -4.5
zM234.5 -206.5q-21.5 21.5 -21.5 53.5q0 33 21.5 54t54.5 21t54 -20.5t21 -54.5q0 -32 -21.5 -53.5t-53.5 -21.5q-33 0 -54.5 21.5z" />
    <glyph glyph-name="uni1EA1" unicode="&#x1ea1;" horiz-adv-x="486" 
d="M348 500.5q47 -21.5 73.5 -60t26.5 -87.5v-341q0 -5 -3.5 -8.5t-8.5 -3.5h-117q-5 0 -8.5 3.5t-3.5 8.5v28q0 3 -2 4t-4 -2q-38 -50 -118 -50q-68 0 -113.5 35t-45.5 117q0 163 204 163h74q5 0 5 5v23q0 30 -17.5 48t-47.5 18q-24 0 -40 -11t-20 -30q-3 -10 -14 -10
l-121 7q-5 0 -8.5 3t-2.5 8q6 69 62.5 111.5t142.5 42.5q60 0 107 -21.5zM283 118q24 19 24 50v42q0 5 -5 5h-56q-37 0 -58 -16t-21 -46q0 -26 16 -40t42 -14q34 0 58 19zM189.5 -206.5q-21.5 21.5 -21.5 53.5q0 33 21.5 54t54.5 21t54 -20.5t21 -54.5q0 -32 -21.5 -53.5
t-53.5 -21.5q-33 0 -54.5 21.5z" />
    <glyph glyph-name="uni1EA2" unicode="&#x1ea2;" horiz-adv-x="577" 
d="M409 10l-23 98q-1 4 -5 4h-187q-4 0 -5 -4l-23 -98q-3 -10 -13 -10h-121q-13 0 -10 13l180 677q3 10 14 10h145q11 0 14 -10l180 -677l1 -4q0 -9 -11 -9h-122q-11 0 -14 10zM217 222.5q2 -1.5 4 -1.5h132q2 0 4 1.5t1 4.5l-69 290q-1 4 -3 4t-3 -4l-67 -290q-1 -3 1 -4.5
zM266 760q7 17 14 27t19 23q10 11 14.5 19t4.5 21q0 10 -8.5 17t-19.5 7q-14 0 -23 -6t-23 -24q-4 -6 -10 -6q-5 0 -8 3l-34 25q-5 3 -5 9q0 4 3 8q23 32 45.5 45.5t57.5 13.5q46 0 72.5 -24.5t26.5 -67.5q0 -23 -9.5 -39t-28.5 -35q-18 -18 -26 -32q-6 -9 -15 -7l-39 8
q-14 3 -8 15z" />
    <glyph glyph-name="uni1EA3" unicode="&#x1ea3;" horiz-adv-x="486" 
d="M348 500.5q47 -21.5 73.5 -60t26.5 -87.5v-341q0 -5 -3.5 -8.5t-8.5 -3.5h-117q-5 0 -8.5 3.5t-3.5 8.5v28q0 3 -2 4t-4 -2q-38 -50 -118 -50q-68 0 -113.5 35t-45.5 117q0 163 204 163h74q5 0 5 5v23q0 30 -17.5 48t-47.5 18q-24 0 -40 -11t-20 -30q-3 -10 -14 -10
l-121 7q-5 0 -8.5 3t-2.5 8q6 69 62.5 111.5t142.5 42.5q60 0 107 -21.5zM283 118q24 19 24 50v42q0 5 -5 5h-56q-37 0 -58 -16t-21 -46q0 -26 16 -40t42 -14q34 0 58 19zM222 574q7 17 14 27t19 23q10 11 14.5 19t4.5 21q0 10 -8.5 17t-19.5 7q-14 0 -23 -6t-23 -24
q-4 -6 -10 -6q-5 0 -8 3l-34 25q-5 3 -5 9q0 4 3 8q23 32 45.5 45.5t57.5 13.5q46 0 72.5 -24.5t26.5 -67.5q0 -23 -9.5 -39t-28.5 -35q-18 -18 -26 -32q-6 -9 -15 -7l-39 8q-14 3 -8 15z" />
    <glyph glyph-name="uni1EA4" unicode="&#x1ea4;" horiz-adv-x="577" 
d="M409 10l-23 98q-1 4 -5 4h-187q-4 0 -5 -4l-23 -98q-3 -10 -13 -10h-121q-13 0 -10 13l180 677q3 10 14 10h145q11 0 14 -10l180 -677l1 -4q0 -9 -11 -9h-122q-11 0 -14 10zM217 222.5q2 -1.5 4 -1.5h132q2 0 4 1.5t1 4.5l-69 290q-1 4 -3 4t-3 -4l-67 -290q-1 -3 1 -4.5
zM135.5 763.5q-2.5 4.5 1.5 10.5l69 104q5 8 14 8h131q9 0 14 -8l70 -104q2 -4 2 -7q0 -8 -10 -8h-87q-11 0 -15 8l-35 59q-3 6 -6 0l-35 -59q-4 -8 -15 -8h-89q-7 0 -9.5 4.5zM430 844q-2 4 1 10l57 102q5 8 15 8h96q8 0 10 -4.5t-2 -10.5l-74 -102q-5 -7 -14 -7h-80
q-7 0 -9 4z" />
    <glyph glyph-name="uni1EA5" unicode="&#x1ea5;" horiz-adv-x="486" 
d="M348 500.5q47 -21.5 73.5 -60t26.5 -87.5v-341q0 -5 -3.5 -8.5t-8.5 -3.5h-117q-5 0 -8.5 3.5t-3.5 8.5v28q0 3 -2 4t-4 -2q-38 -50 -118 -50q-68 0 -113.5 35t-45.5 117q0 163 204 163h74q5 0 5 5v23q0 30 -17.5 48t-47.5 18q-24 0 -40 -11t-20 -30q-3 -10 -14 -10
l-121 7q-5 0 -8.5 3t-2.5 8q6 69 62.5 111.5t142.5 42.5q60 0 107 -21.5zM283 118q24 19 24 50v42q0 5 -5 5h-56q-37 0 -58 -16t-21 -46q0 -26 16 -40t42 -14q34 0 58 19zM91.5 577.5q-2.5 4.5 1.5 10.5l69 104q5 8 14 8h131q9 0 14 -8l70 -104q2 -4 2 -7q0 -8 -10 -8h-87
q-11 0 -15 8l-35 59q-3 6 -6 0l-35 -59q-4 -8 -15 -8h-89q-7 0 -9.5 4.5zM386 658q-2 4 1 10l57 102q5 8 15 8h96q8 0 10 -4.5t-2 -10.5l-74 -102q-5 -7 -14 -7h-80q-7 0 -9 4z" />
    <glyph glyph-name="uni1EA6" unicode="&#x1ea6;" horiz-adv-x="577" 
d="M409 10l-23 98q-1 4 -5 4h-187q-4 0 -5 -4l-23 -98q-3 -10 -13 -10h-121q-13 0 -10 13l180 677q3 10 14 10h145q11 0 14 -10l180 -677l1 -4q0 -9 -11 -9h-122q-11 0 -14 10zM217 222.5q2 -1.5 4 -1.5h132q2 0 4 1.5t1 4.5l-69 290q-1 4 -3 4t-3 -4l-67 -290q-1 -3 1 -4.5
zM135.5 763.5q-2.5 4.5 1.5 10.5l69 104q5 8 14 8h131q9 0 14 -8l70 -104q2 -4 2 -7q0 -8 -10 -8h-87q-11 0 -15 8l-35 59q-3 6 -6 0l-35 -59q-4 -8 -15 -8h-89q-7 0 -9.5 4.5zM512 889q0 -8 -10 -8h-80q-9 0 -14 7l-74 102q-3 5 -3 7q0 8 11 8h96q10 0 15 -8l57 -102
q2 -4 2 -6z" />
    <glyph glyph-name="uni1EA7" unicode="&#x1ea7;" horiz-adv-x="486" 
d="M348 500.5q47 -21.5 73.5 -60t26.5 -87.5v-341q0 -5 -3.5 -8.5t-8.5 -3.5h-117q-5 0 -8.5 3.5t-3.5 8.5v28q0 3 -2 4t-4 -2q-38 -50 -118 -50q-68 0 -113.5 35t-45.5 117q0 163 204 163h74q5 0 5 5v23q0 30 -17.5 48t-47.5 18q-24 0 -40 -11t-20 -30q-3 -10 -14 -10
l-121 7q-5 0 -8.5 3t-2.5 8q6 69 62.5 111.5t142.5 42.5q60 0 107 -21.5zM283 118q24 19 24 50v42q0 5 -5 5h-56q-37 0 -58 -16t-21 -46q0 -26 16 -40t42 -14q34 0 58 19zM91.5 577.5q-2.5 4.5 1.5 10.5l69 104q5 8 14 8h131q9 0 14 -8l70 -104q2 -4 2 -7q0 -8 -10 -8h-87
q-11 0 -15 8l-35 59q-3 6 -6 0l-35 -59q-4 -8 -15 -8h-89q-7 0 -9.5 4.5zM468 703q0 -8 -10 -8h-80q-9 0 -14 7l-74 102q-3 5 -3 7q0 8 11 8h96q10 0 15 -8l57 -102q2 -4 2 -6z" />
    <glyph glyph-name="uni1EA8" unicode="&#x1ea8;" horiz-adv-x="577" 
d="M409 10l-23 98q-1 4 -5 4h-187q-4 0 -5 -4l-23 -98q-3 -10 -13 -10h-121q-13 0 -10 13l180 677q3 10 14 10h145q11 0 14 -10l180 -677l1 -4q0 -9 -11 -9h-122q-11 0 -14 10zM217 222.5q2 -1.5 4 -1.5h132q2 0 4 1.5t1 4.5l-69 290q-1 4 -3 4t-3 -4l-67 -290q-1 -3 1 -4.5
zM419 880q9 21 19 33.5t12 14.5q10 11 14.5 19t4.5 21q0 9 -8.5 16t-19.5 7q-12 0 -21 -6t-22 -23q-4 -6 -10 -6q-5 0 -8 3l-32 24q-5 3 -5 9q0 4 3 8q21 30 43 43t56 13q44 0 69.5 -24t25.5 -64q0 -23 -9 -38t-27 -34q-17 -15 -25 -30q-5 -9 -15 -8l-37 7q-14 3 -8 15z
M135.5 763.5q-2.5 4.5 1.5 10.5l69 104q5 8 14 8h131q9 0 14 -8l70 -104q2 -4 2 -7q0 -8 -10 -8h-87q-11 0 -15 8l-35 59q-3 6 -6 0l-35 -59q-4 -8 -15 -8h-89q-7 0 -9.5 4.5z" />
    <glyph glyph-name="uni1EA9" unicode="&#x1ea9;" horiz-adv-x="486" 
d="M348 500.5q47 -21.5 73.5 -60t26.5 -87.5v-341q0 -5 -3.5 -8.5t-8.5 -3.5h-117q-5 0 -8.5 3.5t-3.5 8.5v28q0 3 -2 4t-4 -2q-38 -50 -118 -50q-68 0 -113.5 35t-45.5 117q0 163 204 163h74q5 0 5 5v23q0 30 -17.5 48t-47.5 18q-24 0 -40 -11t-20 -30q-3 -10 -14 -10
l-121 7q-5 0 -8.5 3t-2.5 8q6 69 62.5 111.5t142.5 42.5q60 0 107 -21.5zM283 118q24 19 24 50v42q0 5 -5 5h-56q-37 0 -58 -16t-21 -46q0 -26 16 -40t42 -14q34 0 58 19zM375 694q9 21 19 33.5t12 14.5q10 11 14.5 19t4.5 21q0 9 -8.5 16t-19.5 7q-12 0 -21 -6t-22 -23
q-4 -6 -10 -6q-5 0 -8 3l-32 24q-5 3 -5 9q0 4 3 8q21 30 43 43t56 13q44 0 69.5 -24t25.5 -64q0 -23 -9 -38t-27 -34q-17 -15 -25 -30q-5 -9 -15 -8l-37 7q-14 3 -8 15zM91.5 577.5q-2.5 4.5 1.5 10.5l69 104q5 8 14 8h131q9 0 14 -8l70 -104q2 -4 2 -7q0 -8 -10 -8h-87
q-11 0 -15 8l-35 59q-3 6 -6 0l-35 -59q-4 -8 -15 -8h-89q-7 0 -9.5 4.5z" />
    <glyph glyph-name="uni1EAA" unicode="&#x1eaa;" horiz-adv-x="577" 
d="M409 10l-23 98q-1 4 -5 4h-187q-4 0 -5 -4l-23 -98q-3 -10 -13 -10h-121q-13 0 -10 13l180 677q3 10 14 10h145q11 0 14 -10l180 -677l1 -4q0 -9 -11 -9h-122q-11 0 -14 10zM217 222.5q2 -1.5 4 -1.5h132q2 0 4 1.5t1 4.5l-69 290q-1 4 -3 4t-3 -4l-67 -290q-1 -3 1 -4.5
zM135.5 763.5q-2.5 4.5 1.5 10.5l69 104q5 8 14 8h131q9 0 14 -8l70 -104q2 -4 2 -7q0 -8 -10 -8h-87q-11 0 -15 8l-35 59q-3 6 -6 0l-35 -59q-4 -8 -15 -8h-89q-7 0 -9.5 4.5zM313.5 924.5q-12.5 4.5 -31.5 13.5q-5 3 -15 8t-17 7t-14 2q-26 0 -44 -22q-6 -6 -10 -6
q-3 0 -7 4l-41 36q-8 8 -4 17q15 31 40.5 48t56.5 17q18 0 33 -5.5t36 -16.5q4 -2 13 -7.5t16.5 -8t15.5 -2.5q28 0 42 21q5 7 10 7q3 0 7 -4l39 -35q8 -8 3 -18q-15 -30 -41.5 -45t-57.5 -15q-17 0 -29.5 4.5z" />
    <glyph glyph-name="uni1EAB" unicode="&#x1eab;" horiz-adv-x="486" 
d="M348 500.5q47 -21.5 73.5 -60t26.5 -87.5v-341q0 -5 -3.5 -8.5t-8.5 -3.5h-117q-5 0 -8.5 3.5t-3.5 8.5v28q0 3 -2 4t-4 -2q-38 -50 -118 -50q-68 0 -113.5 35t-45.5 117q0 163 204 163h74q5 0 5 5v23q0 30 -17.5 48t-47.5 18q-24 0 -40 -11t-20 -30q-3 -10 -14 -10
l-121 7q-5 0 -8.5 3t-2.5 8q6 69 62.5 111.5t142.5 42.5q60 0 107 -21.5zM283 118q24 19 24 50v42q0 5 -5 5h-56q-37 0 -58 -16t-21 -46q0 -26 16 -40t42 -14q34 0 58 19zM91.5 577.5q-2.5 4.5 1.5 10.5l69 104q5 8 14 8h131q9 0 14 -8l70 -104q2 -4 2 -7q0 -8 -10 -8h-87
q-11 0 -15 8l-35 59q-3 6 -6 0l-35 -59q-4 -8 -15 -8h-89q-7 0 -9.5 4.5zM269.5 738.5q-12.5 4.5 -31.5 13.5q-5 3 -15 8t-17 7t-14 2q-26 0 -44 -22q-6 -6 -10 -6q-3 0 -7 4l-41 36q-8 8 -4 17q15 31 40.5 48t56.5 17q18 0 33 -5.5t36 -16.5q4 -2 13 -7.5t16.5 -8
t15.5 -2.5q28 0 42 21q5 7 10 7q3 0 7 -4l39 -35q8 -8 3 -18q-15 -30 -41.5 -45t-57.5 -15q-17 0 -29.5 4.5z" />
    <glyph glyph-name="uni1EAC" unicode="&#x1eac;" horiz-adv-x="577" 
d="M409 10l-23 98q-1 4 -5 4h-187q-4 0 -5 -4l-23 -98q-3 -10 -13 -10h-121q-13 0 -10 13l180 677q3 10 14 10h145q11 0 14 -10l180 -677l1 -4q0 -9 -11 -9h-122q-11 0 -14 10zM217 222.5q2 -1.5 4 -1.5h132q2 0 4 1.5t1 4.5l-69 290q-1 4 -3 4t-3 -4l-67 -290q-1 -3 1 -4.5
zM234.5 -206.5q-21.5 21.5 -21.5 53.5q0 33 21.5 54t54.5 21t54 -20.5t21 -54.5q0 -32 -21.5 -53.5t-53.5 -21.5q-33 0 -54.5 21.5zM136.5 763.5q-2.5 4.5 1.5 10.5l69 104q5 8 14 8h131q9 0 14 -8l70 -104q2 -4 2 -7q0 -8 -10 -8h-87q-11 0 -15 8l-35 59q-3 6 -6 0l-35 -59
q-4 -8 -15 -8h-89q-7 0 -9.5 4.5z" />
    <glyph glyph-name="uni1EAD" unicode="&#x1ead;" horiz-adv-x="486" 
d="M348 500.5q47 -21.5 73.5 -60t26.5 -87.5v-341q0 -5 -3.5 -8.5t-8.5 -3.5h-117q-5 0 -8.5 3.5t-3.5 8.5v28q0 3 -2 4t-4 -2q-38 -50 -118 -50q-68 0 -113.5 35t-45.5 117q0 163 204 163h74q5 0 5 5v23q0 30 -17.5 48t-47.5 18q-24 0 -40 -11t-20 -30q-3 -10 -14 -10
l-121 7q-5 0 -8.5 3t-2.5 8q6 69 62.5 111.5t142.5 42.5q60 0 107 -21.5zM283 118q24 19 24 50v42q0 5 -5 5h-56q-37 0 -58 -16t-21 -46q0 -26 16 -40t42 -14q34 0 58 19zM189.5 -206.5q-21.5 21.5 -21.5 53.5q0 33 21.5 54t54.5 21t54 -20.5t21 -54.5q0 -32 -21.5 -53.5
t-53.5 -21.5q-33 0 -54.5 21.5zM91.5 577.5q-2.5 4.5 1.5 10.5l69 104q5 8 14 8h131q9 0 14 -8l70 -104q2 -4 2 -7q0 -8 -10 -8h-87q-11 0 -15 8l-35 59q-3 6 -6 0l-35 -59q-4 -8 -15 -8h-89q-7 0 -9.5 4.5z" />
    <glyph glyph-name="uni1EAE" unicode="&#x1eae;" horiz-adv-x="577" 
d="M409 10l-23 98q-1 4 -5 4h-187q-4 0 -5 -4l-23 -98q-3 -10 -13 -10h-121q-13 0 -10 13l180 677q3 10 14 10h145q11 0 14 -10l180 -677l1 -4q0 -9 -11 -9h-122q-11 0 -14 10zM217 222.5q2 -1.5 4 -1.5h132q2 0 4 1.5t1 4.5l-69 290q-1 4 -3 4t-3 -4l-67 -290q-1 -3 1 -4.5
zM192 781q-38 30 -43 79v2q0 10 11 10h56q10 0 12 -11q4 -20 20.5 -33t39.5 -13t39.5 13t20.5 33q2 11 12 11h55q13 0 11 -11q-4 -49 -42 -79.5t-96 -30.5t-96 30zM225 923q-2 4 1 10l57 102q5 8 15 8h96q8 0 10 -4.5t-2 -10.5l-74 -102q-5 -7 -14 -7h-80q-7 0 -9 4z" />
    <glyph glyph-name="uni1EAF" unicode="&#x1eaf;" horiz-adv-x="486" 
d="M348 500.5q47 -21.5 73.5 -60t26.5 -87.5v-341q0 -5 -3.5 -8.5t-8.5 -3.5h-117q-5 0 -8.5 3.5t-3.5 8.5v28q0 3 -2 4t-4 -2q-38 -50 -118 -50q-68 0 -113.5 35t-45.5 117q0 163 204 163h74q5 0 5 5v23q0 30 -17.5 48t-47.5 18q-24 0 -40 -11t-20 -30q-3 -10 -14 -10
l-121 7q-5 0 -8.5 3t-2.5 8q6 69 62.5 111.5t142.5 42.5q60 0 107 -21.5zM283 118q24 19 24 50v42q0 5 -5 5h-56q-37 0 -58 -16t-21 -46q0 -26 16 -40t42 -14q34 0 58 19zM148 596q-38 30 -43 79v2q0 10 11 10h56q10 0 12 -11q4 -20 20.5 -33t39.5 -13t39.5 13t20.5 33
q2 11 12 11h55q13 0 11 -11q-4 -49 -42 -79.5t-96 -30.5t-96 30zM181 738q-2 4 1 10l57 102q5 8 15 8h96q8 0 10 -4.5t-2 -10.5l-74 -102q-5 -7 -14 -7h-80q-7 0 -9 4z" />
    <glyph glyph-name="uni1EB0" unicode="&#x1eb0;" horiz-adv-x="577" 
d="M409 10l-23 98q-1 4 -5 4h-187q-4 0 -5 -4l-23 -98q-3 -10 -13 -10h-121q-13 0 -10 13l180 677q3 10 14 10h145q11 0 14 -10l180 -677l1 -4q0 -9 -11 -9h-122q-11 0 -14 10zM217 222.5q2 -1.5 4 -1.5h132q2 0 4 1.5t1 4.5l-69 290q-1 4 -3 4t-3 -4l-67 -290q-1 -3 1 -4.5
zM192 781q-38 30 -43 79v2q0 10 11 10h56q10 0 12 -11q4 -20 20.5 -33t39.5 -13t39.5 13t20.5 33q2 11 12 11h55q13 0 11 -11q-4 -49 -42 -79.5t-96 -30.5t-96 30zM337 927q0 -8 -10 -8h-80q-9 0 -14 7l-74 102q-3 5 -3 7q0 8 11 8h96q10 0 15 -8l57 -102q2 -4 2 -6z" />
    <glyph glyph-name="uni1EB1" unicode="&#x1eb1;" horiz-adv-x="486" 
d="M348 500.5q47 -21.5 73.5 -60t26.5 -87.5v-341q0 -5 -3.5 -8.5t-8.5 -3.5h-117q-5 0 -8.5 3.5t-3.5 8.5v28q0 3 -2 4t-4 -2q-38 -50 -118 -50q-68 0 -113.5 35t-45.5 117q0 163 204 163h74q5 0 5 5v23q0 30 -17.5 48t-47.5 18q-24 0 -40 -11t-20 -30q-3 -10 -14 -10
l-121 7q-5 0 -8.5 3t-2.5 8q6 69 62.5 111.5t142.5 42.5q60 0 107 -21.5zM283 118q24 19 24 50v42q0 5 -5 5h-56q-37 0 -58 -16t-21 -46q0 -26 16 -40t42 -14q34 0 58 19zM148 596q-38 30 -43 79v2q0 10 11 10h56q10 0 12 -11q4 -20 20.5 -33t39.5 -13t39.5 13t20.5 33
q2 11 12 11h55q13 0 11 -11q-4 -49 -42 -79.5t-96 -30.5t-96 30zM293 742q0 -8 -10 -8h-80q-9 0 -14 7l-74 102q-3 5 -3 7q0 8 11 8h96q10 0 15 -8l57 -102q2 -4 2 -6z" />
    <glyph glyph-name="uni1EB2" unicode="&#x1eb2;" horiz-adv-x="577" 
d="M409 10l-23 98q-1 4 -5 4h-187q-4 0 -5 -4l-23 -98q-3 -10 -13 -10h-121q-13 0 -10 13l180 677q3 10 14 10h145q11 0 14 -10l180 -677l1 -4q0 -9 -11 -9h-122q-11 0 -14 10zM217 222.5q2 -1.5 4 -1.5h132q2 0 4 1.5t1 4.5l-69 290q-1 4 -3 4t-3 -4l-67 -290q-1 -3 1 -4.5
zM269 915q6 16 12.5 25t17.5 21q9 10 13.5 18t4.5 20q0 9 -8 15.5t-19 6.5q-13 0 -21.5 -5.5t-20.5 -21.5q-4 -6 -10 -6q-5 0 -8 3l-30 22q-9 8 -3 17q21 30 42.5 42.5t54.5 12.5q42 0 67 -23t25 -63q0 -22 -9 -37t-26 -32t-24 -30q-6 -8 -15 -7l-35 7q-14 3 -8 15zM192 781
q-38 30 -43 79v2q0 10 11 10h56q10 0 12 -11q4 -20 20.5 -33t39.5 -13t39.5 13t20.5 33q2 11 12 11h55q12 0 12 -11q-5 -49 -43 -79.5t-96 -30.5t-96 30z" />
    <glyph glyph-name="uni1EB3" unicode="&#x1eb3;" horiz-adv-x="486" 
d="M348 500.5q47 -21.5 73.5 -60t26.5 -87.5v-341q0 -5 -3.5 -8.5t-8.5 -3.5h-117q-5 0 -8.5 3.5t-3.5 8.5v28q0 3 -2 4t-4 -2q-38 -50 -118 -50q-68 0 -113.5 35t-45.5 117q0 163 204 163h74q5 0 5 5v23q0 30 -17.5 48t-47.5 18q-24 0 -40 -11t-20 -30q-3 -10 -14 -10
l-121 7q-5 0 -8.5 3t-2.5 8q6 69 62.5 111.5t142.5 42.5q60 0 107 -21.5zM283 118q24 19 24 50v42q0 5 -5 5h-56q-37 0 -58 -16t-21 -46q0 -26 16 -40t42 -14q34 0 58 19zM225 730q6 16 12.5 25t17.5 21q9 10 13.5 18t4.5 20q0 9 -8 15.5t-19 6.5q-13 0 -21.5 -5.5
t-20.5 -21.5q-4 -6 -10 -6q-5 0 -8 3l-30 22q-9 8 -3 17q21 30 42.5 42.5t54.5 12.5q42 0 67 -23t25 -63q0 -22 -9 -37t-26 -32t-24 -30q-6 -8 -15 -7l-35 7q-14 3 -8 15zM148 596q-38 30 -43 79v2q0 10 11 10h56q10 0 12 -11q4 -20 20.5 -33t39.5 -13t39.5 13t20.5 33
q2 11 12 11h55q12 0 12 -11q-5 -49 -43 -79.5t-96 -30.5t-96 30z" />
    <glyph glyph-name="uni1EB4" unicode="&#x1eb4;" horiz-adv-x="577" 
d="M409 10l-23 98q-1 4 -5 4h-187q-4 0 -5 -4l-23 -98q-3 -10 -13 -10h-121q-13 0 -10 13l180 677q3 10 14 10h145q11 0 14 -10l180 -677l1 -4q0 -9 -11 -9h-122q-11 0 -14 10zM217 222.5q2 -1.5 4 -1.5h132q2 0 4 1.5t1 4.5l-69 290q-1 4 -3 4t-3 -4l-67 -290q-1 -3 1 -4.5
zM320 911q-13 4 -28 13q-4 2 -13.5 7t-16 7t-13.5 2q-25 0 -41 -19q-5 -7 -10 -7q-3 0 -7 4l-37 33q-8 8 -4 17q13 29 37 44.5t53 15.5q17 0 31.5 -5t33.5 -16q4 -2 12.5 -7t16 -7.5t14.5 -2.5q25 0 39 21q5 5 9 5t8 -3l35 -32q4 -3 5 -8t-2 -10q-15 -28 -39.5 -42
t-53.5 -14q-16 0 -29 4zM192 781q-38 30 -43 79v2q0 10 11 10h56q10 0 12 -11q4 -20 20.5 -33t39.5 -13t39.5 13t20.5 33q2 11 12 11h55q12 0 12 -11q-5 -49 -43 -79.5t-96 -30.5t-96 30z" />
    <glyph glyph-name="uni1EB5" unicode="&#x1eb5;" horiz-adv-x="486" 
d="M348 500.5q47 -21.5 73.5 -60t26.5 -87.5v-341q0 -5 -3.5 -8.5t-8.5 -3.5h-117q-5 0 -8.5 3.5t-3.5 8.5v28q0 3 -2 4t-4 -2q-38 -50 -118 -50q-68 0 -113.5 35t-45.5 117q0 163 204 163h74q5 0 5 5v23q0 30 -17.5 48t-47.5 18q-24 0 -40 -11t-20 -30q-3 -10 -14 -10
l-121 7q-5 0 -8.5 3t-2.5 8q6 69 62.5 111.5t142.5 42.5q60 0 107 -21.5zM283 118q24 19 24 50v42q0 5 -5 5h-56q-37 0 -58 -16t-21 -46q0 -26 16 -40t42 -14q34 0 58 19zM276 726q-13 4 -28 13q-4 2 -13.5 7t-16 7t-13.5 2q-25 0 -41 -19q-5 -7 -10 -7q-3 0 -7 4l-37 33
q-8 8 -4 17q13 29 37 44.5t53 15.5q17 0 31.5 -5t33.5 -16q4 -2 12.5 -7t16 -7.5t14.5 -2.5q25 0 39 21q5 5 9 5t8 -3l35 -32q4 -3 5 -8t-2 -10q-15 -28 -39.5 -42t-53.5 -14q-16 0 -29 4zM148 596q-38 30 -43 79v2q0 10 11 10h56q10 0 12 -11q4 -20 20.5 -33t39.5 -13
t39.5 13t20.5 33q2 11 12 11h55q12 0 12 -11q-5 -49 -43 -79.5t-96 -30.5t-96 30z" />
    <glyph glyph-name="uni1EB6" unicode="&#x1eb6;" horiz-adv-x="577" 
d="M409 10l-23 98q-1 4 -5 4h-187q-4 0 -5 -4l-23 -98q-3 -10 -13 -10h-121q-13 0 -10 13l180 677q3 10 14 10h145q11 0 14 -10l180 -677l1 -4q0 -9 -11 -9h-122q-11 0 -14 10zM217 222.5q2 -1.5 4 -1.5h132q2 0 4 1.5t1 4.5l-69 290q-1 4 -3 4t-3 -4l-67 -290q-1 -3 1 -4.5
zM234.5 -206.5q-21.5 21.5 -21.5 53.5q0 33 21.5 54t54.5 21t54 -20.5t21 -54.5q0 -32 -21.5 -53.5t-53.5 -21.5q-33 0 -54.5 21.5zM192 781q-38 30 -43 79v2q0 10 11 10h56q10 0 12 -11q4 -20 20.5 -33t39.5 -13t39.5 13t20.5 33q2 11 12 11h55q13 0 11 -11
q-4 -49 -42 -79.5t-96 -30.5t-96 30z" />
    <glyph glyph-name="uni1EB7" unicode="&#x1eb7;" horiz-adv-x="486" 
d="M348 500.5q47 -21.5 73.5 -60t26.5 -87.5v-341q0 -5 -3.5 -8.5t-8.5 -3.5h-117q-5 0 -8.5 3.5t-3.5 8.5v28q0 3 -2 4t-4 -2q-38 -50 -118 -50q-68 0 -113.5 35t-45.5 117q0 163 204 163h74q5 0 5 5v23q0 30 -17.5 48t-47.5 18q-24 0 -40 -11t-20 -30q-3 -10 -14 -10
l-121 7q-5 0 -8.5 3t-2.5 8q6 69 62.5 111.5t142.5 42.5q60 0 107 -21.5zM283 118q24 19 24 50v42q0 5 -5 5h-56q-37 0 -58 -16t-21 -46q0 -26 16 -40t42 -14q34 0 58 19zM189.5 -206.5q-21.5 21.5 -21.5 53.5q0 33 21.5 54t54.5 21t54 -20.5t21 -54.5q0 -32 -21.5 -53.5
t-53.5 -21.5q-33 0 -54.5 21.5zM148 596q-38 30 -43 79v2q0 10 11 10h56q10 0 12 -11q4 -20 20.5 -33t39.5 -13t39.5 13t20.5 33q2 11 12 11h55q13 0 11 -11q-4 -49 -42 -79.5t-96 -30.5t-96 30z" />
    <glyph glyph-name="uni1EB8" unicode="&#x1eb8;" horiz-adv-x="511" 
d="M475.5 582.5q-3.5 -3.5 -8.5 -3.5h-268q-5 0 -5 -5v-156q0 -5 5 -5h167q5 0 8.5 -3.5t3.5 -8.5v-97q0 -5 -3.5 -8.5t-8.5 -3.5h-167q-5 0 -5 -5v-161q0 -5 5 -5h268q5 0 8.5 -3.5t3.5 -8.5v-97q0 -5 -3.5 -8.5t-8.5 -3.5h-402q-5 0 -8.5 3.5t-3.5 8.5v676q0 5 3.5 8.5
t8.5 3.5h402q5 0 8.5 -3.5t3.5 -8.5v-97q0 -5 -3.5 -8.5zM211.5 -206.5q-21.5 21.5 -21.5 53.5q0 33 21.5 54t54.5 21t54 -20.5t21 -54.5q0 -32 -21.5 -53.5t-53.5 -21.5q-33 0 -54.5 21.5z" />
    <glyph glyph-name="uni1EB9" unicode="&#x1eb9;" horiz-adv-x="490" 
d="M461 262l-1 -39q0 -12 -12 -12h-265q-5 0 -5 -5q2 -23 4 -34q5 -28 24.5 -44t48.5 -16q49 1 68 45q5 10 15 8l106 -21q12 -3 8 -15q-22 -66 -72.5 -101.5t-124.5 -35.5q-89 0 -141.5 40.5t-68.5 116.5q-9 41 -9 125q0 48 6 81q11 76 66 121.5t139 45.5q91 0 148 -51.5
t63 -135.5q3 -33 3 -73zM203.5 385q-17.5 -16 -22.5 -44q-3 -18 -3 -38q0 -5 5 -5h130q5 0 5 5q0 20 -3 38q-4 27 -22 43.5t-45 16.5t-44.5 -16zM198.5 -211.5q-21.5 21.5 -21.5 53.5q0 33 21.5 54t54.5 21t54 -20.5t21 -54.5q0 -32 -21.5 -53.5t-53.5 -21.5
q-33 0 -54.5 21.5z" />
    <glyph glyph-name="uni1EBA" unicode="&#x1eba;" horiz-adv-x="511" 
d="M475.5 582.5q-3.5 -3.5 -8.5 -3.5h-268q-5 0 -5 -5v-156q0 -5 5 -5h167q5 0 8.5 -3.5t3.5 -8.5v-97q0 -5 -3.5 -8.5t-8.5 -3.5h-167q-5 0 -5 -5v-161q0 -5 5 -5h268q5 0 8.5 -3.5t3.5 -8.5v-97q0 -5 -3.5 -8.5t-8.5 -3.5h-402q-5 0 -8.5 3.5t-3.5 8.5v676q0 5 3.5 8.5
t8.5 3.5h402q5 0 8.5 -3.5t3.5 -8.5v-97q0 -5 -3.5 -8.5zM243 760q7 17 14 27t19 23q10 11 14.5 19t4.5 21q0 10 -8.5 17t-19.5 7q-14 0 -23 -6t-23 -24q-4 -6 -10 -6q-5 0 -8 3l-34 25q-5 3 -5 9q0 4 3 8q23 32 45.5 45.5t57.5 13.5q46 0 72.5 -24.5t26.5 -67.5
q0 -23 -9.5 -39t-28.5 -35q-18 -18 -26 -32q-6 -9 -15 -7l-39 8q-14 3 -8 15z" />
    <glyph glyph-name="uni1EBB" unicode="&#x1ebb;" horiz-adv-x="490" 
d="M461 262l-1 -39q0 -12 -12 -12h-265q-5 0 -5 -5q2 -23 4 -34q5 -28 24.5 -44t48.5 -16q49 1 68 45q5 10 15 8l106 -21q12 -3 8 -15q-22 -66 -72.5 -101.5t-124.5 -35.5q-89 0 -141.5 40.5t-68.5 116.5q-9 41 -9 125q0 48 6 81q11 76 66 121.5t139 45.5q91 0 148 -51.5
t63 -135.5q3 -33 3 -73zM203.5 385q-17.5 -16 -22.5 -44q-3 -18 -3 -38q0 -5 5 -5h130q5 0 5 5q0 20 -3 38q-4 27 -22 43.5t-45 16.5t-44.5 -16zM223 574q7 17 14 27t19 23q10 11 14.5 19t4.5 21q0 10 -8.5 17t-19.5 7q-14 0 -23 -6t-23 -24q-4 -6 -10 -6q-5 0 -8 3l-34 25
q-5 3 -5 9q0 4 3 8q23 32 45.5 45.5t57.5 13.5q46 0 72.5 -24.5t26.5 -67.5q0 -23 -9.5 -39t-28.5 -35q-18 -18 -26 -32q-6 -9 -15 -7l-39 8q-14 3 -8 15z" />
    <glyph glyph-name="uni1EBC" unicode="&#x1ebc;" horiz-adv-x="511" 
d="M475.5 582.5q-3.5 -3.5 -8.5 -3.5h-268q-5 0 -5 -5v-156q0 -5 5 -5h167q5 0 8.5 -3.5t3.5 -8.5v-97q0 -5 -3.5 -8.5t-8.5 -3.5h-167q-5 0 -5 -5v-161q0 -5 5 -5h268q5 0 8.5 -3.5t3.5 -8.5v-97q0 -5 -3.5 -8.5t-8.5 -3.5h-402q-5 0 -8.5 3.5t-3.5 8.5v676q0 5 3.5 8.5
t8.5 3.5h402q5 0 8.5 -3.5t3.5 -8.5v-97q0 -5 -3.5 -8.5zM300.5 770.5q-12.5 4.5 -31.5 13.5q-5 3 -15 8t-17 7t-14 2q-26 0 -44 -22q-6 -6 -10 -6q-3 0 -7 4l-41 36q-8 8 -4 17q15 31 40.5 48t56.5 17q18 0 33 -5.5t36 -16.5q4 -2 13 -7.5t16.5 -8t15.5 -2.5q28 0 42 21
q5 7 10 7q3 0 7 -4l39 -35q8 -8 3 -18q-15 -30 -41.5 -45t-57.5 -15q-17 0 -29.5 4.5z" />
    <glyph glyph-name="uni1EBD" unicode="&#x1ebd;" horiz-adv-x="490" 
d="M461 262l-1 -39q0 -12 -12 -12h-265q-5 0 -5 -5q2 -23 4 -34q5 -28 24.5 -44t48.5 -16q49 1 68 45q5 10 15 8l106 -21q12 -3 8 -15q-22 -66 -72.5 -101.5t-124.5 -35.5q-89 0 -141.5 40.5t-68.5 116.5q-9 41 -9 125q0 48 6 81q11 76 66 121.5t139 45.5q91 0 148 -51.5
t63 -135.5q3 -33 3 -73zM203.5 385q-17.5 -16 -22.5 -44q-3 -18 -3 -38q0 -5 5 -5h130q5 0 5 5q0 20 -3 38q-4 27 -22 43.5t-45 16.5t-44.5 -16zM280.5 584.5q-12.5 4.5 -31.5 13.5q-5 3 -15 8t-17 7t-14 2q-26 0 -44 -22q-6 -6 -10 -6q-3 0 -7 4l-41 36q-8 8 -4 17
q15 31 40.5 48t56.5 17q18 0 33 -5.5t36 -16.5q4 -2 13 -7.5t16.5 -8t15.5 -2.5q28 0 42 21q5 7 10 7q3 0 7 -4l39 -35q8 -8 3 -18q-15 -30 -41.5 -45t-57.5 -15q-17 0 -29.5 4.5z" />
    <glyph glyph-name="uni1EBE" unicode="&#x1ebe;" horiz-adv-x="511" 
d="M475.5 582.5q-3.5 -3.5 -8.5 -3.5h-268q-5 0 -5 -5v-156q0 -5 5 -5h167q5 0 8.5 -3.5t3.5 -8.5v-97q0 -5 -3.5 -8.5t-8.5 -3.5h-167q-5 0 -5 -5v-161q0 -5 5 -5h268q5 0 8.5 -3.5t3.5 -8.5v-97q0 -5 -3.5 -8.5t-8.5 -3.5h-402q-5 0 -8.5 3.5t-3.5 8.5v676q0 5 3.5 8.5
t8.5 3.5h402q5 0 8.5 -3.5t3.5 -8.5v-97q0 -5 -3.5 -8.5zM112.5 763.5q-2.5 4.5 1.5 10.5l69 104q5 8 14 8h131q9 0 14 -8l70 -104q2 -4 2 -7q0 -8 -10 -8h-87q-11 0 -15 8l-35 59q-3 6 -6 0l-35 -59q-4 -8 -15 -8h-89q-7 0 -9.5 4.5zM407 844q-2 4 1 10l57 102q5 8 15 8h96
q8 0 10 -4.5t-2 -10.5l-74 -102q-5 -7 -14 -7h-80q-7 0 -9 4z" />
    <glyph glyph-name="uni1EBF" unicode="&#x1ebf;" horiz-adv-x="490" 
d="M461 262l-1 -39q0 -12 -12 -12h-265q-5 0 -5 -5q2 -23 4 -34q5 -28 24.5 -44t48.5 -16q49 1 68 45q5 10 15 8l106 -21q12 -3 8 -15q-22 -66 -72.5 -101.5t-124.5 -35.5q-89 0 -141.5 40.5t-68.5 116.5q-9 41 -9 125q0 48 6 81q11 76 66 121.5t139 45.5q91 0 148 -51.5
t63 -135.5q3 -33 3 -73zM203.5 385q-17.5 -16 -22.5 -44q-3 -18 -3 -38q0 -5 5 -5h130q5 0 5 5q0 20 -3 38q-4 27 -22 43.5t-45 16.5t-44.5 -16zM92.5 577.5q-2.5 4.5 1.5 10.5l69 104q5 8 14 8h131q9 0 14 -8l70 -104q2 -4 2 -7q0 -8 -10 -8h-87q-11 0 -15 8l-35 59
q-3 6 -6 0l-35 -59q-4 -8 -15 -8h-89q-7 0 -9.5 4.5zM387 658q-2 4 1 10l57 102q5 8 15 8h96q8 0 10 -4.5t-2 -10.5l-74 -102q-5 -7 -14 -7h-80q-7 0 -9 4z" />
    <glyph glyph-name="uni1EC0" unicode="&#x1ec0;" horiz-adv-x="511" 
d="M475.5 582.5q-3.5 -3.5 -8.5 -3.5h-268q-5 0 -5 -5v-156q0 -5 5 -5h167q5 0 8.5 -3.5t3.5 -8.5v-97q0 -5 -3.5 -8.5t-8.5 -3.5h-167q-5 0 -5 -5v-161q0 -5 5 -5h268q5 0 8.5 -3.5t3.5 -8.5v-97q0 -5 -3.5 -8.5t-8.5 -3.5h-402q-5 0 -8.5 3.5t-3.5 8.5v676q0 5 3.5 8.5
t8.5 3.5h402q5 0 8.5 -3.5t3.5 -8.5v-97q0 -5 -3.5 -8.5zM112.5 763.5q-2.5 4.5 1.5 10.5l69 104q5 8 14 8h131q9 0 14 -8l70 -104q2 -4 2 -7q0 -8 -10 -8h-87q-11 0 -15 8l-35 59q-3 6 -6 0l-35 -59q-4 -8 -15 -8h-89q-7 0 -9.5 4.5zM489 889q0 -8 -10 -8h-80q-9 0 -14 7
l-74 102q-3 5 -3 7q0 8 11 8h96q10 0 15 -8l57 -102q2 -4 2 -6z" />
    <glyph glyph-name="uni1EC1" unicode="&#x1ec1;" horiz-adv-x="490" 
d="M461 262l-1 -39q0 -12 -12 -12h-265q-5 0 -5 -5q2 -23 4 -34q5 -28 24.5 -44t48.5 -16q49 1 68 45q5 10 15 8l106 -21q12 -3 8 -15q-22 -66 -72.5 -101.5t-124.5 -35.5q-89 0 -141.5 40.5t-68.5 116.5q-9 41 -9 125q0 48 6 81q11 76 66 121.5t139 45.5q91 0 148 -51.5
t63 -135.5q3 -33 3 -73zM203.5 385q-17.5 -16 -22.5 -44q-3 -18 -3 -38q0 -5 5 -5h130q5 0 5 5q0 20 -3 38q-4 27 -22 43.5t-45 16.5t-44.5 -16zM92.5 577.5q-2.5 4.5 1.5 10.5l69 104q5 8 14 8h131q9 0 14 -8l70 -104q2 -4 2 -7q0 -8 -10 -8h-87q-11 0 -15 8l-35 59
q-3 6 -6 0l-35 -59q-4 -8 -15 -8h-89q-7 0 -9.5 4.5zM469 703q0 -8 -10 -8h-80q-9 0 -14 7l-74 102q-3 5 -3 7q0 8 11 8h96q10 0 15 -8l57 -102q2 -4 2 -6z" />
    <glyph glyph-name="uni1EC2" unicode="&#x1ec2;" horiz-adv-x="511" 
d="M475.5 582.5q-3.5 -3.5 -8.5 -3.5h-268q-5 0 -5 -5v-156q0 -5 5 -5h167q5 0 8.5 -3.5t3.5 -8.5v-97q0 -5 -3.5 -8.5t-8.5 -3.5h-167q-5 0 -5 -5v-161q0 -5 5 -5h268q5 0 8.5 -3.5t3.5 -8.5v-97q0 -5 -3.5 -8.5t-8.5 -3.5h-402q-5 0 -8.5 3.5t-3.5 8.5v676q0 5 3.5 8.5
t8.5 3.5h402q5 0 8.5 -3.5t3.5 -8.5v-97q0 -5 -3.5 -8.5zM396 880q9 21 19 33.5t12 14.5q10 11 14.5 19t4.5 21q0 9 -8.5 16t-19.5 7q-12 0 -21 -6t-22 -23q-4 -6 -10 -6q-5 0 -8 3l-32 24q-5 3 -5 9q0 4 3 8q21 30 43 43t56 13q44 0 69.5 -24t25.5 -64q0 -23 -9 -38
t-27 -34q-17 -15 -25 -30q-5 -9 -15 -8l-37 7q-14 3 -8 15zM112.5 763.5q-2.5 4.5 1.5 10.5l69 104q5 8 14 8h131q9 0 14 -8l70 -104q2 -4 2 -7q0 -8 -10 -8h-87q-11 0 -15 8l-35 59q-3 6 -6 0l-35 -59q-4 -8 -15 -8h-89q-7 0 -9.5 4.5z" />
    <glyph glyph-name="uni1EC3" unicode="&#x1ec3;" horiz-adv-x="490" 
d="M461 262l-1 -39q0 -12 -12 -12h-265q-5 0 -5 -5q2 -23 4 -34q5 -28 24.5 -44t48.5 -16q49 1 68 45q5 10 15 8l106 -21q12 -3 8 -15q-22 -66 -72.5 -101.5t-124.5 -35.5q-89 0 -141.5 40.5t-68.5 116.5q-9 41 -9 125q0 48 6 81q11 76 66 121.5t139 45.5q91 0 148 -51.5
t63 -135.5q3 -33 3 -73zM203.5 385q-17.5 -16 -22.5 -44q-3 -18 -3 -38q0 -5 5 -5h130q5 0 5 5q0 20 -3 38q-4 27 -22 43.5t-45 16.5t-44.5 -16zM376 694q9 21 19 33.5t12 14.5q10 11 14.5 19t4.5 21q0 9 -8.5 16t-19.5 7q-12 0 -21 -6t-22 -23q-4 -6 -10 -6q-5 0 -8 3
l-32 24q-5 3 -5 9q0 4 3 8q21 30 43 43t56 13q44 0 69.5 -24t25.5 -64q0 -23 -9 -38t-27 -34q-17 -15 -25 -30q-5 -9 -15 -8l-37 7q-14 3 -8 15zM92.5 577.5q-2.5 4.5 1.5 10.5l69 104q5 8 14 8h131q9 0 14 -8l70 -104q2 -4 2 -7q0 -8 -10 -8h-87q-11 0 -15 8l-35 59
q-3 6 -6 0l-35 -59q-4 -8 -15 -8h-89q-7 0 -9.5 4.5z" />
    </font>
</defs>
</svg>
